#TITLE:The Legend of MAX;
#SUBTITLE:(The Chaos Revolution Mix);
#ARTIST:;
#TITLETRANSLIT:;
#SUBTITLETRANSLIT:;
#ARTISTTRANSLIT:ZZ;
#CREDIT:;
#BANNER:Legend of MAX TCRM-banner.PNG;
#BACKGROUND:Legend of MAX TCRM-bg.PNG;
#LYRICSPATH:;
#CDTITLE:;
#MUSIC:The Legend of Max (The Chaos Revolution Mix).mp3;
#OFFSET:0.000;
#SAMPLESTART:16.486;
#SAMPLELENGTH:12.000;
#SELECTABLE:YES;
#BPMS:0.000=332.999,55.000=666.014,72.000=333.000,331.000=666.015,343.000=333.000,344.000=166.001,345.000=83.000,354.500=333.000,482.000=800.013;
#STOPS:;
#BGCHANGES:;
// cache tags:
#FIRSTBEAT:34.000;
#LASTBEAT:492.000;
#SONGFILENAME:Songs/toune 2/The Legend of Max (The Chaos Revolution Mix)/The Legend of Max (The Chaos Revolution Mix).sm;
#HASMUSIC:1;
#HASBANNER:1;
#MUSICLENGTH:94.179;
// end cache tags

//---------------dance-single - ----------------
#NOTES:
     dance-single:
     :
     Challenge:
     1:
     0.000,0.000,0.000,0.000,0.000,0.000,0.000,0.000,0.000,0.000:
0000
0000
0000
0000
;

//---------------dance-single - ----------------
#NOTES:
     dance-single:
     :
     Hard:
     10:
     1.000,1.000,1.000,0.308,0.111,494.000,156.000,29.000,113.000,17.000:
0000
0000
0000
0000
,
0000
0000
0000
0000
,
0000
0000
0000
0000
,
0000
0000
0000
0000
,
0000
0000
0000
0000
,
0000
0000
0000
0000
,
0000
0000
0000
0000
,
0000
0000
0000
0000
,
0000
0000
0100
1000
,
0010
0001
0010
1000
,
0001
0000
0100
0000
0010
0000
0001
1000
,
0001
0100
1000
0001
,
0100
0110
0010
0011
,
0001
0000
1001
0000
1000
0000
22MM
00MM
,
032M
0M0M
0M32
0MM0
0223
000M
0332
0MM0
,
0M23
0M0M
023M
00MM
002M
000M
0332
0MM0
,
0M23
0M0M
023M
00MM
032M
0M0M
023M
00MM
,
0322
0M00
0233
00MM
032M
0M0M
0032
30M0
,
20M3
0000
3100
0010
,
0001
1000
0001
0100
,
0010
1000
0100
0000
0001
0000
1000
0000
,
0110
0000
1001
0000
0110
0000
0000
1100
,
0000
0110
1001
0010
,
1000
1001
0100
0010
,
0100
0010
1000
0110
,
0001
0000
0010
0000
1000
0000
0000
0100
,
0000
0101
0110
0001
,
1000
0000
0100
0001
0100
0000
1001
0000
,
0110
0000
0101
0110
1001
0000
1100
0000
,
1010
0000
0110
0000
0000
0101
0000
0000
,
0110
0000
0000
1010
0000
0202
0000
0000
,
0000
0000
0000
0000
0000
0000
0000
0303
,
0010
0000
1000
0000
0100
0010
0100
1000
,
0001
0100
0010
0000
0001
1000
0001
0000
,
0001
1000
0001
0000
0010
0000
0100
0000
,
1000
0001
1000
0000
0100
0000
0010
0000
,
1001
0110
1001
0000
1000
0000
0110
0000
,
0101
0110
1001
0000
0110
0000
0000
0110
,
0000
0110
0110
0011
,
0110
0010
1000
0000
1000
0100
1000
0000
,
1000
1000
1000
1000
,
0000
0100
0000
0000
1010
0000
0000
0101
,
0000
0110
1001
0100
,
0010
0000
0001
1000
0001
0000
0110
0000
,
0110
0000
0110
0110
0110
0000
1001
0000
,
0110
0000
0001
0000
0110
0000
0000
0110
,
0000
1001
0110
0000
,
0000
0110
1001
0000
,
0000
0101
0110
1001
,
0110
0001
1000
0100
0011
0000
0000
0000
,
1001
0000
0100
1000
,
1100
0000
0010
0001
,
0000
0110
0000
1000
,
0001
0001
0010
1000
,
0001
0110
0110
1001
,
0110
0000
0001
0110
,
0000
1000
0100
0010
,
0010
0001
0010
1000
,
0110
0000
0110
1001
,
0110
0000
1010
0101
,
0000
0100
0000
1000
,
0100
0010
0101
0000
,
1010
0000
0110
1001
,
0110
0000
0001
0100
,
0000
0110
0000
1001
,
1010
0110
2002
0000
,
0000
0000
3113
1001
,
0110
0000
0001
0011
,
0000
1000
0100
0010
,
1000
0110
0110
0101
,
0110
1010
1001
0110
,
0101
0000
0110
0101
,
0000
0110
1001
0110
,
0001
0110
0110
0000
,
0110
0000
1001
0110
,
1001
0000
0110
1010
,
0000
0101
0110
1001
,
0110
1001
0000
0000
,
1001
0000
0000
0000
0001
1000
0001
0000
,
1001
0000
0000
0000
0001
1000
0001
0000
,
1001
0000
0000
0000
0001
1000
0001
0000
,
0001
1000
0001
0000
0001
0010
0100
1000
,
0101
0010
0100
1000
0100
0011
2002
0000
,
0000
0000
0000
0000
,
0000
0000
0000
0000
,
0000
0000
0000
0000
,
0000
0000
0000
0000
3003
0100
1000
0100
,
0010
0001
1000
0100
0010
0001
0010
0100
,
1000
0010
0001
0010
0100
1000
0000
0100
,
0000
0010
0000
0001
0000
0010
0000
0100
,
0000
1000
0001
1000
0000
0100
0000
0010
,
0000
0001
0000
0010
0000
1000
0000
0110
,
0000
1001
0000
0010
1000
0001
0000
0110
,
0000
1001
0110
1001
0000
0001
0000
0010
,
0000
0100
1000
0001
0000
0010
0000
0100
,
0000
1000
0001
1000
0000
0010
1000
0010
,
1000
0010
1000
0010
0000
0001
1000
0001
,
1000
0001
1000
0001
0000
1000
0001
1000
,
0001
1000
0001
1000
0000
0001
1000
0001
,
1000
0001
1000
0001
0000
0010
0100
1000
,
0100
0010
0001
1001
0000
0100
1000
0001
,
0100
0010
1000
0001
0000
0010
1000
0001
,
1000
0100
0010
0001
0000
0010
1000
0001
,
0100
0010
0001
1000
0000
0010
0100
1000
,
0001
1000
0001
0100
0000
0010
1000
0001
,
0100
0010
0001
1000
0000
0110
0101
1001
,
0110
1001
0110
0101
0000
0100
1000
1000
,
0100
0010
1000
0001
0000
0100
1000
0001
,
0100
1010
0001
1000
0000
0100
1000
0001
,
1000
0010
0001
1000
0100
1000
0001
1000
,
0010
1000
0001
0100
0010
0001
1000
0001
,
0100
0010
0001
0010
0100
0010
0001
1000
,
0100
0010
0110
0000
0110
0000
0110
0000
,
0000
1010
0000
0000
0101
0000
0000
0000
,
0000
0000
1001
0000
1001
1000
0001
1001
,
0000
1001
0000
1001
0000
1001
0001
1000
,
1001
0000
1001
1000
0001
1000
0000
1000
,
0000
0100
0010
1000
0100
0010
1001
1000
,
0100
0010
1100
0010
0110
1000
0001
0100
,
1000
0001
1000
0001
0100
0010
0001
0010
,
0100
0000
0000
1000
0000
0000
0100
0000
0000
1001
0MM0
0000
2MM2
0000
0MM0
0MM0
0MM0
0000
0MM0
0000
0MM0
0000
0MM0
0000
,
0MM0
0000
0MM0
0MM0
0MM0
0000
0MM0
0000
0MM0
0MM0
0MM0
0000
0MM0
0000
0MM0
0000
0MM0
0000
0MM0
0000
0MM0
0000
0MM0
0000
,
0MM0
0MM0
0MM0
0MM0
0MM0
0MM0
0MM0
0MM0
0MM0
0MM0
0MM0
0MM0
,
3MM3
0000
0000
0000
;
