#TITLE:Takecore Of Yourself;
#SUBTITLE:;
#ARTIST:DJ SHARPNEL;
#TITLETRANSLIT:;
#SUBTITLETRANSLIT:;
#ARTISTTRANSLIT:;
#CREDIT:;
#BANNER:TOY.png;
#BACKGROUND:TOY-BG.png;
#LYRICSPATH:;
#CDTITLE:KGWRAVEORI.png;
#MUSIC:Takecore of Yourself (KGWRave Edit).ogg;
#OFFSET:-0.020;
#SAMPLESTART:20.900;
#SAMPLELENGTH:10.800;
#SELECTABLE:YES;
#BPMS:0.000=183.800,96.000=183.800,160.000=183.700,224.000=22.962,225.000=183.845,353.000=183.800;
#STOPS:;
#BGCHANGES:;
// cache tags:
#FIRSTBEAT:30.000;
#LASTBEAT:449.250;
#SONGFILENAME:Songs/toune/(KgwRAVE)-TAKECORE OF YOURSELF/Takecore Of Yourself.sm;
#HASMUSIC:1;
#HASBANNER:1;
#MUSICLENGTH:155.337;
// end cache tags

//---------------dance-single - ----------------
#NOTES:
     dance-single:
     :
     Hard:
     12:
     1.000,1.000,1.000,0.135,1.000,1122.000,190.000,21.000,0.000,8.000:  // measure 1
0000
0000
0000
0000
,  // measure 2
0000
0000
0000
0000
,  // measure 3
0000
0000
0000
0000
,  // measure 4
0000
0000
0000
0000
,  // measure 5
0000
0000
0000
0000
,  // measure 6
0000
0000
0000
0000
,  // measure 7
0000
0000
0000
0000
,  // measure 8
0000
0000
0000
0000
0000
0000
0000
0000
0001
1000
0001
0000
0010
0000
0100
0000
,  // measure 9
1000
0101
1000
0101
,  // measure 10
0010
0000
1100
0000
0010
0000
1100
0001
,  // measure 11
0100
1010
0100
1010
,  // measure 12
0001
0000
0000
0000
0101
0000
0000
0000
0001
1000
0001
0000
0010
0000
0100
0000
,  // measure 13
2002
0000
0000
0000
,  // measure 14
0000
0000
0000
0000
0000
0000
0000
3003
,  // measure 15
1000
0100
0010
0001
1000
0100
0010
0001
0100
0010
1000
0001
0100
0010
1000
0001
,  // measure 16
1000
0010
0100
0001
1000
0010
0100
0001
2000
0000
0000
0000
0000
0000
3000
0000
,  // measure 17
1001
0010
0100
1000
0100
0010
0001
0100
1010
0000
0100
0010
1000
0010
0100
0001
,  // measure 18
1100
0000
0001
0100
0010
1000
0010
0100
0011
0100
1000
0010
0100
0000
0010
0000
,  // measure 19
1001
0100
0010
0001
0010
0100
1000
0010
0101
0000
0010
0100
0001
0100
0010
1000
,  // measure 20
0011
0000
1000
0010
0100
0001
0100
0010
1100
0010
0001
0100
0010
0000
0100
0000
,  // measure 21
0110
0001
1000
0010
1000
0001
0100
1000
0011
0000
1000
0001
0010
0001
1000
0100
,  // measure 22
1010
0000
0100
1000
0001
0010
0001
1000
0101
1000
0010
0001
1000
0000
0001
0000
,  // measure 23
0110
1000
0001
0100
0001
1000
0010
0001
1100
0000
0001
1000
0100
1000
0001
0010
,  // measure 24
0101
0000
0010
0001
1000
0100
1000
0001
1010
0001
0100
1000
0001
0000
1000
0000
,  // measure 25
1001
0100
0010
0001
0010
0100
1000
0010
0101
0000
0010
0100
0001
0100
0010
1000
,  // measure 26
0011
0000
1000
0010
0100
0001
0100
0010
1100
0010
0001
0100
0010
0000
0100
0000
,  // measure 27
1001
0010
0100
1000
0100
0010
0001
0100
1010
0000
0100
0010
1000
0010
0100
0001
,  // measure 28
1100
0000
0001
0100
0010
1000
0010
0100
0011
0100
1000
0010
0100
0000
0010
0000
,  // measure 29
0110
1000
0001
0100
0001
1000
0010
0001
1100
0000
0001
1000
0100
1000
0001
0010
,  // measure 30
0101
0000
0010
0001
1000
0100
1000
0001
1010
0001
0100
1000
0001
0000
1000
0000
,  // measure 31
0110
0001
1000
0010
1000
0001
0100
1000
0011
0000
1000
0001
0010
0001
1000
0100
,  // measure 32
1010
0000
0100
1000
0001
0010
0001
1000
0101
1000
0010
0001
1000
0000
0001
0000
,  // measure 33
1100
0010
0001
1000
0100
0010
0100
1000
0101
0000
0100
0010
1000
0010
0100
0001
,  // measure 34
1100
0000
0010
0100
0010
0001
0010
0100
1100
0001
1000
0010
0100
0000
0010
0000
,  // measure 35
1001
0100
0010
1000
0010
0100
0001
1000
0110
0000
0010
1000
0001
1000
0010
0100
,  // measure 36
1010
0000
1000
0010
0100
0001
0010
0100
1001
0010
0001
0100
0010
0000
0100
0000
,  // measure 37
1001
0100
0010
0001
0010
0100
1000
0010
0101
0000
0010
1000
0001
0100
0010
1000
,  // measure 38
1100
0000
1000
0010
0100
0001
0100
0010
1001
0100
0010
0100
1000
0000
0001
0000
,  // measure 39
1001
0100
0001
1000
0010
1000
0010
0100
0101
0000
0001
1000
0100
1000
0010
0100
,  // measure 40
1001
0000
0010
0001
1000
0100
1000
0010
0101
1000
0100
1000
0010
0000
0100
0000
,  // measure 41
1100
0010
0001
1000
0001
0010
0100
0001
1010
0000
0001
0010
1000
0010
0001
0100
,  // measure 42
1001
0000
0100
0001
0010
1000
0010
0001
0110
0001
1000
0010
0001
0000
0010
0000
,  // measure 43
0110
0001
0010
0100
0010
0001
1000
0010
0101
0000
0010
0001
0100
0001
0010
1000
,  // measure 44
0110
0000
1000
0010
0001
0100
0001
0010
1001
0010
0100
0001
0010
0000
0001
0000
,  // measure 45
1001
0100
1000
0010
1000
0100
0001
1000
0110
0000
1000
0100
0010
0100
1000
0001
,  // measure 46
1010
0000
0001
1000
0100
0010
0100
1000
0101
1000
0010
0100
1000
0000
0100
0000
,  // measure 47
0001
0010
0100
1000
0010
0100
0001
1000
0010
0100
0010
1000
0100
0010
0001
0010
,  // measure 48
0001
0100
0010
1000
0001
0100
0010
1000
0100
0010
0001
1000
0100
0010
0001
1000
,  // measure 49
1001
0000
0000
0101
0000
0000
1100
0000
1001
0000
0000
0101
0000
0000
1100
0000
,  // measure 50
1001
0000
0000
0101
0000
0000
1100
0000
1001
0000
0000
0101
0000
0000
1100
0000
,  // measure 51
1001
0000
0000
1010
0000
0000
0101
0000
1001
0000
0000
1010
0000
0000
0101
0000
,  // measure 52
1001
0000
0000
1010
0000
0000
0101
0000
1001
0000
0000
1010
0000
0000
0101
0000
,  // measure 53
1001
0000
0000
0001
1000
0000
0000
1000
0001
0000
0000
0001
1000
0000
0000
1000
,  // measure 54
0001
0000
0000
0001
1000
0000
0000
1000
0001
0000
0000
0001
1000
0000
0000
1000
,  // measure 55
0001
1000
0001
1000
0001
1000
0001
1000
0001
1000
0001
1000
0001
1000
0001
1000
,  // measure 56
2002
0000
0000
0000
0000
0000
0000
3003
,  // measure 57
2002
0000
0000
3003
1001
0000
0010
0100
1000
0100
1000
0010
0101
0000
0100
0010
,  // measure 58
0001
0010
0001
0100
1010
0000
0100
0001
0010
0100
1000
0100
0011
0000
0100
0010
,  // measure 59
0000
0010
0100
0000
1100
0000
0010
0001
0010
0100
0010
0001
0110
0000
0010
1000
,  // measure 60
0100
1000
0010
0100
0101
0000
0010
0100
0001
1000
0010
0100
1001
0000
1000
0010
,  // measure 61
0000
0010
1000
0000
0101
0000
0010
1000
0010
0000
0100
1000
0100
0000
0010
0001
,  // measure 62
0010
0000
0100
1000
1100
0000
0010
1000
0010
0000
0100
0001
0100
0000
0010
0001
,  // measure 63
0010
0000
1000
0001
1001
0000
1100
0000
1100
0000
1001
0000
0101
0000
1100
0000
,  // measure 64
1100
0000
0101
0000
0010
1000
0100
1000
0010
0100
0001
0010
0100
1000
0100
0010
,  // measure 65
0001
0100
0010
1000
1001
0000
0100
0010
0001
0010
0001
0100
1010
0000
0010
0100
,  // measure 66
1000
0100
1000
0010
0101
0000
0010
1000
0100
0010
0001
0010
1100
0000
0010
0100
,  // measure 67
0000
0100
0010
0000
0011
0000
0100
1000
0100
0010
0100
1000
0110
0000
0100
0001
,  // measure 68
0010
0001
0100
0010
1010
0000
0100
0010
1000
0001
0100
0010
1001
0000
0001
0100
,  // measure 69
0000
0100
0001
0000
1010
0000
0100
0001
0100
0000
0010
0001
0010
0000
0100
1000
,  // measure 70
0100
0000
0010
0001
0011
0000
0100
0001
0100
0000
0010
1000
0010
0000
0100
1000
,  // measure 71
0100
0000
0001
1000
1001
0000
0011
0000
0011
0000
1001
0000
1010
0000
0011
0000
,  // measure 72
0011
0000
1010
0000
0100
0001
0010
0001
0100
0010
1000
0100
0010
0001
0010
0100
,  // measure 73
1000
0010
0100
0001
1100
0000
0010
0001
1000
0001
1000
0010
0101
0000
0001
0010
,  // measure 74
0100
0010
0100
0001
1010
0000
0001
0100
0010
0001
1000
0001
0110
0000
0001
0010
,  // measure 75
0000
0010
0001
0000
1001
0000
0010
0100
0010
0001
0010
0100
0011
0000
0010
1000
,  // measure 76
0001
1000
0010
0001
0101
0000
0010
0001
0100
1000
0010
0001
1100
0000
1000
0010
,  // measure 77
0000
0010
1000
0000
0001
0100
0010
1000
0010
0100
0001
0000
0001
1000
0010
0100
,  // measure 78
0010
1000
0001
0000
0100
0001
0010
1000
0010
0100
0001
0000
1000
0001
0010
0100
,  // measure 79
0010
0001
1000
0000
0010
0100
0000
0001
1000
0010
0100
0000
0001
1000
0001
0000
,  // measure 80
1010
0000
0101
0000
0010
1000
0001
1000
0010
0001
0100
0010
0001
1000
0001
0010
,  // measure 81
0100
0001
0010
1000
1100
0000
0001
0010
0100
0010
0100
0001
1010
0000
0010
0001
,  // measure 82
1000
0001
1000
0010
0101
0000
0010
1000
0001
0010
0100
0010
1001
0000
0010
0001
,  // measure 83
0000
0001
0010
0000
0110
0000
0001
1000
0001
0010
0001
1000
0011
0000
0001
0100
,  // measure 84
0010
0100
0001
0010
1010
0000
0001
0010
1000
0100
0001
0010
1100
0000
0100
0001
,  // measure 85
0000
0001
0100
0000
0010
1000
0001
0100
0010
1000
0100
0010
0001
0100
0010
0100
,  // measure 86
0010
1000
0100
1000
0001
0100
0010
1000
0100
0010
0001
0100
0010
1000
0100
0010
,  // measure 87
0001
0010
0001
0100
0010
1000
0100
1000
0010
0100
0001
1000
0001
0100
0010
1000
,  // measure 88
0100
0010
0100
1000
1001
0000
0000
0000
0000
0000
0000
0000
0000
0000
0000
0000
,  // measure 89
0000
0000
2001
0010
0001
0010
0001
0010
,  // measure 90
0001
0010
3102
1000
0100
1000
0100
1000
,  // measure 91
0100
1000
0213
0001
0010
0001
0010
0001
,  // measure 92
0010
0001
1320
0100
1000
0100
1000
0100
,  // measure 93
1000
0100
1032
0100
1000
0100
1000
0100
,  // measure 94
1000
0100
2013
0001
0010
0001
0010
0001
,  // measure 95
0010
0001
3120
1000
0100
1000
0100
1000
,  // measure 96
0100
1000
0231
0010
0001
0010
0001
0010
,  // measure 97
0001
0010
1301
0100
1000
0010
0101
0010
,  // measure 98
0100
1000
0101
0010
1000
0100
0011
0100
,  // measure 99
1000
0010
1001
0100
0010
1000
0110
0001
,  // measure 100
0100
0010
1100
0010
0001
0100
1010
0001
,  // measure 101
0100
0010
1001
0100
1000
0001
0101
1000
,  // measure 102
0010
0100
1010
0100
0001
0010
1100
0010
,  // measure 103
0001
0100
1010
0100
0010
0100
1001
0100
,  // measure 104
0010
0000
0100
0000
1001
0000
0000
0000
1100
0000
0000
0000
0101
0000
0000
0001
,  // measure 105
1000
0010
1001
0000
0010
0000
1001
0000
,  // measure 106
0010
1001
0010
1001
,  // measure 107
0010
1100
0001
1100
,  // measure 108
0001
1100
0001
1100
,  // measure 109
0001
0101
1000
0101
,  // measure 110
1000
0101
1000
0101
,  // measure 111
1000
2002
0000
0000
,  // measure 112
0000
3003
0220
0000
0000
0000
0000
0000
,  // measure 113
0000
0000
0330
0000
2002
3003
0000
0000
0000
0000
0000
0000
0000
0000
0000
0000
;
