#TITLE:Don't Speak;
#SUBTITLE:;
#ARTIST:Arkasia ft. Hayley Gene;
#TITLETRANSLIT:;
#SUBTITLETRANSLIT:;
#ARTISTTRANSLIT:;
#CREDIT:;
#BANNER:../Wubstream - ban.png;
#BACKGROUND:../Wubstream - bg.png;
#LYRICSPATH:;
#CDTITLE:;
#MUSIC:Arkasia ft. Hayley Gene - Don't Speak.ogg;
#OFFSET:-0.044;
#SAMPLESTART:92.356;
#SAMPLELENGTH:12.000;
#SELECTABLE:YES;
#BPMS:0.000=150.000;
#STOPS:;
#BGCHANGES:;
// cache tags:
#FIRSTBEAT:8.000;
#LASTBEAT:566.500;
#SONGFILENAME:Songs/Wubstream/Don't Speak - [Rynker]/dont speak.sm;
#HASMUSIC:1;
#HASBANNER:1;
#MUSICLENGTH:229.806;
// end cache tags

//---------------dance-single - Rynker----------------
#NOTES:
     dance-single:
     Rynker:
     Challenge:
     18:
     1.000,1.000,0.000,0.553,1.000,2164.000,0.000,127.000,0.000,0.000:

0000
0000
0000
0000
,
0000
0000
0000
0000
,
0001
0000
1000
0001
1000
0001
0010
0100
1000
0000
0001
0100
0001
0000
1000
0100
,
1000
0000
1000
0000
0001
0010
0100
0010
0001
0000
1000
0000
0001
0100
0010
0100
,
0001
1000
0100
0000
1000
0000
0001
0000
0100
0000
0000
0000
0010
0000
0000
0000
0100
0000
0001
0000
1000
0000
0001
0000
0010
0000
0000
0000
0100
0000
1000
0000
,
0100
1000
0001
0000
0010
0001
1000
0001
0100
0010
0100
0001
0010
0000
0100
1000
,
0001
0000
0100
0001
0000
0100
0001
0000
0100
0000
0010
1000
0010
0100
0001
1000
,
0100
0010
0100
1000
0001
0100
0001
0100
0010
1000
0010
1000
0001
0010
0001
0010
,
0100
0000
0000
1000
0100
1000
0001
0000
0010
0000
0100
1000
0010
0000
0100
0000
,
0001
0000
0000
0100
0000
0000
0010
0000
0000
1000
0000
0000
0001
0000
0000
0100
0000
0000
0001
0000
0100
0000
0010
0000
1000
0000
0000
0001
0000
0000
0010
0000
0000
0100
0000
0000
1000
0000
0000
0000
0000
0000
0100
0000
0000
0000
0000
0000
,
1000
0000
0001
1000
0001
1000
0100
0010
0001
0000
1000
0010
1000
0000
0001
0010
,
0001
0000
0001
0000
1000
0100
0010
0100
1000
0000
0001
0000
1000
0010
0100
0010
,
1000
0000
0001
0010
0100
0000
1000
0000
0010
1000
0001
1000
0100
0000
0010
0001
,
0010
0001
1000
0000
0100
1000
0001
1000
0010
0100
0010
1000
0100
0000
0010
0001
,
1000
0000
0010
1000
0000
0010
1000
0000
0010
0000
0100
0001
0100
0010
1000
0001
,
0010
0100
0010
0001
1000
0010
1000
0010
0100
0001
0100
0001
1000
0100
1000
0100
,
0010
0000
0000
0001
0010
0001
1000
0000
0100
0000
0010
0001
0100
0000
0010
0000
,
1000
0000
0000
0010
0000
0000
0100
0000
0000
0001
0000
0000
1000
0000
0000
0010
0000
0000
1000
0000
0010
0000
0100
0000
0001
0000
0000
0000
0000
0000
0100
0000
0000
0000
0000
0000
0001
0000
0000
0000
0000
0000
0010
0000
0000
0000
0000
0000
,
0100
0000
1000
0001
1000
0001
0010
0100
1000
0000
0001
0100
0001
0000
1000
0100
,
1000
0000
1000
0000
0001
0010
0100
0010
0001
0000
1000
0000
0001
0100
0010
0100
,
0001
0000
1000
0001
0100
0010
1000
0000
0010
1000
0001
1000
0100
0000
0010
0001
,
0010
0001
1000
0000
0100
1000
0001
1000
0010
0100
0010
1000
0100
0000
0010
0001
,
1000
0000
0010
1000
0000
0010
1000
0000
0010
0000
0100
0001
0100
0010
1000
0001
,
0010
0100
0010
0001
1000
0010
1000
0010
0100
0001
0100
0001
1000
0100
1000
0100
,
0010
0000
0000
0001
0010
0001
1000
0000
0100
0000
0010
0001
0100
0000
0010
0000
,
1000
0000
0000
0010
0000
0000
0100
0000
0000
0001
0000
0000
1000
0000
0000
0010
0000
0000
1000
0000
0010
0000
0100
0000
0001
0000
0000
0000
0000
0000
0100
0000
0000
0010
0000
0000
1000
0000
0000
0000
0000
0000
0010
0000
0000
0100
0000
0000
,
0002
0000
0000
2003
0000
0000
3200
0320
,
0000
0000
0000
0000
0000
0000
0032
0000
0000
2003
3020
0230
0302
0003
2000
0000
,
3200
0320
0032
0203
0000
0320
2030
3002
,
0023
0000
0000
0000
0230
0000
0000
0000
2300
0000
0000
0000
3000
0000
0000
0001
0200
0000
0000
0000
0300
0000
0020
0000
2030
0000
0000
0000
3002
0000
0000
0000
,
0023
0000
0000
0000
0230
0000
0000
0000
2300
0000
0000
0000
3020
0000
0000
0000
2030
0000
3000
0000
0100
0020
0000
0000
0030
0000
0000
0000
0002
0000
2003
0000
,
0000
3000
0002
0000
0000
0000
0003
0100
0020
0000
2030
0000
3020
0000
0230
0000
,
0302
0000
0000
2003
0000
0000
3200
0320
,
0030
0002
0000
0000
2003
0000
3020
0000
,
2030
0000
0000
3002
0000
0000
0023
0230
,
0000
0000
0000
0000
0000
0000
2300
0000
0000
3002
0203
0320
2030
3000
0002
0000
,
0023
0230
2300
3020
0000
0230
0302
2003
,
3200
0000
0000
0000
0320
0000
0000
0000
0032
0000
0000
0000
0003
0000
0000
1000
0020
0000
0000
0000
0030
0000
0200
0000
0302
0000
0000
0000
2003
0000
0000
0000
,
3200
0000
0000
0000
0320
0000
0000
0000
0032
0000
0000
0000
0203
0000
0000
0000
0302
0000
0003
0000
0010
0200
0000
0000
0300
0000
0000
0000
2000
0000
3002
0000
,
0000
0003
2000
0000
0000
0000
3000
0010
0200
0000
0302
0000
0203
0000
0320
0000
,
2030
0000
3020
0000
0230
0000
0302
0000
1003
0100
2000
0000
3000
0000
0000
0000
,
0000
0000
0000
0000
0002
2003
3020
0230
,
0301
1000
0001
0100
0010
0100
0001
1000
0001
0010
0100
1000
0100
0010
0001
1000
0001
0100
0010
0100
0001
1000
0001
0100
,
0010
0100
0001
1000
0001
0010
0100
0010
0001
1000
0100
1000
0001
0010
0100
1000
0100
0010
0001
1000
0001
1000
0100
0010
,
0001
0100
0010
0100
0001
1000
0010
0100
0001
0010
0100
1000
0100
0010
0001
1000
0100
1000
0001
0100
0001
0100
0010
1000
,
0001
0100
0010
1000
0001
0010
0100
1000
0100
0010
0001
1000
0001
1000
0010
0100
0010
1000
0001
1000
0010
0100
0001
0010
,
0100
1000
0100
0010
0001
1000
0100
0010
0001
0100
0010
0100
0001
1000
0010
0100
0001
1000
0100
0010
0001
1000
0100
1000
,
0001
0010
0100
1000
0001
1000
0001
0100
0010
0100
0001
1000
0010
0100
0001
1000
0100
1000
0001
0010
0100
1000
0010
1000
,
0100
0010
0001
1000
0100
0010
0001
1000
0010
0100
0001
0010
0100
1000
0100
0010
0001
0100
0010
1000
0010
0100
0001
1000
,
0001
0100
0010
1000
0001
0100
0001
1000
0100
0010
0001
0010
0100
1000
0001
1000
0100
0010
0001
1000
0100
0010
0001
1000
,
0100
1000
0001
0100
0010
1000
0010
0100
0001
1000
0100
0010
0001
0010
0100
1000
0001
0100
0001
1000
0010
1000
0001
0100
,
0001
1000
0100
1000
0001
0010
0100
1000
0001
0100
0010
0100
0001
1000
0100
0010
0100
1000
0010
0100
0001
0100
0010
1000
,
0001
0100
0001
1000
0100
1000
0001
0010
0100
0010
0001
1000
0100
1000
0001
0100
0001
1000
0010
0100
0001
1000
0100
0010
,
0001
1000
0100
1000
0001
0100
0010
1000
0010
0100
0001
1000
0100
1000
0001
0010
0100
1000
0100
0010
0001
1000
0001
0100
,
0010
0100
0001
0010
0100
1000
0100
0010
0001
1000
0001
0100
0010
0100
0001
1000
0100
1000
0001
0010
0100
1000
0100
0010
,
0001
1000
0001
0100
0010
0100
0001
1000
0100
1000
0001
0010
0100
0010
0001
1000
0001
0100
0010
0100
0001
1000
0001
0100
,
0010
0100
0001
1000
0010
0100
0001
1000
0010
0100
0010
1000
0001
1000
0100
0010
0001
0010
0100
1000
0001
1000
0100
1000
,
0001
0010
0100
0010
0001
1000
0001
0100
0010
0100
0001
1000
0010
0100
0001
1000
0100
1000
0001
0010
0100
1000
0001
0100
,
0001
0010
0100
1000
0010
0100
0001
1000
0001
0100
0010
0100
0001
1000
0100
1000
0001
0010
0100
1000
0100
0010
0001
1000
,
0001
0100
0010
0100
0001
1000
0010
0100
0010
1000
0001
0010
0100
1000
0100
0010
0001
1000
0001
0100
0010
0100
0001
0010
,
0001
0100
0010
1000
0100
0010
0001
0100
0010
1000
0001
1000
0001
0010
0100
0010
0001
1000
0001
0100
0010
0100
0001
1000
,
0100
1000
0001
0010
0100
1000
0001
0100
0001
1000
0100
1000
0001
0010
0100
1000
0100
0010
0001
1000
0001
1000
0010
0100
,
0001
0010
0001
0100
0010
1000
0100
1000
0010
0100
0001
0010
0001
0100
0010
1000
0100
1000
0010
0100
0001
0010
0001
0100
,
0010
1000
0100
1000
0001
0010
0100
1000
0100
0010
0001
1000
0001
0010
0100
0010
0001
1000
0100
1000
0001
0010
0100
1000
,
0010
1000
0100
0010
0001
0100
0001
0010
0100
1000
0010
1000
0100
0010
0001
0100
0001
0010
0100
1000
0010
1000
0100
0010
,
0001
0100
0001
0010
0100
1000
0010
1000
0001
0100
0010
0100
0001
1000
0010
0100
0001
1000
0010
0100
0001
0100
0010
1000
,
0001
0010
0001
0100
0010
1000
0001
0010
0100
1000
0001
0010
0100
1000
0100
0010
0001
1000
0001
0100
0010
0100
0001
1000
,
0001
0100
0010
0100
0001
1000
0010
0100
0001
1000
0100
0010
0001
0010
0100
1000
0001
0010
0100
1000
0100
0010
0001
0100
,
0010
1000
0100
0010
0001
0100
0010
1000
0010
0100
0001
1000
0001
0100
0010
0100
0001
1000
0100
0010
0001
0010
0100
1000
,
0100
0010
0001
1000
0001
1000
0100
0010
0001
0010
0100
1000
0001
0100
0001
1000
0010
0100
0001
1000
0100
1000
0001
0010
,
0001
0100
0010
1000
0100
1000
0010
0100
0001
0010
0001
0100
0010
1000
0100
1000
0010
0100
0001
0010
0001
0100
0010
1000
,
0100
1000
0010
0100
0001
0100
0010
1000
0010
0100
0001
1000
0001
1000
0010
0100
0010
1000
0001
1000
0001
0100
0010
0100
,
0001
0010
0001
0100
0010
1000
0100
1000
0010
0100
0001
0010
0001
0100
0010
1000
0100
1000
0010
0100
0001
0010
0001
0100
,
0010
1000
0100
1000
0001
0100
0010
0100
0001
1000
0100
0010
0001
1000
0001
0100
0010
0100
0001
1000
0100
0010
0001
1000
,
0001
0000
0000
1000
0100
0000
1000
0000
0001
0100
0000
0000
0001
0000
1000
0000
,
0100
0000
0010
0000
0001
0000
1000
0000
0001
0000
0000
0000
0100
0001
0100
0010
,
1000
0000
0001
0100
0001
0000
1000
0000
0100
1000
0000
0000
0001
0000
0010
0000
,
0100
0000
1000
0000
0001
0000
0100
0000
0000
0000
0010
1000
0001
0000
0000
0000
,
1000
0100
1000
0001
0100
0000
0001
0000
0010
0100
0000
0000
1000
0000
0010
0000
,
0100
0000
0001
0000
0010
0000
0001
0000
0100
0000
0000
0000
0001
0100
0010
0100
,
0001
0000
0000
1000
0000
0000
0100
0000
1000
0100
0010
0001
1000
0000
0001
0000
,
0100
0000
0000
0001
0000
0000
0010
0000
0000
0100
0000
0000
1000
0000
0000
0010
0000
0000
0100
0001
1000
0001
1000
0001
,
0100
0000
0010
1000
0001
1000
0010
1000
0100
0000
0010
0001
1000
0000
0010
0100
,
0001
0000
0001
0000
1000
0010
0100
0010
1000
0000
0001
0010
0001
1000
0010
1000
,
0001
0010
0001
0000
1000
0000
0010
0000
1000
0000
0000
0000
0001
0000
0000
0000
0010
0000
0100
0000
1000
0000
0100
0000
0010
0000
0000
0000
0001
0000
1000
0000
,
0010
0100
0010
0000
1000
0100
0010
0100
1000
0001
0010
0001
1000
0010
0000
1000
,
0010
0000
1000
0001
0000
0100
0010
0000
1000
0000
0001
0010
0001
0010
0100
1000
,
0001
0100
0001
0100
0010
1000
0010
1000
0001
0010
0001
0010
0100
0000
1000
0001
,
1000
0000
0010
1000
0010
1000
0001
0000
0010
0000
0100
1000
0001
0000
0000
1000
,
0010
0100
0010
1000
0001
0010
0100
1000
0001
0000
1000
0000
0010
0100
0001
0100
,
0002
0000
0000
2003
0000
0000
3200
0000
,
0000
0320
0000
0000
,
0032
0000
0000
2003
0000
0000
3020
0230
,
0000
0000
0000
0000
0000
0000
0000
0300
,
0020
0000
0000
2030
0000
0000
3002
2003
,
0000
0000
0000
0000
,
3200
0000
0000
0320
0000
0000
0032
2003
,
0000
3020
0000
0000
2030
0000
0000
0000
,
3200
0000
0000
0320
0000
0000
0032
2003
,
0000
0000
0000
0000
,
3002
0000
0000
0203
0000
0000
0320
2030
,
0000
0000
0000
0000
,
3002
0000
0000
0023
0000
0000
0230
2300
,
0000
0000
0000
0000
,
3002
0000
0000
0203
0000
0000
0310
0200
,
0000
0302
0000
0000
2003
0000
3000
0000
,
0001
1000
0001
0100
0010
0100
0001
1000
0001
0010
0100
1000
0100
0010
0001
1000
0001
0100
0010
0100
0001
1000
0001
0100
,
0010
0100
0001
1000
0001
0010
0100
0010
0001
1000
0100
1000
0001
0010
0100
1000
0100
0010
0001
1000
0001
1000
0100
0010
,
0001
0100
0010
0100
0001
1000
0010
0100
0001
0010
0100
1000
0100
0010
0001
1000
0100
1000
0001
0100
0001
0100
0010
1000
,
0001
0100
0010
1000
0001
0010
0100
1000
0100
0010
0001
1000
0001
1000
0010
0100
0010
1000
0001
1000
0010
0100
0001
0010
,
0100
1000
0100
0010
0001
1000
0100
0010
0001
0100
0010
0100
0001
1000
0010
0100
0001
1000
0100
0010
0001
1000
0100
1000
,
0001
0010
0100
1000
0001
1000
0001
0100
0010
0100
0001
1000
0010
0100
0001
1000
0100
1000
0001
0010
0100
1000
0010
1000
,
0100
0010
0001
1000
0100
0010
0001
1000
0010
0100
0001
0010
0100
1000
0100
0010
0001
0100
0010
1000
0010
0100
0001
1000
,
0001
0100
0010
1000
0001
0100
0001
1000
0100
0010
0001
0010
0100
1000
0001
1000
0100
0010
0001
1000
0100
0010
0001
1000
,
0100
1000
0001
0100
0010
1000
0010
0100
0001
1000
0100
0010
0001
0010
0100
1000
0001
0100
0001
1000
0010
1000
0001
0100
,
0001
1000
0100
1000
0001
0010
0100
1000
0001
0100
0010
0100
0001
1000
0100
0010
0100
1000
0001
0100
0001
0100
0010
1000
,
0001
0100
0001
1000
0100
1000
0001
0010
0100
0010
0001
1000
0100
1000
0001
0100
0001
1000
0010
0100
0001
1000
0100
0010
,
0001
1000
0100
1000
0001
0100
0010
1000
0010
0100
0001
1000
0100
1000
0001
0010
0100
1000
0100
0010
0001
1000
0001
0100
,
0010
0100
0001
1000
0100
1000
0010
0100
0001
1000
0001
1000
0010
0100
0001
1000
0100
1000
0001
0010
0100
1000
0100
0010
,
0001
1000
0001
0100
0010
0100
0001
1000
0100
1000
0001
0010
0100
0010
0001
1000
0001
0100
0010
0100
0001
1000
0001
0100
,
0010
0100
0001
1000
0010
0100
0001
1000
0010
0100
0010
1000
0001
1000
0100
0010
0001
0010
0100
1000
0001
1000
0100
1000
,
0001
0010
0100
0010
0001
1000
0001
0100
0010
0100
0001
1000
0010
0100
0001
1000
0100
1000
0001
0010
0100
1000
0001
0100
,
0001
0010
0100
1000
0010
0100
0001
1000
0001
0100
0010
0100
0001
1000
0100
1000
0001
0010
0100
1000
0100
0010
0001
1000
,
0001
0100
0010
0100
0001
1000
0010
0100
0010
1000
0001
0010
0100
1000
0100
0010
0001
1000
0001
0100
0010
0100
0001
0010
,
0001
0100
0010
1000
0100
0010
0001
0100
0010
1000
0001
1000
0001
0010
0100
0010
0001
1000
0001
0100
0010
0100
0001
1000
,
0100
1000
0001
0010
0100
1000
0001
0100
0001
1000
0100
1000
0001
0010
0100
1000
0100
0010
0001
1000
0001
1000
0010
0100
,
0001
0010
0001
0100
0010
1000
0100
1000
0010
0100
0001
0010
0001
0100
0010
1000
0100
1000
0010
0100
0001
0010
0001
0100
,
0010
1000
0100
1000
0001
0010
0100
1000
0100
0010
0001
1000
0001
0010
0100
0010
0001
1000
0100
1000
0001
0010
0100
1000
,
0010
1000
0100
0010
0001
0100
0001
0010
0100
1000
0010
1000
0100
0010
0001
0100
0001
0010
0100
1000
0010
1000
0100
0010
,
0001
0100
0001
0010
0100
1000
0010
1000
0001
0100
0010
0100
0001
1000
0010
0100
0001
1000
0010
0100
0001
0100
0010
1000
,
0001
0010
0001
0100
0010
1000
0100
1000
0010
0100
0001
0010
0001
0100
0010
1000
0100
1000
0010
0100
0001
0010
0001
0100
,
0010
1000
0010
0100
0001
1000
0010
0100
0001
1000
0100
0010
0001
0010
0100
1000
0001
0010
0100
1000
0100
0010
0001
1000
,
0010
1000
0100
0010
0001
0100
0001
0010
0100
1000
0010
1000
0100
0010
0001
0100
0001
0010
0100
1000
0010
1000
0100
0010
,
0001
1000
0010
0100
0001
1000
0100
0010
0001
0010
0100
1000
0001
0100
0001
1000
0010
0100
0001
1000
0100
1000
0001
0010
,
0001
1000
0100
0010
0001
0010
0100
1000
0001
1000
0001
0010
0100
1000
0001
1000
0100
0010
0001
1000
0010
0100
0001
1000
,
0100
0010
0001
1000
0001
0010
0100
1000
0001
0100
0010
1000
0001
1000
0100
0010
0100
1000
0001
1000
0001
0100
0010
1000
,
0010
0100
0001
0100
0010
1000
0001
1000
0010
0100
0001
1000
0001
0100
0010
1000
0001
1000
0100
0010
0001
1000
0001
0100
,
0010
1000
0010
0100
0001
0010
0100
1000
0100
0010
0001
1000
0010
0100
0001
1000
0010
0100
0001
1000
0100
0010
0001
1000
,
0002
0000
0000
0000
0000
0000
0000
0000
0000
0000
0000
0000
0000
0000
0000
0000
0000
0000
0000
0000
0000
0000
0000
0000
0000
0000
0000
0000
0000
0000
0000
0000
0000
0000
0000
0000
0000
0000
0000
0000
0000
0000
0000
0000
0000
0000
0000
0000
0003
2000
0000
0000
0000
0000
0000
0000
0000
0000
0000
0000
0000
0000
0000
0000
0000
0000
0000
0000
0000
0000
0000
0000
3000
0000
0000
0000
0000
0000
0000
0000
0000
0000
0000
0000
0000
0000
0000
0000
0000
0000
0000
0000
0000
0000
0000
0000
0000
0000
0000
0000
0000
0000
0000
0000
0000
0000
0000
0000
0000
0000
0000
0000
0000
0000
0000
0000
0000
0000
0000
0000
0000
0000
0000
0000
0000
0000
0000
0000
0000
0000
0000
0000
0000
0000
0000
0000
0000
0000
0000
0000
0000
0000
0000
0000
0000
0000
0000
0000
0000
0000
0000
0000
0000
0000
0000
0000
0000
0000
0000
0000
0000
0000
0000
0000
0000
0000
0000
0000
0000
0000
0000
0000
0000
0000
0000
0000
0000
0000
0000
0000
0000
0000
0000
0000
0000
0000
0000
0000
0000
0000
0000
0000
;

//---------------dance-single - Rynker----------------
#NOTES:
     dance-single:
     Rynker:
     Medium:
     16:
     1.000,1.000,0.000,0.753,1.000,1734.000,0.000,173.000,1.000,0.000:







0000
0000
0000
0000
,
0000
0000
0000
0000
,
0001
0000
1000
0001
1000
0001
0010
0100
1000
0000
0001
0100
0001
0000
1000
0100
,
1000
0000
1000
0000
0001
0010
0100
0010
0001
0000
1000
0000
0001
0100
0010
0100
,
0001
1000
0100
0000
1000
0000
0001
0000
0100
0000
0000
0000
0010
0000
0000
0000
0100
0000
0001
0000
1000
0000
0001
0000
0010
0000
0000
0000
0100
0000
1000
0000
,
0100
1000
0001
0000
0010
0001
1000
0001
0100
0010
0100
0001
0010
0000
0100
1000
,
0001
0000
0100
0001
0000
0100
0001
0000
0100
0000
0010
1000
0010
0100
0001
1000
,
0100
0010
0100
1000
0001
0100
0001
0100
0010
1000
0010
1000
0001
0010
0001
0010
,
0100
0000
0000
1000
0100
1000
0001
0000
0010
0000
0100
1000
0010
0000
0100
0000
,
0001
0000
0000
0100
0000
0000
0010
0000
0000
1000
0000
0000
0001
0000
0000
0100
0000
0000
0001
0000
0100
0000
0010
0000
1000
0000
0000
0001
0000
0000
0010
0000
0000
0100
0000
0000
1000
0000
0000
0000
0000
0000
0100
0000
0000
0000
0000
0000
,
1000
0000
0001
1000
0001
1000
0100
0010
0001
0000
1000
0010
1000
0000
0001
0010
,
0001
0000
0001
0000
1000
0100
0010
0100
1000
0000
0001
0000
1000
0010
0100
0010
,
1000
0000
0001
0010
0100
0000
1000
0000
0010
1000
0001
1000
0100
0000
0010
0001
,
0010
0001
1000
0000
0100
1000
0001
1000
0010
0100
0010
1000
0100
0000
0010
0001
,
1000
0000
0010
1000
0000
0010
1000
0000
0010
0000
0100
0001
0100
0010
1000
0001
,
0010
0100
0010
0001
1000
0010
1000
0010
0100
0001
0100
0001
1000
0100
1000
0100
,
0010
0000
0000
0001
0010
0001
1000
0000
0100
0000
0010
0001
0100
0000
0010
0000
,
1000
0000
0000
0010
0000
0000
0100
0000
0000
0001
0000
0000
1000
0000
0000
0010
0000
0000
1000
0000
0010
0000
0100
0000
0001
0000
0000
0000
0000
0000
0100
0000
0000
0000
0000
0000
0001
0000
0000
0000
0000
0000
0010
0000
0000
0000
0000
0000
,
0100
0000
1000
0001
1000
0001
0010
0100
1000
0000
0001
0100
0001
0000
1000
0100
,
1000
0000
1000
0000
0001
0010
0100
0010
0001
0000
1000
0000
0001
0100
0010
0100
,
0001
0000
1000
0001
0100
0010
1000
0000
0010
1000
0001
1000
0100
0000
0010
0001
,
0010
0001
1000
0000
0100
1000
0001
1000
0010
0100
0010
1000
0100
0000
0010
0001
,
1000
0000
0010
1000
0000
0010
1000
0000
0010
0000
0100
0001
0100
0010
1000
0001
,
0010
0100
0010
0001
1000
0010
1000
0010
0100
0001
0100
0001
1000
0100
1000
0100
,
0010
0000
0000
0001
0010
0001
1000
0000
0100
0000
0010
0001
0100
0000
0010
0000
,
1000
0000
0000
0010
0000
0000
0100
0000
0000
0001
0000
0000
1000
0000
0000
0010
0000
0000
1000
0000
0010
0000
0100
0000
0001
0000
0000
0000
0000
0000
0100
0000
0000
0010
0000
0000
1000
0000
0000
0000
0000
0000
0010
0000
0000
0100
0000
0000
,
0002
0000
0000
2003
0000
0000
3200
0320
,
0000
0000
0000
0000
0000
0000
0032
0000
0000
2003
3020
0230
0302
0003
2000
0000
,
3200
0320
0032
0203
0000
0320
2030
3002
,
0023
0000
0000
0000
0230
0000
0000
0000
2300
0000
0000
0000
3000
0000
0000
0001
0200
0000
0000
0000
0300
0000
0020
0000
2030
0000
0000
0000
3002
0000
0000
0000
,
0023
0000
0000
0000
0230
0000
0000
0000
2300
0000
0000
0000
3020
0000
0000
0000
2030
0000
3000
0000
0100
0020
0000
0000
0030
0000
0000
0000
0002
0000
2003
0000
,
0000
3000
0002
0000
0000
0000
0003
0100
0020
0000
2030
0000
3020
0000
0230
0000
,
0302
0000
0000
2003
0000
0000
3200
0320
,
0030
0002
0000
0000
2003
0000
3020
0000
,
2030
0000
0000
3002
0000
0000
0023
0230
,
0000
0000
0000
0000
0000
0000
2300
0000
0000
3002
0203
0320
2030
3000
0002
0000
,
0023
0230
2300
3020
0000
0230
0302
2003
,
3200
0000
0000
0000
0320
0000
0000
0000
0032
0000
0000
0000
0003
0000
0000
1000
0020
0000
0000
0000
0030
0000
0200
0000
0302
0000
0000
0000
2003
0000
0000
0000
,
3200
0000
0000
0000
0320
0000
0000
0000
0032
0000
0000
0000
0203
0000
0000
0000
0302
0000
0003
0000
0010
0200
0000
0000
0300
0000
0000
0000
2000
0000
3002
0000
,
0000
0003
2000
0000
0000
0000
3000
0010
0200
0000
0302
0000
0203
0000
0320
0000
,
2030
0000
3020
0000
0230
0000
0302
0000
1003
0100
2000
0000
3000
0000
0000
0000
,
0000
0000
0000
0000
0002
2003
3020
0230
,
0301
1000
0100
1000
0001
0010
0001
1000
0010
1000
0001
0100
0010
0100
0001
1000
0001
1000
0100
0010
0100
1000
0001
0010
,
0001
1000
0100
0010
0001
0010
0100
1000
0001
1000
0010
0100
0010
1000
0001
1000
0010
0100
0010
1000
0001
0010
0001
1000
,
0200
0000
0000
0000
0000
0000
0000
0000
0000
2300
0000
0000
0000
0000
0000
0000
0000
0000
3001
0100
0010
1000
0001
0100
,
0010
1000
0001
0010
0001
1000
0100
0010
0100
1000
0001
0010
0001
1000
0100
1000
0001
0100
0001
1000
0010
1000
0001
0100
,
0020
0000
0000
0000
0000
0000
0000
0000
0000
2030
0000
0000
0000
0000
0000
0000
0000
0000
3001
0010
0001
1000
0100
0010
,
0100
1000
0001
1000
0010
0100
0010
1000
0001
0010
0001
1000
0100
0010
0001
1000
0010
0100
0010
1000
0001
0100
0010
1000
,
0100
0010
0001
0010
0100
1000
0001
0010
0100
1000
0010
0100
0001
0100
0010
1000
0001
0010
0100
1000
0010
1000
0001
0100
,
0010
1000
0010
0100
0001
1000
0100
0010
0001
1000
0100
0010
0100
1000
0001
1000
0100
0010
0002
0000
0000
0000
0000
0000
,
2003
0000
0000
0000
0000
0000
0000
0000
0000
3020
0000
0000
0000
0000
0000
0000
0000
0000
0130
0001
1000
0010
1000
0010
,
0100
0001
1000
0100
0010
0001
0010
0100
1000
0001
0010
0001
1000
0100
0010
0001
1000
0010
0100
0001
1000
0100
0010
0001
,
0100
0010
1000
0010
0100
0001
1000
0100
1000
0010
0100
0001
0100
0010
1000
0001
0010
0100
1000
0010
0100
0010
1000
0001
,
0010
0100
1000
0100
0010
0001
1000
0010
1000
0001
0100
0010
1000
0001
0010
0100
0010
0001
1000
0100
1000
0001
0100
0010
,
2000
0000
0000
0000
0000
0000
0000
0000
0000
3002
0000
0000
0000
0000
0000
0000
0000
0000
0013
0100
1000
0100
0010
0001
,
1000
0010
1000
0001
0100
0010
1000
0001
0010
0001
1000
0100
0010
0100
1000
0001
0010
0001
1000
0100
0010
0001
1000
0010
,
2000
0000
0000
0000
0000
0000
0000
0000
0000
3200
0000
0000
0000
0000
0000
0000
0000
0000
0310
0001
0010
0100
1000
0001
,
1000
0010
0100
0010
1000
0001
0010
0001
1000
0100
0010
0001
0010
0100
1000
0001
0100
0010
2000
0000
0000
0000
0000
0000
,
3001
0010
0100
1000
0010
0100
0001
0100
0010
1000
0100
0010
0002
0000
0000
0000
0000
0000
2003
0000
0000
0000
0000
0000
,
3020
0000
0000
0000
0000
0000
0000
0000
0130
0001
1000
0001
1000
0000
0000
0000
,
0001
1000
0100
1000
0010
0100
0001
0010
0001
1000
0100
1000
0002
0000
0000
0000
0000
0000
2003
0000
0000
0000
0000
0000
,
3020
0000
0000
0000
0000
0000
0000
0000
0130
0001
1000
0010
1000
0000
0000
0000
,
0001
0010
0100
1000
0010
1000
0001
0100
0001
0010
0100
1000
0010
0100
0001
0010
0100
1000
0001
0100
0010
1000
0100
0010
,
0001
1000
0010
1000
0010
0100
0001
0100
0010
1000
0001
0010
0001
1000
0100
0010
0001
0010
0100
1000
0001
1000
0010
0100
,
0010
1000
0100
0010
0001
0100
0001
0010
0100
1000
0010
1000
0001
0100
0001
0010
0100
1000
0010
0100
0010
1000
0100
0010
,
0001
0010
0100
1000
0001
0010
0100
0010
0001
1000
0100
0010
0100
1000
0001
0010
0001
1000
0100
0010
0001
0010
0100
1000
,
0001
0010
0100
1000
0010
0100
0001
0100
0010
1000
0100
0010
0002
0000
0000
0000
0000
0000
2003
0000
0000
0000
0000
0000
,
3020
0000
0000
0000
0000
0000
0000
0000
0130
0001
1000
0001
1000
0000
0000
0000
,
0001
1000
0100
1000
0010
0100
0001
0010
0001
1000
0100
1000
0002
0000
0000
0000
0000
0000
2003
0000
0000
0000
0000
0000
,
3020
0000
0000
0000
0000
0000
0000
0000
0130
0001
1000
0010
1000
0000
0000
0000
,
0001
0010
0100
1000
0010
1000
0001
0100
0001
0010
0100
1000
0010
0100
0001
0010
0100
1000
0001
0100
0010
1000
0100
0010
,
0001
1000
0010
1000
0010
0100
0001
0100
0010
1000
0001
0010
0001
1000
0100
0010
0001
0010
0100
1000
0001
1000
0010
0100
,
0010
1000
0100
0010
0001
0100
0001
0010
0100
1000
0010
1000
0001
0100
0001
0010
0100
1000
0010
0100
0010
1000
0100
0010
,
0001
0010
0100
1000
0001
0010
0100
0010
0001
1000
0100
0010
0100
1000
0001
0010
0001
1000
0100
0010
0001
0010
0100
1000
,
0010
0000
0000
1000
0001
0000
0010
0000
0000
0001
1000
0000
0010
0000
0100
0000
,
0001
0000
0100
0000
0010
0000
1000
0000
0001
0000
0000
0000
0100
0001
0100
0010
,
1000
0000
0001
0100
0001
0000
1000
0000
0100
1000
0000
0000
0001
0000
0010
0000
,
0100
0000
1000
0000
0001
0000
0100
0000
0000
0000
0010
1000
0001
0000
0000
0000
,
1000
0100
1000
0001
0100
0000
0001
0000
0010
0100
0000
0000
1000
0000
0010
0000
,
0100
0000
0001
0000
0010
0000
0001
0000
0100
0000
0000
0000
0001
0100
0010
0100
,
0001
0000
0000
1000
0000
0000
0100
0000
1000
0100
0010
0001
1000
0000
0001
0000
,
0100
0000
0001
0000
0010
0000
0100
0000
1000
0000
0010
0000
0100
0001
0100
0001
,
0100
0000
0010
1000
0001
1000
0010
1000
0100
0000
0010
0001
1000
0000
0001
0100
,
0010
0000
1000
0000
0001
0100
0010
0100
0001
0000
1000
0100
1000
0001
0100
0001
,
1000
0010
1000
0000
0001
0000
0100
0000
0001
0000
0000
0000
1000
0000
0000
0000
0100
0000
0010
0000
0001
0000
0010
0000
0100
0000
0000
0000
1000
0000
0001
0000
,
0100
0010
0100
0000
0001
0010
0100
0010
0001
1000
0100
1000
0001
0100
0000
0001
,
0100
0000
0001
1000
0000
0010
0100
0000
0001
0000
1000
0100
1000
0100
0010
0001
,
1000
0010
1000
0010
0100
0001
0100
0001
1000
0100
1000
0100
0010
0000
0001
1000
,
0001
0000
0100
0001
0100
0001
1000
0000
0100
0000
0010
0001
1000
0000
0000
0001
,
0100
0010
0100
0001
1000
0100
0010
0001
1000
0000
0001
0000
0100
0010
1000
0010
,
2000
0000
0000
3002
0000
0000
0023
0000
,
0000
0230
0000
0000
,
2300
0000
0000
3002
0000
0000
0203
0000
,
0000
0000
0000
0000
,
0320
0000
0000
2030
0000
0000
3002
2003
,
0000
0000
0000
0000
,
3200
0000
0000
0320
0000
0000
0032
2003
,
0000
3020
0000
0000
2030
0000
0000
0000
,
3200
0000
0000
0320
0000
0000
0032
2003
,
0000
0000
0000
0000
,
3002
0000
0000
0203
0000
0000
0320
2030
,
0000
0000
0000
0000
,
3002
0000
0000
0023
0000
0000
0230
2300
,
0000
0000
0000
0000
,
3002
0000
0000
0000
0000
0000
0000
0000
0000
0203
0000
0000
0000
0000
0000
0000
0000
0000
0320
0000
0030
0020
0000
0000
,
0000
0030
2000
0000
0000
0000
0000
0000
3002
0000
0000
0000
0003
0000
0000
0000
,
1000
0001
0010
0001
1000
0100
1000
0001
0100
0001
1000
0010
0100
0010
1000
0001
1000
0001
0010
0100
0010
0001
1000
0100
,
1000
0001
0010
0100
1000
0100
0010
0001
1000
0001
0100
0010
0100
0001
1000
0001
0100
0010
0100
0001
1000
0100
1000
0001
,
0020
0000
0000
0000
0000
0000
0000
0000
0000
0032
0000
0000
0000
0000
0000
0000
0000
0000
1003
0010
0100
0001
1000
0010
,
0100
0001
1000
0100
1000
0001
0010
0100
0010
0001
1000
0100
1000
0001
0010
0001
1000
0010
1000
0001
0100
0001
1000
0010
,
0200
0000
0000
0000
0000
0000
0000
0000
0000
0302
0000
0000
0000
0000
0000
0000
0000
0000
1003
0100
1000
0001
0010
0100
,
0010
0001
1000
0001
0100
0010
0100
0001
1000
0100
1000
0001
0010
0100
1000
0001
0100
0010
0100
0001
1000
0010
0100
0001
,
0010
0100
1000
0100
0010
0001
1000
0100
0010
0001
0100
0010
1000
0010
0100
0001
1000
0100
0010
0001
0100
0001
1000
0010
,
0100
0001
0100
0010
1000
0001
0010
0100
1000
0001
0010
0100
0010
0001
1000
0001
0010
0100
2000
0000
0000
0000
0000
0000
,
3002
0000
0000
0000
0000
0000
0000
0000
0000
0203
0000
0000
0000
0000
0000
0000
0000
0000
0310
1000
0001
0100
0001
0100
,
0010
1000
0001
0010
0100
1000
0100
0010
0001
1000
0100
1000
0001
0010
0100
1000
0001
0100
0010
1000
0001
0010
0100
1000
,
0010
0100
0001
0100
0010
1000
0001
0010
0001
0100
0010
1000
0010
0100
0001
1000
0100
0010
0001
0100
0010
0100
0001
1000
,
0100
0010
0001
0010
0100
1000
0001
0100
0001
1000
0010
0100
0001
1000
0100
0010
0100
1000
0001
0010
0001
1000
0010
0100
,
0002
0000
0000
0000
0000
0000
0000
0000
0000
2003
0000
0000
0000
0000
0000
0000
0000
0000
3100
0010
0001
0010
0100
1000
,
0001
0100
0001
1000
0010
0100
0001
1000
0100
1000
0001
0010
0100
0010
0001
1000
0100
1000
0001
0010
0100
1000
0001
0100
,
0002
0000
0000
0000
0000
0000
0000
0000
0000
0023
0000
0000
0000
0000
0000
0000
0000
0000
0130
1000
0100
0010
0001
1000
,
0001
0100
0010
0100
0001
1000
0100
1000
0001
0010
0100
1000
0100
0010
0001
1000
0010
0100
0002
0000
0000
0000
0000
0000
,
1003
0100
0010
0001
0100
0010
1000
0010
0100
0001
0010
0100
2000
0000
0000
0000
0000
0000
3002
0000
0000
0000
0000
0000
,
0203
0000
0000
0000
0000
0000
0000
0000
0310
1000
0001
1000
0001
0000
0000
0000
,
1000
0001
0010
0001
0100
0010
1000
0100
1000
0001
0010
0001
2000
0000
0000
0000
0000
0000
3002
0000
0000
0000
0000
0000
,
0203
0000
0000
0000
0000
0000
0000
0000
0310
1000
0001
0100
0001
0000
0000
0000
,
1000
0100
0010
0001
0100
0001
1000
0010
1000
0100
0010
0001
0100
0010
1000
0100
0010
0001
1000
0010
0100
0001
0010
0100
,
1000
0001
0100
0001
0100
0010
1000
0010
0100
0001
1000
0100
1000
0001
0010
0100
1000
0100
0010
0001
1000
0001
0100
0010
,
0100
0001
0010
0100
1000
0010
1000
0100
0010
0001
0100
0001
1000
0010
1000
0100
0010
0001
0100
0010
0100
0001
0010
0100
,
1000
0100
0010
0001
1000
0100
0010
0100
1000
0001
0010
0100
0010
0001
1000
0100
1000
0001
0010
0100
1000
0100
0010
0001
,
0100
0010
1000
0100
1000
0010
0100
0001
0010
0100
1000
0001
0100
0010
1000
0100
0010
0001
0010
0100
1000
0010
0100
0001
,
0100
0010
1000
0010
0100
0001
0100
0010
1000
0001
1000
0001
0100
0010
1000
0001
1000
0100
0010
0001
0010
0100
1000
0001
,
1000
0100
0010
0001
0100
0010
1000
0100
1000
0001
0010
0001
0100
0010
1000
0100
1000
0010
0100
0001
0010
0100
1000
0001
,
0100
0010
1000
0001
0100
0010
1000
0001
0100
0010
1000
0001
0010
0100
1000
0001
0010
0001
1000
0010
0100
0010
1000
0001
,
0020
0000
0100
0032
,
2003
0000
0000
0000
0000
0000
0000
0000
0010
0000
0000
0000
3001
0010
0001
0010
,
0200
0000
0000
1000
1300
0000
0002
0000
,
0203
0000
0000
0000
0000
0000
0000
0000
0310
0000
0010
0000
1000
0001
1000
0000
,
0000
0000
0000
0000
,
0000
0000
0000
0000
,
0000
0000
0000
0000
,
0000
0000
0000
0000
0000
000M
0000
0000
;

//---------------dance-single - Rynker----------------
#NOTES:
     dance-single:
     Rynker:
     Easy:
     13:
     1.000,0.987,0.000,0.544,1.000,1640.000,0.000,125.000,0.000,0.000:






0000
0000
0000
0000
,
0000
0000
0000
0000
,
0001
0000
1000
0001
1000
0001
0010
0100
1000
0000
0001
0100
0001
0000
1000
0100
,
1000
0000
1000
0000
0001
0010
0100
0010
0001
0000
1000
0000
0001
0100
0010
0100
,
0001
1000
0100
0000
1000
0000
0001
0000
0100
0000
0000
0000
0010
0000
0000
0000
0100
0000
0001
0000
1000
0000
0001
0000
0010
0000
0000
0000
0100
0000
1000
0000
,
0100
1000
0001
0000
0010
0001
1000
0001
0100
0010
0100
0001
0010
0000
0100
1000
,
0001
0000
0100
0001
0000
0100
0001
0000
0100
0000
0010
1000
0010
0100
0001
1000
,
0100
0010
0100
1000
0001
0100
0001
0100
0010
1000
0010
1000
0001
0010
0001
0010
,
0100
0000
0000
1000
0100
1000
0001
0000
0010
0000
0100
1000
0010
0000
0100
0000
,
0001
0000
0000
0100
0000
0000
0010
0000
0000
1000
0000
0000
0001
0000
0000
0100
0000
0000
0001
0000
0100
0000
0010
0000
1000
0000
0000
0001
0000
0000
0010
0000
0000
0100
0000
0000
1000
0000
0000
0000
0000
0000
0100
0000
0000
0000
0000
0000
,
1000
0000
0001
1000
0001
1000
0100
0010
0001
0000
1000
0010
1000
0000
0001
0010
,
0001
0000
0001
0000
1000
0100
0010
0100
1000
0000
0001
0000
1000
0010
0100
0010
,
1000
0000
0001
0010
0100
0000
1000
0000
0010
1000
0001
1000
0100
0000
0010
0001
,
0010
0001
1000
0000
0100
1000
0001
1000
0010
0100
0010
1000
0100
0000
0010
0001
,
1000
0000
0010
1000
0000
0010
1000
0000
0010
0000
0100
0001
0100
0010
1000
0001
,
0010
0100
0010
0001
1000
0010
1000
0010
0100
0001
0100
0001
1000
0100
1000
0100
,
0010
0000
0000
0001
0010
0001
1000
0000
0100
0000
0010
0001
0100
0000
0010
0000
,
1000
0000
0000
0010
0000
0000
0100
0000
0000
0001
0000
0000
1000
0000
0000
0010
0000
0000
1000
0000
0010
0000
0100
0000
0001
0000
0000
0000
0000
0000
0100
0000
0000
0000
0000
0000
0001
0000
0000
0000
0000
0000
0010
0000
0000
0000
0000
0000
,
0100
0000
1000
0001
1000
0001
0010
0100
1000
0000
0001
0100
0001
0000
1000
0100
,
1000
0000
1000
0000
0001
0010
0100
0010
0001
0000
1000
0000
0001
0100
0010
0100
,
0001
0000
1000
0001
0100
0010
1000
0000
0010
1000
0001
1000
0100
0000
0010
0001
,
0010
0001
1000
0000
0100
1000
0001
1000
0010
0100
0010
1000
0100
0000
0010
0001
,
1000
0000
0010
1000
0000
0010
1000
0000
0010
0000
0100
0001
0100
0010
1000
0001
,
0010
0100
0010
0001
1000
0010
1000
0010
0100
0001
0100
0001
1000
0100
1000
0100
,
0010
0000
0000
0001
0010
0001
1000
0000
0100
0000
0010
0001
0100
0000
0010
0000
,
1000
0000
0000
0010
0000
0000
0100
0000
0000
0001
0000
0000
1000
0000
0000
0010
0000
0000
1000
0000
0010
0000
0100
0000
0001
0000
0000
0000
0000
0000
0100
0000
0000
0010
0000
0000
1000
0000
0000
0000
0000
0000
0010
0000
0000
0100
0000
0000
,
0002
0000
0000
2003
0000
0000
3200
0320
,
0000
0000
0000
0000
0000
0000
0032
0000
0000
2003
3020
0230
0302
0003
2000
0000
,
3200
0320
0032
0203
0000
0320
2030
3002
,
0023
0000
0000
0000
0230
0000
0000
0000
2300
0000
0000
0000
3000
0000
0000
0001
0200
0000
0000
0000
0300
0000
0020
0000
2030
0000
0000
0000
3002
0000
0000
0000
,
0023
0000
0000
0000
0230
0000
0000
0000
2300
0000
0000
0000
3020
0000
0000
0000
2030
0000
3000
0000
0100
0020
0000
0000
0030
0000
0000
0000
0002
0000
2003
0000
,
0000
3000
0002
0000
0000
0000
0003
0100
0020
0000
2030
0000
3020
0000
0230
0000
,
0302
0000
0000
2003
0000
0000
3200
0320
,
0030
0002
0000
0000
2003
0000
3020
0000
,
2030
0000
0000
3002
0000
0000
0023
0230
,
0000
0000
0000
0000
0000
0000
2300
0000
0000
3002
0203
0320
2030
3000
0002
0000
,
0023
0230
2300
3020
0000
0230
0302
2003
,
3200
0000
0000
0000
0320
0000
0000
0000
0032
0000
0000
0000
0003
0000
0000
1000
0020
0000
0000
0000
0030
0000
0200
0000
0302
0000
0000
0000
2003
0000
0000
0000
,
3200
0000
0000
0000
0320
0000
0000
0000
0032
0000
0000
0000
0203
0000
0000
0000
0302
0000
0003
0000
0010
0200
0000
0000
0300
0000
0000
0000
2000
0000
3002
0000
,
0000
0003
2000
0000
0000
0000
3000
0010
0200
0000
0302
0000
0203
0000
0320
0000
,
2030
0000
3020
0000
0230
0000
0302
0000
1003
0100
2000
0000
3000
0000
0000
0000
,
0000
0000
0000
0000
0002
2003
3020
0230
,
0301
1000
0001
1000
0010
0100
0001
1000
0100
0010
0001
1000
0010
0100
0001
0010
,
0001
1000
0010
0100
0001
0010
0100
1000
0100
0010
0001
1000
0010
0100
0001
1000
,
0010
0100
0001
1000
0001
0010
0100
1000
0100
1000
0001
0100
0001
1000
0010
0100
,
0010
1000
0001
0100
0001
1000
0100
0010
0100
1000
0001
0100
0001
0010
0100
1000
,
0010
0100
0010
1000
0100
0010
0100
1000
0010
1000
0010
0100
0001
0010
0001
1000
,
0100
0010
0100
1000
0001
0100
0001
1000
0010
0100
0010
0100
0001
1000
0010
1000
,
0100
0010
0001
0010
0100
1000
0010
0100
0001
0100
0010
1000
0100
0010
0001
0010
,
0100
1000
0001
0100
0010
0100
0001
0010
0001
0100
0010
1000
0100
1000
0010
0100
,
0001
0010
0001
0100
0001
1000
0100
0010
0001
1000
0100
0010
0001
1000
0010
0100
,
0001
1000
0010
1000
0010
1000
0001
0010
0001
0010
0100
1000
0100
1000
0001
0100
,
0010
1000
0001
0010
0100
1000
0001
0010
0100
1000
0100
1000
0010
0100
0001
0100
,
0001
0010
0001
0100
0010
1000
0100
0010
0001
1000
0010
0100
0010
1000
0100
1000
,
0010
0100
0001
0100
0001
0010
0100
1000
0001
0010
0100
1000
0010
0100
0001
1000
,
0010
0100
0001
0100
0001
1000
0100
1000
0100
0010
0100
1000
0001
0010
0100
1000
,
0001
0010
0100
1000
0001
0100
0010
1000
0001
1000
0001
0010
0100
0010
0001
1000
,
0100
0010
0001
1000
0010
0100
0001
1000
0010
1000
0100
1000
0010
0100
0001
0010
,
0100
1000
0100
0010
0001
1000
0001
0100
0010
1000
0100
0010
0001
0100
0010
1000
,
0100
1000
0001
0100
0010
0100
0010
0100
0001
1000
0001
1000
0010
1000
0010
1000
,
0100
0010
0001
0100
0010
1000
0100
1000
0010
0100
0001
0100
0010
0100
0001
0010
,
0100
1000
0100
1000
0001
0100
0001
1000
0100
1000
0010
0100
0001
0100
0001
0010
,
0100
1000
0001
0010
0001
0100
0010
1000
0100
1000
0010
0100
0001
0010
0001
0100
,
0010
1000
0001
1000
0100
1000
0100
0010
0100
1000
0001
0100
0001
0100
0001
0010
,
0001
0100
0010
1000
0100
1000
0010
0100
0001
0010
0100
1000
0100
0010
0001
0010
,
0001
0100
0010
1000
0100
0010
0001
0010
0001
0010
0100
0010
0001
1000
0010
1000
,
0010
0100
0001
0010
0100
1000
0010
0100
0001
0010
0100
0010
0001
0100
0010
1000
,
0100
1000
0001
0010
0001
1000
0010
1000
0010
0100
0001
0010
0100
1000
0010
0100
,
0001
0010
0100
1000
0010
0100
0001
0010
0100
1000
0100
1000
0010
0100
0001
0010
,
0001
0100
0010
1000
0100
1000
0010
0100
0001
0010
0001
1000
0100
1000
0100
1000
,
0010
0100
0001
0010
0001
0100
0010
1000
0100
1000
0010
0100
0001
0010
0001
1000
,
0100
0010
0100
1000
0001
0100
0001
1000
0010
0100
0010
1000
0001
0100
0001
0010
,
0001
0100
0010
1000
0100
1000
0010
0100
0001
0010
0001
0100
0010
1000
0100
1000
,
0010
0100
0001
0010
0100
1000
0010
1000
0001
0100
0001
0010
0001
1000
0010
0100
,
0001
0000
0000
1000
0100
0000
0010
0000
0000
0001
1000
0000
0010
0000
1000
0000
,
0100
0000
0010
0000
0001
0000
1000
0000
0001
0000
0000
0000
0100
0001
0100
0010
,
1000
0000
0001
0100
0001
0000
1000
0000
0100
1000
0000
0000
0001
0000
0010
0000
,
0100
0000
1000
0000
0001
0000
0100
0000
0000
0000
0010
1000
0001
0000
0000
0000
,
1000
0100
1000
0001
0100
0000
0001
0000
0010
0100
0000
0000
1000
0000
0010
0000
,
0100
0000
0001
0000
0010
0000
0001
0000
0100
0000
0000
0000
0001
0100
0010
0100
,
0001
0000
0000
1000
0000
0000
0100
0000
1000
0100
0010
0001
1000
0000
0001
0000
,
0100
0000
0001
0000
0010
0000
0100
0000
1000
0000
0010
0000
0100
0001
0100
0001
,
0100
0000
0010
1000
0001
1000
0010
1000
0100
0000
0010
0001
1000
0000
0001
0100
,
0010
0000
1000
0000
0001
0100
0010
0100
0001
0000
1000
0100
1000
0001
0100
0001
,
1000
0100
1000
0000
0001
0000
0100
0000
0001
0000
0000
0000
1000
0000
0000
0000
0100
0000
0010
0000
0001
0000
0010
0000
0100
0000
0000
0000
1000
0000
0001
0000
,
0100
0010
0100
0000
0001
0010
0100
0010
0001
1000
0100
1000
0001
0100
0000
0001
,
0100
0000
0001
1000
0000
0010
0100
0000
0001
0000
1000
0100
1000
0100
0010
0001
,
1000
0010
1000
0010
0100
0001
0100
0001
1000
0100
1000
0100
0010
0000
0001
1000
,
0001
0000
0100
0001
0100
0001
1000
0000
0100
0000
0010
0001
1000
0000
0000
0001
,
0100
0010
0100
0001
1000
0100
0010
0001
1000
0000
0001
0000
0100
0010
1000
0010
,
2000
0000
0000
3002
0000
0000
0023
0000
,
0000
0230
0000
0000
,
2300
0000
0000
3002
0000
0000
0203
0000
,
0000
0000
0000
0000
,
0320
0000
0000
2030
0000
0000
3002
2003
,
0000
0000
0000
0000
,
3200
0000
0000
0320
0000
0000
0032
2003
,
3000
0020
0000
0000
2030
0000
0000
0000
,
3200
0000
0000
0320
0000
0000
0032
2003
,
0000
0000
0000
0000
,
3002
0000
0000
0203
0000
0000
0320
2030
,
0000
0000
0000
0000
,
3002
0000
0000
0023
0000
0000
0230
2300
,
0000
0000
0000
0000
,
3002
0000
0000
0000
0000
0000
0000
0000
0000
0203
0000
0000
0000
0000
0000
0000
0000
0000
0320
0000
0030
0020
0000
0000
,
0000
0030
2000
0000
0000
0000
0000
0000
3002
0000
0000
0000
0003
0000
0000
0000
,
1000
0100
0010
0100
1000
0001
0100
0010
1000
0010
0100
0001
1000
0001
0010
0100
,
1000
0100
1000
0001
0100
0001
0010
0100
1000
0001
0100
0010
1000
0001
0010
0100
,
1000
0100
0010
0001
0100
0010
1000
0100
0010
0001
1000
0010
1000
0010
1000
0010
,
0100
0001
1000
0100
0010
0001
1000
0001
0100
0010
1000
0010
0100
0001
0010
0100
,
1000
0001
1000
0001
1000
0010
0100
0001
0100
0001
0100
0010
1000
0001
0010
0001
,
1000
0100
1000
0100
0010
0001
1000
0100
1000
0001
0010
0001
1000
0001
0100
0010
,
1000
0010
0100
0001
0100
0001
0010
0100
1000
0100
1000
0001
0100
0001
1000
0010
,
1000
0010
0100
0001
0100
0001
0010
0100
1000
0100
1000
0001
0010
0001
1000
0001
,
0100
0010
1000
0010
0100
0001
0010
0001
1000
0100
0010
0001
1000
0010
1000
0001
,
0100
0010
0100
0001
0100
0010
1000
0001
0010
0100
0010
0001
0010
0100
1000
0001
,
1000
0010
0100
0001
0100
0010
1000
0001
0010
0100
0010
0001
0100
0010
1000
0100
,
0010
0001
0010
0100
0010
0001
1000
0010
1000
0001
0100
0010
0100
0001
1000
0100
,
0010
0001
0010
0001
0010
0100
1000
0001
1000
0010
0100
0001
0100
0010
1000
0001
,
0010
0001
0010
0001
0010
0100
1000
0001
1000
0010
0100
0001
0100
0010
1000
0001
,
0010
0100
0010
0001
0100
0010
1000
0100
1000
0001
0010
0001
0010
0100
1000
0001
,
1000
0010
0100
0001
1000
0010
1000
0100
0010
0001
0010
0001
1000
0100
1000
0010
,
0100
0001
0010
0100
1000
0010
0100
0001
0010
0100
0010
0001
0100
0010
1000
0100
,
0010
0001
0010
0001
1000
0010
1000
0001
0100
0010
1000
0100
0010
0001
1000
0001
,
0100
0010
1000
0100
0010
0001
0100
0010
1000
0100
0010
0001
0010
0100
1000
0001
,
1000
0010
0100
0001
0100
0010
1000
0100
0010
0001
0100
0010
1000
0010
1000
0100
,
1000
0010
0100
0001
0010
0001
0100
0010
1000
0100
1000
0010
0100
0001
0010
0001
,
0100
0010
1000
0100
0010
0001
1000
0001
0010
0100
0010
0001
1000
0010
1000
0001
,
0100
0010
1000
0100
1000
0010
0100
0001
0010
0001
0100
0010
1000
0100
1000
0010
,
0100
0001
0010
0001
0100
0010
1000
0100
0010
0001
0010
0100
1000
0001
1000
0010
,
0100
0001
0010
0100
1000
0010
1000
0100
0010
0001
0100
0001
0010
0100
1000
0100
,
1000
0001
0100
0010
1000
0100
1000
0010
0100
0001
0010
0100
0010
0001
1000
0010
,
0100
0001
0010
0001
0100
0010
1000
0100
1000
0010
0100
0001
0010
0001
1000
0100
,
1000
0010
0100
0001
0010
0100
1000
0100
0010
0100
1000
0001
0100
0001
0100
0010
,
1000
0001
1000
0010
1000
0001
0010
0100
0010
0001
1000
0100
0010
0001
1000
0010
,
1000
0010
0100
0010
1000
0100
1000
0010
0100
0001
0010
0100
1000
0100
0010
0100
,
1000
0001
0100
0001
1000
0010
0100
0001
1000
0010
1000
0100
0010
0001
0010
0100
,
1000
0001
0010
0100
1000
0001
1000
0010
0100
0000
0000
0000
0000
0000
0000
0000
;

//---------------dance-single - Rynker----------------
#NOTES:
     dance-single:
     Rynker:
     Hard:
     17:
     1.000,1.000,0.000,0.627,1.000,2076.000,0.000,144.000,0.000,0.000:



0000
0000
0000
0000
,
0000
0000
0000
0000
,
0001
0000
1000
0001
1000
0001
0010
0100
1000
0000
0001
0100
0001
0000
1000
0100
,
1000
0000
1000
0000
0001
0010
0100
0010
0001
0000
1000
0000
0001
0100
0010
0100
,
0001
1000
0100
0000
1000
0000
0001
0000
0100
0000
0000
0000
0010
0000
0000
0000
0100
0000
0001
0000
1000
0000
0001
0000
0010
0000
0000
0000
0100
0000
1000
0000
,
0100
1000
0001
0000
0010
0001
1000
0001
0100
0010
0100
0001
0010
0000
0100
1000
,
0001
0000
0100
0001
0000
0100
0001
0000
0100
0000
0010
1000
0010
0100
0001
1000
,
0100
0010
0100
1000
0001
0100
0001
0100
0010
1000
0010
1000
0001
0010
0001
0010
,
0100
0000
0000
1000
0100
1000
0001
0000
0010
0000
0100
1000
0010
0000
0100
0000
,
0001
0000
0000
0100
0000
0000
0010
0000
0000
1000
0000
0000
0001
0000
0000
0100
0000
0000
0001
0000
0100
0000
0010
0000
1000
0000
0000
0001
0000
0000
0010
0000
0000
0100
0000
0000
1000
0000
0000
0000
0000
0000
0100
0000
0000
0000
0000
0000
,
1000
0000
0001
1000
0001
1000
0100
0010
0001
0000
1000
0010
1000
0000
0001
0010
,
0001
0000
0001
0000
1000
0100
0010
0100
1000
0000
0001
0000
1000
0010
0100
0010
,
1000
0000
0001
0010
0100
0000
1000
0000
0010
1000
0001
1000
0100
0000
0010
0001
,
0010
0001
1000
0000
0100
1000
0001
1000
0010
0100
0010
1000
0100
0000
0010
0001
,
1000
0000
0010
1000
0000
0010
1000
0000
0010
0000
0100
0001
0100
0010
1000
0001
,
0010
0100
0010
0001
1000
0010
1000
0010
0100
0001
0100
0001
1000
0100
1000
0100
,
0010
0000
0000
0001
0010
0001
1000
0000
0100
0000
0010
0001
0100
0000
0010
0000
,
1000
0000
0000
0010
0000
0000
0100
0000
0000
0001
0000
0000
1000
0000
0000
0010
0000
0000
1000
0000
0010
0000
0100
0000
0001
0000
0000
0000
0000
0000
0100
0000
0000
0000
0000
0000
0001
0000
0000
0000
0000
0000
0010
0000
0000
0000
0000
0000
,
0100
0000
1000
0001
1000
0001
0010
0100
1000
0000
0001
0100
0001
0000
1000
0100
,
1000
0000
1000
0000
0001
0010
0100
0010
0001
0000
1000
0000
0001
0100
0010
0100
,
0001
0000
1000
0001
0100
0010
1000
0000
0010
1000
0001
1000
0100
0000
0010
0001
,
0010
0001
1000
0000
0100
1000
0001
1000
0010
0100
0010
1000
0100
0000
0010
0001
,
1000
0000
0010
1000
0000
0010
1000
0000
0010
0000
0100
0001
0100
0010
1000
0001
,
0010
0100
0010
0001
1000
0010
1000
0010
0100
0001
0100
0001
1000
0100
1000
0100
,
0010
0000
0000
0001
0010
0001
1000
0000
0100
0000
0010
0001
0100
0000
0010
0000
,
1000
0000
0000
0010
0000
0000
0100
0000
0000
0001
0000
0000
1000
0000
0000
0010
0000
0000
1000
0000
0010
0000
0100
0000
0001
0000
0000
0000
0000
0000
0100
0000
0000
0010
0000
0000
1000
0000
0000
0000
0000
0000
0010
0000
0000
0100
0000
0000
,
0002
0000
0000
2003
0000
0000
3200
0320
,
0000
0000
0000
0000
0000
0000
0032
0000
0000
2003
3020
0230
0302
0003
2000
0000
,
3200
0320
0032
0203
0000
0320
2030
3002
,
0023
0000
0000
0000
0230
0000
0000
0000
2300
0000
0000
0000
3000
0000
0000
0001
0200
0000
0000
0000
0300
0000
0020
0000
2030
0000
0000
0000
3002
0000
0000
0000
,
0023
0000
0000
0000
0230
0000
0000
0000
2300
0000
0000
0000
3020
0000
0000
0000
2030
0000
3000
0000
0100
0020
0000
0000
0030
0000
0000
0000
0002
0000
2003
0000
,
0000
3000
0002
0000
0000
0000
0003
0100
0020
0000
2030
0000
3020
0000
0230
0000
,
0302
0000
0000
2003
0000
0000
3200
0320
,
0030
0002
0000
0000
2003
0000
3020
0000
,
2030
0000
0000
3002
0000
0000
0023
0230
,
0000
0000
0000
0000
0000
0000
2300
0000
0000
3002
0203
0320
2030
3000
0002
0000
,
0023
0230
2300
3020
0000
0230
0302
2003
,
3200
0000
0000
0000
0320
0000
0000
0000
0032
0000
0000
0000
0003
0000
0000
1000
0020
0000
0000
0000
0030
0000
0200
0000
0302
0000
0000
0000
2003
0000
0000
0000
,
3200
0000
0000
0000
0320
0000
0000
0000
0032
0000
0000
0000
0203
0000
0000
0000
0302
0000
0003
0000
0010
0200
0000
0000
0300
0000
0000
0000
2000
0000
3002
0000
,
0000
0003
2000
0000
0000
0000
3000
0010
0200
0000
0302
0000
0203
0000
0320
0000
,
2030
0000
3020
0000
0230
0000
0302
0000
1003
0100
2000
0000
3000
0000
0000
0000
,
0000
0000
0000
0000
0002
2003
3020
0230
,
0301
1000
0001
0100
0010
0100
0001
1000
0001
0010
0100
1000
0100
0010
0001
1000
0001
0100
0010
0100
0001
1000
0001
0100
,
0010
0100
0001
1000
0001
0100
0010
0100
0001
1000
0001
1000
0100
1000
0001
0100
0010
1000
0001
1000
0001
0100
0010
1000
,
0001
0010
0100
1000
0001
1000
0100
1000
0001
0100
0010
1000
0001
0100
0010
1000
0001
1000
0100
0010
0001
1000
0001
1000
,
0100
0010
0100
1000
0001
0010
0100
1000
0100
0010
0001
1000
0010
1000
0001
0010
0100
1000
0100
0010
0001
1000
0001
1000
,
0010
0100
0010
1000
0001
1000
0010
0100
0001
1000
0100
0010
0001
1000
0100
0010
0001
1000
0010
0100
0001
0100
0001
1000
,
0010
0100
0001
1000
0001
1000
0001
0100
0010
0100
0001
1000
0100
1000
0001
0100
0010
1000
0001
0100
0010
1000
0001
1000
,
0100
0010
0001
1000
0100
0010
0001
1000
0010
0100
0001
0010
0100
1000
0100
0010
0001
0100
0010
1000
0010
0100
0001
1000
,
0001
0000
0100
0000
0010
0000
1000
0000
0001
0000
0100
0000
0001
0000
1000
0000
0100
0000
0010
0000
0001
0000
0010
0000
0100
0000
0000
1000
0000
0000
0100
0000
0000
1000
0000
0000
0200
0000
0000
0000
0000
0000
0000
0000
0000
0300
0000
0000
,
1000
0001
1000
0010
0100
0001
0100
0010
1000
0001
0010
0100
1000
0100
0010
0001
1000
0001
0010
0100
1000
0001
1000
0010
,
0100
0001
0100
0010
1000
0010
0100
0001
1000
0001
1000
0100
0010
0001
1000
0010
0100
0001
1000
0010
1000
0010
0100
0001
,
1000
0100
0010
0001
1000
0001
1000
0100
0010
0001
0100
0001
1000
0010
0100
0001
1000
0010
1000
0100
0010
0001
0010
0100
,
1000
0000
0001
0000
0010
0000
0001
0000
1000
0000
0100
0000
0010
0000
0001
0000
0010
0000
0100
0000
1000
0000
0001
0000
0010
0000
0000
0001
0000
0000
1000
0000
0000
0001
0000
0000
2000
0000
0000
0000
0000
0000
0001
0000
0000
3000
0000
0000
,
1000
0001
1000
0100
0010
0001
0010
0100
1000
0001
1000
0010
0100
0010
1000
0001
0100
0001
1000
0100
0010
0001
1000
0100
,
0010
0001
1000
0100
0010
0100
1000
0001
0010
0001
1000
0001
0100
0010
1000
0001
0010
0100
1000
0001
0010
0100
1000
0001
,
0100
0010
1000
0001
0100
0010
1000
0010
1000
0100
0010
0001
1000
0100
1000
0001
0100
0001
0010
0100
1000
0010
0100
0001
,
1000
0000
0010
0000
0100
0000
0001
0000
1000
0000
0001
0000
1000
0000
0010
0000
0100
0000
0010
0000
1000
0000
0001
0000
1000
0000
0000
0001
0000
0000
1000
0000
0000
0001
0000
0000
2000
0000
0000
0000
0000
0000
0001
0000
0000
3000
0000
0000
,
1000
0100
0010
0001
0100
0010
1000
0001
1000
0010
0100
0010
1000
0001
0010
0001
1000
0100
0010
0001
0010
0100
1000
0001
,
1000
0000
0010
0000
0100
0000
0010
0000
1000
0000
0001
0000
0100
0000
0010
0000
0100
0000
0001
0000
1000
0000
0100
0000
0010
0000
0000
0001
0000
0000
1000
0000
0000
0001
0000
0000
1000
0000
0001
0000
0100
0000
0010
0000
1000
0000
0100
0000
,
1000
0010
0100
0001
0010
0100
1000
0010
0100
0001
1000
0001
1000
0100
0010
0100
1000
0001
1000
0010
0100
0010
1000
0001
,
0010
0000
0001
0000
1000
0000
0100
0000
0010
0000
0001
0000
1000
0000
0010
0000
1000
0000
0001
0000
0010
0000
0001
0000
1000
0000
0000
0001
0000
0000
1000
0000
0000
0001
0000
0000
1000
0000
0001
0000
1000
0000
0001
0000
0100
0000
0010
0000
,
1000
0100
1000
0010
0100
0001
0010
0001
0100
0010
1000
0100
1000
0010
0100
0001
0010
0001
0100
0010
1000
0100
1000
0010
,
0100
0001
0010
0001
1000
0100
0010
0001
0010
0100
1000
0001
1000
0100
0010
0100
1000
0001
0010
0001
1000
0100
0010
0001
,
0100
0001
0010
0100
1000
0010
1000
0100
0010
0001
0100
0001
0010
0100
1000
0010
1000
0100
0010
0001
0100
0001
0010
0100
,
1000
0000
0010
0000
1000
0000
0100
0000
0010
0000
0001
0000
0100
0000
0001
0000
1000
0000
0010
0000
0100
0000
0010
0000
1000
0000
0000
0001
0000
0000
0100
0000
0000
0001
0000
0000
0200
0000
0000
0000
0000
0000
0302
0000
0000
0000
0000
0000
,
2003
0000
0000
3200
0000
0000
1300
0100
0010
0001
1000
0100
0010
0001
0010
0100
1000
0001
1000
0010
0100
0010
1000
0001
,
1000
0000
0100
0000
0010
0000
0100
0000
1000
0000
0001
0000
0010
0000
0100
0000
1000
0000
0001
0000
0010
0000
0100
0000
1000
0000
0000
0001
0000
0000
1000
0000
0000
0001
0000
0000
2000
0000
0000
0000
0000
0000
3002
0000
0000
0000
0000
0000
,
0203
0000
0000
0302
0000
0000
0103
0001
0100
0010
1000
0001
1000
0010
0100
0010
1000
0001
0010
0100
1000
0100
0010
0001
,
0010
0100
1000
0001
1000
0001
0010
0100
1000
0100
0010
0001
1000
0010
1000
0001
0100
0010
1000
0001
0010
0001
1000
0100
,
1000
0010
0100
0001
0010
0001
0100
0010
1000
0100
1000
0010
0100
0001
0010
0001
0100
0010
1000
0100
1000
0010
0100
0001
,
0010
0001
0100
0010
1000
0010
0100
0001
0100
0010
1000
0001
1000
0001
0100
0010
0100
0001
1000
0001
1000
0010
0100
0010
,
1000
0100
1000
0010
0100
0001
0010
0001
0100
0010
1000
0100
1000
0010
0100
0001
0010
0001
0100
0010
1000
0100
1000
0010
,
0100
0001
0010
0001
1000
0010
0100
0010
1000
0001
0010
0100
1000
0001
1000
0010
0100
0010
1000
0001
0010
0100
1000
0001
,
1000
0000
0000
0001
0010
0000
0001
0000
1000
0010
0000
0000
1000
0000
0001
0000
,
0010
0000
0100
0000
1000
0000
0001
0000
1000
0000
0000
0000
0010
1000
0010
0100
,
0001
0000
1000
0010
1000
0000
0001
0000
0010
0001
0000
0000
1000
0000
0100
0000
,
0010
0000
0001
0000
1000
0000
0010
0000
0000
0000
0100
0001
1000
0000
0000
0000
,
0001
0010
0001
1000
0010
0000
1000
0000
0100
0010
0000
0000
0001
0000
0100
0000
,
0010
0000
1000
0000
0100
0000
1000
0000
0010
0000
0000
0000
1000
0010
0100
0010
,
1000
0000
0000
0001
0000
0000
0010
0000
0001
0010
0100
1000
0001
0000
1000
0000
,
0010
0000
1000
0000
0100
0000
0010
0000
0001
0000
0100
0000
0010
1000
0010
1000
,
0010
0000
0100
0001
1000
0001
0100
0001
0010
0000
0100
1000
0001
0000
1000
0010
,
0100
0000
0001
0000
1000
0010
0100
0010
1000
0000
0001
0010
0001
1000
0010
1000
,
0001
0010
0001
0000
1000
0000
0010
0000
1000
0000
0000
0000
0001
0000
0000
0000
0010
0000
0100
0000
1000
0000
0100
0000
0010
0000
0000
0000
0001
0000
1000
0000
,
0010
0100
0010
0000
1000
0100
0010
0100
1000
0001
0010
0001
1000
0010
0000
1000
,
0010
0000
1000
0001
0000
0100
0010
0000
1000
0000
0001
0010
0001
0010
0100
1000
,
0001
0100
0001
0100
0010
1000
0010
1000
0001
0010
0001
0010
0100
0000
1000
0001
,
1000
0000
0010
1000
0010
1000
0001
0000
0010
0000
0100
1000
0001
0000
0000
1000
,
0010
0100
0010
1000
0001
0010
0100
1000
0001
0000
1000
0000
0010
0100
0001
0100
,
0002
0000
0000
2003
0000
0000
3200
0000
,
0000
0320
0000
0000
,
0032
0000
0000
2003
0000
0000
3020
0230
,
0000
0000
0000
0000
0000
0000
0000
0300
,
0020
0000
0000
2030
0000
0000
3002
2003
,
0000
0000
0000
0000
,
3200
0000
0000
0320
0000
0000
0032
2003
,
0000
3020
0000
0000
2030
0000
0000
0000
,
3200
0000
0000
0320
0000
0000
0032
2003
,
0000
0000
0000
0000
,
3002
0000
0000
0203
0000
0000
0320
2030
,
0000
0000
0000
0000
,
3002
0000
0000
0023
0000
0000
0230
2300
,
0000
0000
0000
0000
,
3002
0000
0000
0203
0000
0000
0310
0020
,
0000
2030
0000
0000
3002
0000
0003
0000
,
1000
0001
1000
0010
0100
0010
1000
0001
1000
0100
0010
0001
1000
0100
0010
0001
1000
0001
0100
0010
1000
0001
1000
0010
,
0100
0010
1000
0001
1000
0010
0100
0010
1000
0001
1000
0001
0010
0100
0010
0001
1000
0001
0100
0010
0100
0001
1000
0001
,
0010
0100
1000
0100
0010
0001
1000
0001
1000
0010
0100
0001
0100
0010
1000
0001
0100
0001
0010
0100
1000
0100
0010
0001
,
0010
0100
1000
0001
1000
0100
0010
0001
0010
0100
1000
0001
0100
0001
1000
0100
0010
0001
1000
0001
0010
0001
1000
0100
,
1000
0001
0100
0010
1000
0001
0100
0010
1000
0001
0010
0100
1000
0100
0010
0001
1000
0001
0100
0010
1000
0010
0100
0001
,
1000
0010
0100
0001
1000
0001
1000
0010
0100
0010
1000
0001
0010
0001
1000
0010
0100
0001
1000
0100
0010
0001
0100
0001
,
0010
0100
1000
0001
0010
0100
1000
0001
0100
0010
1000
0100
0010
0001
0010
0100
1000
0010
0100
0001
0100
0010
1000
0001
,
1000
0000
0010
0000
0100
0000
0001
0000
1000
0000
0010
0000
1000
0000
0001
0000
0010
0000
0100
0000
1000
0000
0100
0000
1000
0000
0000
0001
0000
0000
1000
0000
0000
0001
0000
0000
2000
0000
0000
0000
0000
0000
0001
0000
0000
3000
0000
0000
,
1000
0001
1000
0010
0100
0001
0100
0010
1000
0001
0010
0100
1000
0100
0010
0001
1000
0100
1000
0001
0100
0001
1000
0010
,
1000
0001
0100
0010
1000
0010
0100
0001
1000
0010
0100
0001
1000
0100
1000
0001
0100
0010
1000
0001
0100
0010
0100
0001
,
0010
0100
1000
0100
0010
0001
1000
0100
1000
0010
0100
0001
0100
0001
1000
0010
0100
0001
0010
0100
1000
0001
0100
0010
,
1000
0000
0001
0000
0010
0000
0001
0000
1000
0000
0010
0000
0100
0000
0001
0000
0100
0000
0010
0000
1000
0000
0001
0000
1000
0000
0000
0001
0000
0000
1000
0000
0000
0001
0000
0000
2000
0000
0000
0000
0000
0000
0001
0000
0000
3000
0000
0000
,
1000
0001
1000
0100
0010
0001
1000
0100
1000
0001
0100
0010
1000
0001
0100
0010
1000
0001
1000
0100
0010
0001
0010
0100
,
1000
0001
1000
0100
0010
0100
1000
0001
0010
0100
1000
0001
0100
0001
1000
0100
1000
0001
0010
0100
1000
0001
1000
0010
,
0100
0010
1000
0001
0100
0010
1000
0001
0010
0100
1000
0100
0010
0001
1000
0100
0010
0001
0100
0010
1000
0001
0100
0010
,
1000
0000
0010
0000
0100
0000
0001
0000
1000
0000
0001
0000
1000
0000
0010
0000
0100
0000
0010
0000
1000
0000
0001
0000
0100
0000
0000
0001
0000
0000
1000
0000
0000
0001
0000
0000
2000
0000
0000
0000
0000
0000
0001
0000
0000
3000
0000
0000
,
1000
0100
0010
0001
0100
0010
1000
0001
1000
0010
0100
0010
1000
0001
0010
0001
1000
0100
0010
0001
0010
0100
1000
0001
,
1000
0000
0010
0000
0100
0000
0010
0000
1000
0000
0001
0000
0100
0000
0010
0000
0100
0000
0001
0000
1000
0000
0100
0000
1000
0000
0000
0001
0000
0000
1000
0000
0000
0001
0000
0000
2000
0000
0000
0000
0000
0000
3002
0000
0000
0000
0000
0000
,
0203
0000
0000
0320
0000
0000
1030
0001
0100
0001
1000
0001
1000
0100
0010
0100
1000
0001
1000
0010
0100
0010
1000
0001
,
0010
0001
1000
0100
0010
0001
1000
0010
1000
0001
0010
0001
1000
0100
0010
0001
0010
0100
1000
0001
1000
0001
0100
0010
,
1000
0100
1000
0010
0100
0001
0010
0001
0100
0010
1000
0100
1000
0010
0100
0001
0010
0001
0100
0010
1000
0100
1000
0010
,
0100
0001
0010
0001
1000
0100
0010
0001
0010
0100
1000
0001
1000
0100
0010
0100
1000
0001
0010
0001
1000
0100
0010
0001
,
0100
0001
0010
0100
1000
0010
1000
0100
0010
0001
0100
0001
0010
0100
1000
0010
1000
0100
0010
0001
0100
0001
0010
0100
,
1000
0000
0010
0000
1000
0000
0100
0000
0010
0000
0001
0000
0100
0000
0001
0000
1000
0000
0010
0000
0100
0000
0010
0000
1000
0000
0000
0001
0000
0000
0100
0000
0000
0010
0000
0000
0100
0000
0000
0001
0000
0000
1000
0000
0000
0001
0000
0000
,
1000
0100
1000
0010
0100
0001
0010
0001
0100
0010
1000
0100
1000
0010
0100
0001
0010
0001
0100
0010
1000
0100
1000
0010
,
0100
0000
0001
0000
0100
0000
0010
0000
1000
0000
0001
0000
0100
0000
0010
0000
1000
0000
0001
0000
0010
0000
0100
0000
1000
0000
0000
0001
0000
0000
1000
0000
0000
0001
0000
0000
1000
0000
0001
0000
0010
0000
0100
0000
1000
0000
0001
0000
,
0100
0001
0010
0100
1000
0010
1000
0100
0010
0001
0100
0001
0010
0100
1000
0010
1000
0100
0010
0001
0100
0001
0010
0100
,
1000
0001
0100
0010
1000
0001
0010
0100
1000
0100
0010
0001
1000
0000
0000
0010
0000
0000
0100
0000
0000
0001
0000
0000
,
1000
0001
0010
0100
1000
0100
0010
0001
1000
0001
1000
0100
0010
0001
1000
0001
0010
0100
1000
0001
0100
0010
1000
0001
,
0010
0100
1000
0001
1000
0100
0010
0001
1000
0100
0010
0001
0100
0001
1000
0100
0010
0001
1000
0001
1000
0010
0100
0001
,
0100
0010
1000
0010
0100
0001
1000
0001
0100
0010
1000
0001
1000
0010
0100
0001
1000
0001
0010
0100
1000
0001
1000
0010
,
0100
0001
0100
0010
1000
0100
0010
0001
0010
0100
1000
0001
0100
0010
1000
0001
0100
0010
1000
0001
0010
0100
1000
0001
,
2000
3000
0000
0000
;
