#TITLE:ScienceGorilla Hardcore Rap;
#SUBTITLE:;
#ARTIST:SpaceGorilla feat. science;
#TITLETRANSLIT:;
#SUBTITLETRANSLIT:;
#ARTISTTRANSLIT:;
#CREDIT:owenviau1;
#BANNER:../owenviau1 Simfiles 6 (Science X Owen).png;
#BACKGROUND:;
#LYRICSPATH:;
#CDTITLE:;
#MUSIC:ScienceGorilla Hardcore Rap.mp3;
#OFFSET:-0.068;
#SAMPLESTART:37.250;
#SAMPLELENGTH:25.214;
#SELECTABLE:YES;
#BPMS:0.000=200.000;
#STOPS:;
#BGCHANGES:;
// cache tags:
#FIRSTBEAT:0.000;
#LASTBEAT:208.000;
#SONGFILENAME:Songs/owenviau1 Simfiles 6/ScienceGorilla Hardcore Rap - [owenviau1 & SpaceGorilla] v1.1.2/ScienceGorilla Hardcore Rap.sm;
#HASMUSIC:1;
#HASBANNER:1;
#MUSICLENGTH:62.511;
// end cache tags

//---------------dance-single - 16 (owenviau1)----------------
#NOTES:
     dance-single:
     16 (owenviau1):
     Hard:
     16:
     1.000,1.000,0.000,0.064,1.000,820.000,0.000,4.000,0.000,0.000:
1000
0100
0010
0001
1000
0001
0100
0010
0100
0001
0010
0001
1000
0100
0010
0001
,
1000
0010
1000
0001
0100
0010
1000
0001
0010
0001
0100
0010
1000
0100
0010
0001
,
0100
0001
1000
0010
0100
0010
1000
0001
1000
0100
0010
0001
1000
0001
0010
0100
,
1000
0010
0100
0001
0100
0010
1000
0100
1000
0001
0100
0010
1000
0001
0010
0001
,
0100
0010
1000
0100
0010
0001
0010
0100
1000
0010
1000
0001
0100
0010
1000
0100
,
0010
0001
0100
0010
1000
0100
0010
0001
1000
0001
0100
0010
1000
0001
0010
0001
,
1000
0100
0010
0001
1000
0010
1000
0001
0100
0010
1000
0001
0010
0001
0100
0010
,
1000
0100
0010
0001
1000
0001
0100
0010
1000
0010
0100
0001
1000
0100
0010
0001
,
1000
0001
0010
0100
1000
0010
0100
0001
0100
0010
1000
0100
1000
0001
0100
0010
,
1000
0001
0010
0001
0100
0010
1000
0100
0010
0001
0010
0100
1000
0010
1000
0001
,
0100
0010
1000
0100
0010
0001
0100
0010
1000
0100
0010
0001
1000
0001
0100
0010
,
1000
0001
0010
0001
1000
0100
0010
0001
1000
0010
1000
0001
0100
0010
1000
0001
,
0010
0001
0100
0010
1000
0100
0010
0001
1000
0001
0100
0010
1000
0010
0100
0001
,
1000
0100
0010
0001
1000
0001
0010
0100
1000
0010
0100
0001
0100
0010
1000
0100
,
1000
0001
0100
0010
1000
0001
0010
0001
0100
0010
1000
0100
0010
0001
0010
0100
,
1000
0010
1000
0001
0100
0010
1000
0100
0010
0001
0100
0010
1000
0100
0010
0001
,
1000
0001
0100
0010
1000
0001
0010
0001
1000
0100
0010
0001
1000
0010
1000
0001
,
0100
0010
1000
0001
0010
0001
0100
0010
1000
0100
0010
0001
1000
0001
0100
0010
,
1000
0010
0100
0001
1000
0100
0010
0001
1000
0001
0010
0100
1000
0010
0100
0001
,
0100
0010
1000
0100
1000
0001
0100
0010
1000
0001
0010
0001
0100
0010
1000
0100
,
0010
0001
0010
0100
1000
0010
1000
0001
0100
0010
1000
0100
0010
0001
0100
0010
,
1000
0100
0010
0001
1000
0001
0100
0010
1000
0001
0010
0001
1000
0100
0010
0001
,
1000
0010
1000
0001
0100
0010
1000
0001
0010
0001
0100
0010
1000
0100
0010
0001
,
1000
0001
0100
0010
1000
0010
0100
0001
1000
0100
0010
0001
1000
0001
0010
0100
,
1000
0010
0100
0001
0100
0010
1000
0100
1000
0001
0100
0010
1000
0001
0010
0001
,
0100
0010
1000
0100
0010
0001
0010
0100
1000
0010
1000
0001
0100
0010
1000
0100
,
0010
0001
0100
0010
1000
0001
0010
0001
0100
0010
1000
0100
0010
0001
0010
0100
,
1000
0010
1000
0001
0100
0010
1000
0100
0010
0001
0100
0010
1000
0001
0100
0001
,
1000
0010
0100
0001
1000
0100
0010
0001
0100
0010
1000
0001
1000
0000
0000
0000
,
0000
1000
0002
2003
0000
3000
0000
0000
,
0000
0000
0000
0000
0000
0000
0000
0000
2000
0000
0000
3000
0002
0000
0000
0003
,
1000
0010
0100
0001
0100
0010
1000
0100
0010
0001
1000
0100
1000
0010
0100
0001
,
1000
0001
0100
0010
1000
0001
0010
0001
0100
0010
1000
0100
0010
0001
1000
0001
,
0100
0010
1000
0001
0010
0001
0100
0010
1000
0100
0010
0001
1000
0001
0100
0010
,
1000
0000
0000
0000
0000
0000
0000
0000
0000
0000
0000
0000
0010
0000
0000
0000
0000
0000
0000
0000
0000
0000
0000
0000
0100
0000
0000
0000
0000
0000
0000
0000
0000
0000
0000
0000
0001
0000
0000
0000
0000
0000
0000
0000
0000
0000
0000
0000
1000
0000
0000
0000
0000
0000
0000
0000
0000
0000
0001
0000
0000
0000
0000
0000
0000
0000
0000
1000
0000
0000
0000
0000
0000
0000
0000
0000
0000
0010
0000
0000
0000
0000
0000
0000
0000
0000
0100
0000
0000
0000
0000
0000
0000
0000
0000
0000
0001
0000
0000
0000
0000
0000
0000
0000
0000
0000
0000
0000
1000
0000
0000
0000
0000
0000
0000
0000
0000
0000
0000
0000
0100
0000
0000
0000
0000
0000
0000
0000
0000
0000
0000
0000
0010
0000
0000
0000
0000
0000
0000
0000
0000
0000
0000
0000
0001
0000
0000
0000
0000
0000
0000
0000
0000
0000
0000
0000
1000
0000
0000
0000
0000
0000
0000
0000
0000
0000
0000
0000
0010
0000
0000
0000
0000
0000
0000
0000
0000
0000
0000
0000
0100
0000
0000
0000
0000
0000
0000
0000
0000
0000
0000
0000
,
0001
0000
0000
0000
0000
0000
0000
0000
0000
0000
0010
0000
0000
0000
0000
0000
0000
0000
0000
0100
0000
0000
0000
0000
0000
0000
0000
0000
0000
1000
0000
0000
0000
0000
0000
0000
0000
0000
0001
0000
0000
0000
0000
0000
0000
0000
0000
0000
0100
0000
0000
0000
0000
0000
0000
0000
0000
0000
0000
0000
0001
0000
0000
0000
0000
0000
0000
0000
0000
0000
0000
0000
0010
0000
0000
0000
0000
0000
0000
0000
0000
0000
0000
0000
0100
0000
0000
0000
0000
0000
0000
0000
0000
0000
0000
0000
1000
0000
0000
0000
0000
0000
0000
0000
0000
0000
0001
0000
0000
0000
0000
0000
0000
0000
0000
1000
0000
0000
0000
0000
0000
0000
0000
0000
0000
0010
0000
0000
0000
0000
0000
0000
0000
0000
0100
0000
0000
0000
0000
0000
0000
0000
0000
0000
0001
0000
0000
0000
0000
0000
0000
0000
0000
0000
0000
0000
1000
0000
0000
0000
0000
0000
0000
0000
0000
0000
0000
0000
0100
0000
0000
0000
0000
0000
0000
0000
0000
0000
0000
0000
0010
0000
0000
0000
0000
0000
0000
0000
0000
0000
0000
0000
,
0001
0000
0000
0000
0000
0000
0000
0000
0000
0000
0010
0000
0000
0000
0000
0000
0000
0000
0000
0100
0000
0000
0000
0000
0000
0000
0000
0000
0000
1000
0000
0000
0000
0000
0000
0000
0000
0000
0001
0000
0000
0000
0000
0000
0000
0000
0000
0000
0100
0000
0000
0000
0000
0000
0000
0000
0000
0000
0010
0000
0000
0000
0000
0000
0000
0000
0000
1000
0000
0000
0000
0000
0000
0000
0000
0000
0000
0100
0000
0000
0000
0000
0000
0000
0000
0000
1000
0000
0000
0000
0000
0000
0000
0000
0000
0000
0010
0000
0000
0000
0000
0000
0000
0000
0000
0000
0100
0000
0000
0000
0000
0000
0000
0000
0000
0001
0000
0000
0000
0000
0000
0000
0000
0000
0000
1000
0000
0000
0000
0000
0000
0000
0000
0000
0001
0000
0000
0000
0000
0000
0000
0000
0000
0000
0100
0000
0000
0000
0000
0000
0000
0000
0000
0000
0000
0000
0010
0000
0000
0000
0000
0000
0000
0000
0000
0000
0000
0000
1000
0000
0000
0000
0000
0000
0000
0000
0000
0000
0000
0000
0001
0000
0000
0000
0000
0000
0000
0000
0000
0000
0000
0000
,
0100
0000
0000
0000
0000
0000
0000
0000
0000
0000
0000
0000
0010
0000
0000
0000
0000
0000
0000
0000
0000
0000
0000
0000
1000
0000
0000
0000
0000
0000
0000
0000
0000
0000
0000
0000
0100
0000
0000
0000
0000
0000
0000
0000
0000
0000
0000
0000
0010
0000
0000
0000
0000
0000
0000
0000
0000
0000
0001
0000
0000
0000
0000
0000
0000
0000
0000
1000
0000
0000
0000
0000
0000
0000
0000
0000
0000
0010
0000
0000
0000
0000
0000
0000
0000
0000
0100
0000
0000
0000
0000
0000
0000
0000
0000
0000
0001
0000
0000
0000
0000
0000
0000
0000
0000
0000
1000
0000
0000
0000
0000
0000
0000
0000
0000
0010
0000
0000
0000
0000
0000
0000
0000
0000
0000
1000
0000
0000
0000
0000
0000
0000
0000
0000
0100
0000
0000
0000
0000
0000
0000
0000
0000
0000
0010
0000
0000
0000
0000
0000
0000
0000
0000
0000
0001
0000
0000
0000
0000
0000
0000
0000
0000
1000
0000
0000
0000
0000
0000
0000
0000
0000
0000
0010
0000
0000
0000
0000
0000
0000
0000
0000
0100
0000
0000
0000
0000
0000
0000
0000
0000
0000
,
0001
0000
0000
0000
0000
0000
0000
0000
0000
0000
1000
0000
0000
0000
0000
0000
0000
0000
0000
0100
0000
0000
0000
0000
0000
0000
0000
0000
0000
1000
0000
0000
0000
0000
0000
0000
0000
0000
0010
0000
0000
0000
0000
0000
0000
0000
0000
0000
0100
0000
0000
0000
0000
0000
0000
0000
0000
0000
0001
0000
0000
0000
0000
0000
0000
0000
0000
1000
0000
0000
0000
0000
0000
0000
0000
0000
0000
0010
0000
0000
0000
0000
0000
0000
0000
0000
0100
0000
0000
0000
0000
0000
0000
0000
0000
0000
0010
0000
0000
0000
0000
0000
0000
0000
0000
0000
1000
0000
0000
0000
0000
0000
0000
0000
0000
0001
0000
0000
0000
0000
0000
0000
0000
0000
0000
1000
0000
0000
0000
0000
0000
0000
0000
0000
0010
0000
0000
0000
0000
0000
0000
0000
0000
0000
0100
0000
0000
0000
0000
0000
0000
0000
0000
0000
0001
0000
0000
0000
0000
0000
0000
0000
0000
1000
0000
0000
0000
0000
0000
0000
0000
0000
0000
0010
0000
0000
0000
0000
0000
0000
0000
0000
0100
0000
0000
0000
0000
0000
0000
0000
0000
0000
,
0001
0000
0000
0000
0000
0000
0000
0000
0000
0000
1000
0000
0000
0000
0000
0000
0000
0000
0000
0100
0000
0000
0000
0000
0000
0000
0000
0000
0000
0010
0000
0000
0000
0000
0000
0000
0000
0000
0001
0000
0000
0000
0000
0000
0000
0000
0000
0000
0100
0000
0000
0000
0000
0000
0000
0000
0000
0000
0001
0000
0000
0000
0000
0000
0000
0000
0000
1000
0000
0000
0000
0000
0000
0000
0000
0000
0000
0010
0000
0000
0000
0000
0000
0000
0000
0000
0100
0000
0000
0000
0000
0000
0000
0000
0000
0000
0001
0000
0000
0000
0000
0000
0000
0000
0000
0000
1000
0000
0000
0000
0000
0000
0000
0000
0000
0010
0000
0000
0000
0000
0000
0000
0000
0000
0000
1000
0000
0000
0000
0000
0000
0000
0000
0000
0001
0000
0000
0000
0000
0000
0000
0000
0000
0000
0100
0000
0000
0000
0000
0000
0000
0000
0000
0000
0001
0000
0000
0000
0000
0000
0000
0000
0000
1000
0000
0000
0000
0000
0000
0000
0000
0000
0000
0010
0000
0000
0000
0000
0000
0000
0000
0000
0100
0000
0000
0000
0000
0000
0000
0000
0000
0000
,
0001
1000
0010
0100
0001
1000
0001
0100
0010
1000
0001
0010
0001
0100
0010
1000
,
0100
0010
0001
0010
0100
1000
0010
1000
0001
0100
0010
1000
0100
0010
0001
0100
,
0010
1000
0100
0010
0001
1000
0001
0100
0010
1000
0010
0100
0001
0100
0010
1000
,
0100
1000
0001
0100
0010
1000
0001
0010
0001
0100
0010
1000
0100
0010
0001
0010
,
0100
1000
0010
1000
0001
0100
0010
1000
0100
0010
0001
0100
0010
1000
0100
0010
,
0001
1000
0001
0100
0010
1000
0010
0100
0001
0100
0010
1000
0100
1000
0001
0100
,
0010
1000
0001
0010
0001
0100
0010
1000
0100
0010
0001
0010
0100
1000
0010
1000
,
0001
0100
0010
1000
0100
0010
0001
0100
0010
1000
0100
0010
0001
1000
0001
0100
,
0010
1000
0010
0100
0001
0100
0010
1000
0100
1000
0001
0100
0010
1000
0010
0100
,
0001
0100
0010
1000
0100
1000
0001
0100
0010
1000
0001
0010
0001
0100
0010
1000
,
0100
0010
0001
0010
0100
1000
0010
1000
0001
0100
0010
1000
0100
0010
0001
0100
,
0010
1000
0100
0010
0001
1000
0001
0100
0010
1000
0001
0100
0001
1000
0100
0010
,
0001
0000
0000
0000
;

//---------------dance-single - 20+ (owenviau1)----------------
#NOTES:
     dance-single:
     20+ (owenviau1):
     Challenge:
     20:
     1.000,1.000,0.000,0.064,1.000,837.000,0.000,4.000,0.000,0.000:
1000
0100
0010
0001
1000
0001
0100
0010
0100
0001
0010
0001
1000
0100
0010
0001
,
1000
0010
1000
0001
0100
0010
1000
0001
0010
0001
0100
0010
1000
0100
0010
0001
,
0100
0001
1000
0010
0100
0010
1000
0001
1000
0100
0010
0001
1000
0001
0010
0100
,
1000
0010
0100
0001
0100
0010
1000
0100
1000
0001
0100
0010
1000
0001
0010
0001
,
0100
0010
1000
0100
0010
0001
0010
0100
1000
0010
1000
0001
0100
0010
1000
0100
,
0010
0001
0100
0010
1000
0100
0010
0001
1000
0001
0100
0010
1000
0001
0010
0001
,
1000
0100
0010
0001
1000
0010
1000
0001
0100
0010
1000
0001
0010
0001
0100
0010
,
1000
0100
0010
0001
1000
0001
0100
0010
1000
0010
0100
0001
1000
0100
0010
0001
,
1000
0001
0010
0100
1000
0010
0100
0001
0100
0010
1000
0100
1000
0001
0100
0010
,
1000
0001
0010
0001
0100
0010
1000
0100
0010
0001
0010
0100
1000
0010
1000
0001
,
0100
0010
1000
0100
0010
0001
0100
0010
1000
0100
0010
0001
1000
0001
0100
0010
,
1000
0001
0010
0001
1000
0100
0010
0001
1000
0010
1000
0001
0100
0010
1000
0001
,
0010
0001
0100
0010
1000
0100
0010
0001
1000
0001
0100
0010
1000
0010
0100
0001
,
1000
0100
0010
0001
1000
0001
0010
0100
1000
0010
0100
0001
0100
0010
1000
0100
,
1000
0001
0100
0010
1000
0001
0010
0001
0100
0010
1000
0100
0010
0001
0010
0100
,
1000
0010
1000
0001
0100
0010
1000
0100
0010
0001
0100
0010
1000
0100
0010
0001
,
1000
0001
0100
0010
1000
0001
0010
0001
1000
0100
0010
0001
1000
0010
1000
0001
,
0100
0010
1000
0001
0010
0001
0100
0010
1000
0100
0010
0001
1000
0001
0100
0010
,
1000
0010
0100
0001
1000
0100
0010
0001
1000
0001
0010
0100
1000
0010
0100
0001
,
0100
0010
1000
0100
1000
0001
0100
0010
1000
0001
0010
0001
0100
0010
1000
0100
,
0010
0001
0010
0100
1000
0010
1000
0001
0100
0010
1000
0100
0010
0001
0100
0010
,
1000
0100
0010
0001
1000
0001
0100
0010
1000
0001
0010
0001
1000
0100
0010
0001
,
1000
0010
1000
0001
0100
0010
1000
0001
0010
0001
0100
0010
1000
0100
0010
0001
,
1000
0001
0100
0010
1000
0010
0100
0001
1000
0100
0010
0001
1000
0001
0010
0100
,
1000
0010
0100
0001
0100
0010
1000
0100
1000
0001
0100
0010
1000
0001
0010
0001
,
0100
0010
1000
0100
0010
0001
0010
0100
1000
0010
1000
0001
0100
0010
1000
0100
,
0010
0001
0100
0010
1000
0001
0010
0001
0100
0010
1000
0100
0010
0001
0010
0100
,
1000
0010
1000
0001
0100
0010
1000
0100
0010
0001
0100
0010
1000
0001
0100
0001
,
1000
0010
0100
0001
1000
0100
0010
0001
0100
0010
1000
0001
1000
0000
0000
0000
,
0000
1000
0002
2003
0000
3000
0000
0000
,
0000
0000
0000
0000
0000
0000
0000
0000
2000
0000
0000
3000
0002
0000
0000
0003
,
1000
0010
0100
0001
0100
0010
1000
0100
0010
0001
1000
0100
1000
0010
0100
0001
,
1000
0001
0100
0010
1000
0001
0010
0001
0100
0010
1000
0100
0010
0001
1000
0001
,
0100
0010
1000
0001
0010
0001
0100
0010
1000
0100
0010
0001
1000
0001
0100
0010
,
1000
0000
0000
0010
0000
0000
0100
0000
0000
0001
0000
0000
1000
0000
0100
0000
0010
0000
0001
0000
0100
0000
0010
0000
1000
0000
0000
0100
0000
0000
0010
0000
0000
0001
0000
0000
0100
0000
0000
0001
0000
0000
1000
0000
0000
0100
0000
0000
,
0010
0000
0001
0000
0100
0000
0010
0000
1000
0000
0001
0000
0100
0000
0000
0010
0000
0000
1000
0000
0000
0001
0000
0000
0100
0000
0010
0000
1000
0000
0010
0000
0100
0000
0001
0000
0010
0000
0000
0100
0000
0000
1000
0000
0000
0010
0000
0000
,
0100
0000
0001
0000
1000
0000
0100
0000
0010
0000
0001
0000
0100
0000
0010
0000
1000
0000
0001
0000
0010
0000
0100
0000
1000
0000
0100
0000
0010
0000
0001
0000
1000
0000
0010
0000
0100
0000
0000
0001
0000
0000
1000
0000
0000
0010
0000
0000
,
0100
0000
0000
0001
0000
0000
0100
0000
0000
0010
0000
0000
1000
0000
0100
0000
0010
0000
0001
0000
0100
0000
0010
0000
1000
0000
0001
0000
0100
0000
0001
0000
1000
0000
0100
0000
0010
0000
0001
0000
0100
0000
0010
0000
1000
0000
0100
0000
,
0010
0001
0100
0010
0100
0001
1000
0010
0100
0010
1000
0100
0010
0001
0100
0010
1000
0001
0010
0001
1000
0100
0010
0001
,
0100
0010
1000
0001
0010
0100
1000
0001
1000
0100
0010
0001
0100
0010
1000
0010
0100
0001
1000
0100
0010
0001
0100
0010
,
1000
0010
0100
0001
1000
0001
0100
0010
1000
0001
0010
0001
0100
0010
1000
0100
,
0010
0001
0010
0100
1000
0010
1000
0001
0100
0010
1000
0100
0010
0001
0100
0010
,
1000
0100
0010
0001
1000
0001
0100
0010
1000
0010
0100
0001
0100
0010
1000
0100
,
1000
0001
0100
0010
1000
0001
0010
0001
0100
0010
1000
0100
0010
0001
0010
0100
,
1000
0010
1000
0001
0100
0010
1000
0100
0010
0001
0100
0010
1000
0100
0010
0001
,
1000
0001
0100
0010
1000
0010
0100
0001
0100
0010
1000
0100
1000
0001
0100
0010
,
1000
0001
0010
0001
0100
0010
1000
0100
0010
0001
0010
0100
1000
0010
1000
0001
,
0100
0010
1000
0100
0010
0001
0100
0010
1000
0100
0010
0001
1000
0001
0100
0010
,
1000
0010
0100
0001
0100
0010
1000
0100
1000
0001
0100
0010
1000
0010
0100
0001
,
0100
0010
1000
0100
1000
0001
0100
0010
1000
0001
0010
0001
0100
0010
1000
0100
,
0010
0001
0010
0100
1000
0010
1000
0001
0100
0010
1000
0100
0010
0001
0100
0010
,
1000
0100
0010
0001
1000
0001
0100
0010
1000
0001
0100
0001
1000
0100
0010
0001
,
0100
0000
0000
0000
;
