#TITLE:Kaechi!!;
#SUBTITLE:;
#ARTIST:Yoshi J!;
#TITLETRANSLIT:;
#SUBTITLETRANSLIT:;
#ARTISTTRANSLIT:;
#CREDIT:;
#BANNER:Kaechi!! ban.png;
#BACKGROUND:Kaechi bg.png;
#LYRICSPATH:;
#CDTITLE:KOMBO.png;
#MUSIC:Kaechi! Teochi! Yoshi!.mp3;
#OFFSET:-0.807;
#SAMPLESTART:118.451;
#SAMPLELENGTH:12.000;
#SELECTABLE:YES;
#BPMS:0.000=180.002,376.000=90.003,380.000=180.005;
#STOPS:;
#BGCHANGES:;
// cache tags:
#FIRSTBEAT:0.000;
#LASTBEAT:616.000;
#SONGFILENAME:Songs/Definitive Keyboard Megapack/Kaechi - Yoshi J [KOMBO]/Kaechi.sm;
#HASMUSIC:1;
#HASBANNER:1;
#MUSICLENGTH:208.222;
// end cache tags

//---------------dance-single - En blanco----------------
#NOTES:
     dance-single:
     En blanco:
     Hard:
     13:
     1.000,1.000,1.000,1.000,0.893,1341.000,365.000,212.000,0.000,85.000:

2222
3333
0000
0000
0000
0000
0000
0000
0011
0000
0000
0000
0000
0000
0000
0000
0011
0000
0000
0000
0000
0000
0000
0000
0011
0000
0000
0000
0000
0000
0000
0000
,
1010
0000
0000
0000
0000
0000
0000
0000
1010
0000
0000
0000
0000
0000
0000
0000
1010
0000
0000
0000
0000
0000
0000
0000
0220
0330
0000
0000
0000
0000
0000
0000
,
0101
0000
0101
0000
0101
0000
1010
0101
,
1010
0000
0000
0000
0000
0000
0000
0000
1010
0000
0000
0000
0000
0000
0000
0000
0110
0000
0000
0000
0000
0000
0000
0000
2002
3003
0000
0000
1000
0000
0001
0000
,
1100
0100
0011
0010
1100
0100
0110
0010
,
0011
0100
1100
0110
0110
0000
2200
3300
,
0011
0000
0100
0000
0101
0000
0001
0000
0011
0000
0100
0000
1010
0000
0001
1000
,
0220
0330
2002
3003
,
1100
0000
0100
0000
0101
0000
0100
0010
0100
0001
1000
0000
1010
0000
0010
0000
,
0011
0000
0010
0000
1010
0000
0100
0010
1000
0100
0010
0000
1001
0000
0000
0001
,
1100
0000
0100
0000
0101
0000
0100
0010
0100
0001
1000
0000
1010
0000
0010
0000
,
0011
0000
0010
0000
1010
0000
0100
0010
1000
0100
0010
0000
0101
0000
0011
0000
,
0011
0000
0010
0000
1010
0000
0010
0100
0010
1000
0001
0000
0101
0000
0100
0000
,
1100
0000
0100
0000
0101
0000
0010
0100
0001
0010
0100
0000
1100
0000
0100
0000
,
0110
0000
0100
0000
0101
0000
0100
0010
0100
0001
1000
0000
0011
0000
1100
0000
,
1100
0000
0001
0000
1010
0000
0100
0010
1000
0100
0010
0001
1000
0100
0010
0001
,
1100
0000
0100
0000
0111
1000
0100
0010
1100
0010
0100
0000
1110
0000
0010
0000
,
0110
0000
0100
0000
1101
0000
0010
1000
0101
0010
0100
0000
1110
0000
0010
0001
,
0110
0000
0100
0000
1110
0000
0100
1000
0011
0100
0010
0100
1011
0000
0010
0000
,
1010
0000
1000
0000
1011
0000
0100
0001
1010
0100
1000
0000
0111
0000
0110
0000
,
1100
0000
0100
0000
0111
0000
1000
0010
0101
0010
0100
0000
1011
0000
0010
0000
,
0110
0000
0100
0000
1101
0000
0100
0010
0101
1000
0001
0000
1110
0000
0010
0100
,
1010
0000
1000
0000
1101
0000
0100
0010
0101
0010
1000
0000
0111
0000
0011
0000
,
0002
0000
2003
0000
,
3001
2200
3310
0022
1033
0220
0331
2200
,
3310
0202
1303
2020
3130
2002
3013
2020
,
3031
0202
0313
2020
3130
0220
0331
2002
,
3103
0202
0313
0022
1033
0220
0331
0202
,
1303
2020
3130
2200
3310
0220
1330
2200
,
3301
0022
1033
2200
3310
0022
0133
2002
,
3013
0220
1330
2020
3031
0202
1303
2020
,
3031
0000
2200
0000
3310
0000
0022
0000
0133
0000
2200
0000
3310
0001
0010
0100
,
1010
0100
0010
0001
0100
0010
0100
1000
0001
1000
0010
0001
0010
0100
1000
0100
,
0010
0100
0010
0001
1000
0001
0100
0001
0100
1000
0010
1000
0100
0010
0100
0001
,
1000
0001
0010
0100
0010
1000
0100
1000
0001
0010
0001
1000
0100
1000
0100
0001
,
0100
0010
1000
0100
0010
0001
0010
0100
1000
0010
0001
0010
1000
0100
1000
0100
,
0010
0100
0010
0001
0100
0010
0100
1000
0001
1000
0010
0001
0010
0100
1000
0100
,
0010
0100
0010
0001
1000
0001
0100
0001
0100
1000
0010
1000
0100
0010
0100
0001
,
1000
0001
0010
0100
0010
1000
0100
1000
0001
0010
0001
1000
0100
1000
0100
0001
,
0100
0010
1000
0100
0010
0001
0010
0100
1000
0010
0001
0010
1000
0100
1000
0100
,
1010
0100
0010
1000
0010
0100
0010
0001
1000
0001
0100
1000
0100
0010
0001
0010
,
0100
0010
0100
1000
0001
1000
0010
1000
0010
0001
0100
0001
0010
0100
0010
1000
,
0001
1000
0100
0010
0100
0001
0010
0001
1000
0100
1000
0001
0010
0001
0010
1000
,
0010
0100
0001
0010
0100
1000
0100
0010
0001
0100
1000
0100
0001
0010
0001
0010
,
1100
0001
0100
0010
0001
0100
0001
1000
0010
1000
0100
0010
0100
0001
1000
0001
,
0100
0001
0100
0010
1000
0010
0001
0010
0001
1000
0100
1000
0001
0100
0001
0010
,
1001
0010
0100
0001
0100
1000
0001
1000
0010
0100
0010
1000
0001
1000
0001
0010
,
1001
0100
1000
0001
0100
0010
0100
0001
1000
0100
0010
0100
1000
0001
1000
0001
,
0220
0000
0000
0000
0000
0000
0000
0330
,
0022
0000
0000
0000
0000
0000
0000
0033
,
2200
0000
0000
0000
0000
0000
0000
3300
,
0220
0000
0000
0000
0000
0000
0000
0000
0000
0000
0000
0000
0000
0000
0000
0330
,
2002
0000
0000
0000
0000
0000
0000
3003
,
0220
0000
0000
0000
0000
0000
0000
0330
,
2200
0000
0000
0000
0000
0000
0000
3300
,
0222
0000
0300
0000
1000
0000
0000
1033
,
1100
0000
0000
0000
0010
0100
0010
1000
,
0000
0010
0000
0100
1000
0100
0001
0100
,
0000
0000
0001
0000
0010
0100
0000
0100
,
0000
0010
0000
0000
0000
0000
0000
0000
,
0000
0000
0000
0010
0010
0100
1000
0010
,
0000
0010
0000
1000
0010
0001
0010
1000
,
0000
0100
0000
0000
0000
0000
0000
0000
,
0000
0000
0000
0000
0000
0000
0000
0000
0220
0330
2200
3300
0202
0303
0000
0000
,
1001
0000
0000
0000
0100
0010
0100
0001
,
0000
0100
0000
0010
0001
0010
1000
0010
,
0000
0000
1000
0000
0100
0010
0000
0010
,
0000
0000
0100
0000
0000
0000
0000
0000
0000
0000
0000
0000
0000
0000
2200
3300
,
0022
0033
0000
0000
0000
0000
0010
0000
0010
0000
0100
0000
1000
0000
0010
0000
,
0000
0010
0000
1000
0010
0001
0010
1000
,
0000
0100
0110
0000
0110
0000
0110
0000
,
0110
0000
0000
0000
0010
0100
0010
0100
0010
0100
0010
0100
0010
0100
0010
0100
,
0011
0000
1100
0000
1000
0001
0110
1000
,
0000
1000
0110
0001
0010
0100
1010
0100
,
0000
0000
1010
0000
0100
0010
1001
0100
,
0000
0010
1100
0000
0000
0000
0011
0110
,
1100
0000
0000
1000
1010
0100
0010
0100
,
1010
0010
0000
1000
0101
0010
0100
0001
,
0110
0100
1001
0000
0110
0000
1001
0000
,
0110
0000
0000
1000
0000
0000
0100
0000
0000
0010
0000
0000
0001
0000
0000
1000
0000
0000
0100
0000
0000
0010
0000
0000
0001
0000
1000
0000
0100
0000
0010
0000
0001
0000
1000
0000
0100
0000
0010
0000
0001
0000
1000
0000
0100
0000
0010
0000
,
0001
0000
1010
0000
0011
0100
0110
1000
,
0101
0010
0101
0100
1001
0100
0011
0100
,
1010
0000
0101
0000
1010
0100
0011
0100
,
1100
0010
0101
0000
0110
0000
0011
0110
,
1010
0000
1010
0010
0011
0100
1001
0010
,
1100
0010
0110
1000
0110
0001
1001
1000
,
1010
0100
0101
0000
0110
0000
1100
0000
,
0110
0000
0000
0000
0011
0000
0000
0000
0220
0330
2020
3030
0202
0303
0000
0000
,
1001
0000
0000
0000
1100
0010
0110
0001
,
1010
0100
0011
0010
1001
0010
1100
0010
,
0101
0000
1100
0000
0101
0010
1010
0010
,
1001
0100
0110
0000
1100
0000
0101
1100
,
0011
0000
1100
0010
0110
0100
1001
0010
,
0101
0010
1100
1000
1010
0001
0110
1000
,
1100
0000
0000
0010
0100
0000
0000
0010
0001
0000
0000
0100
1000
0000
0000
0010
0001
0000
0000
1000
0100
0000
0000
0100
0001
0000
0000
0000
0100
0000
0000
0000
,
0020
0000
0000
0000
0000
2030
0020
3230
,
0000
0320
0000
0000
0000
0000
2030
0000
,
3200
0000
0000
0320
,
0032
0000
0000
0000
0023
0230
0302
0000
,
0203
0000
0000
0000
,
0300
2000
3200
0320
0032
0023
0230
0320
,
0000
0032
0000
0000
0000
0000
0000
0000
,
2003
3200
0300
0000
0101
0000
0000
0000
0202
0303
0220
0330
2200
3300
0000
0000
,
0011
0110
1100
0110
,
1100
0011
1010
0101
,
1110
0011
1101
0101
,
1011
0000
0000
0000
0000
0000
1110
0000
0000
0000
0000
0000
0111
1000
0100
1000
0000
0000
1101
0010
0100
0010
0000
0000
,
2000
0000
0000
0000
3200
0000
0000
0002
,
0323
0032
0203
0000
,
0311
0000
0020
0030
0110
0000
0200
0300
1100
0000
0200
0300
0110
0000
0020
0030
,
0011
0000
0020
0030
1010
0100
0001
0100
0001
0100
0001
0100
0001
0100
0001
0100
,
1010
0022
0133
2200
3301
0220
1330
0022
,
0133
2020
3031
0202
0313
2002
3113
0000
,
0100
2020
3130
0202
0313
0220
1330
2002
,
3013
0000
0000
2020
0000
0000
3130
0000
0000
2200
0000
0000
3301
0000
0000
0220
0000
0000
2332
0000
3003
0100
0000
0010
,
0001
0202
0313
0022
0133
0220
0331
0022
,
1033
2200
3311
0022
1133
2200
3310
0000
,
0010
0220
0331
0202
1303
2020
3031
0202
,
1303
0100
1000
0001
0010
0001
1000
0100
1000
0001
0010
0001
0200
0000
0300
0000
,
0101
0010
1100
0001
0110
0001
1010
0100
,
0101
0010
1010
0100
0110
0100
1001
0100
,
0011
1000
0110
1000
1001
0100
0101
0010
,
1001
0100
1010
0100
0101
0001
1100
0110
,
0011
0100
0011
1000
0110
1000
0101
0010
,
1010
0100
0101
0010
0110
0010
1001
0010
,
1100
0001
0110
0001
1001
0010
1010
0100
,
1001
0000
0010
0000
0101
0000
0010
0000
2020
3030
0200
0300
2200
3300
0010
0000
,
0011
0100
0010
0000
1000
0100
1000
0000
0010
0100
0010
0000
0001
0010
0001
0000
,
1000
0100
1000
0000
1000
0001
1000
0000
0010
0100
0010
0000
0001
1000
0001
0000
,
0100
1000
0100
0000
0010
0100
0010
0000
1000
0001
1000
0000
0010
0100
0010
0000
,
0001
1000
0001
0000
1000
0001
1000
0000
0001
0100
0001
0000
1001
0000
1001
0000
,
1001
0100
0010
0000
0001
0010
0001
0000
0100
0010
0100
0000
1000
0100
1000
0000
,
0001
0010
0001
0000
0001
1000
0001
0000
0100
0010
0100
0000
1000
0001
1000
0000
,
0010
0001
0010
0000
0100
0010
0100
0000
0001
1000
0001
0000
0100
0010
0100
0000
,
1000
0001
1000
0000
0001
1000
0001
0000
1000
0010
1000
0000
0100
0001
0100
0010
,
0101
0010
0100
1000
0011
0100
0010
0001
1100
0001
0100
1000
0101
0010
0001
0010
,
1100
0010
0100
1000
0011
1000
0010
1000
0110
0001
0100
0001
1010
0100
0010
1000
,
0101
1000
0100
0010
1100
0001
0010
0001
1010
0100
1000
0001
0110
0001
0010
1000
,
0011
0100
0001
0010
0101
1000
0100
0010
1001
0100
1000
0100
1001
0010
0001
0010
,
0101
0010
0100
1000
0011
0100
0010
0001
1100
0001
0100
1000
0101
0010
0001
0010
,
1100
0010
0100
1000
0101
1000
0010
1000
0110
0001
0100
0001
1010
0100
0010
1000
,
0011
1000
0100
0010
1100
0001
0010
0001
1010
0100
1000
0001
0110
0001
0010
1000
,
0011
0100
0001
0010
0101
1000
0100
0010
1001
0100
1000
0100
1001
0010
0001
0010
,
1101
0010
0100
0001
1100
0010
0100
1000
0101
1000
0010
0001
1010
0100
1000
0100
,
0011
0100
0010
0001
1010
0001
0100
0001
0110
1000
0010
1000
0101
0010
0100
0001
,
1100
0001
0010
0100
0011
1000
0100
1000
0101
0010
0001
1000
0110
1000
0100
0001
,
1100
0010
1000
0100
1010
0001
0010
0100
1001
0010
0001
0010
0101
1000
0100
1000
,
0111
1000
0010
0100
1000
0010
1000
0001
0100
0001
0010
0100
0010
1000
0001
1000
,
0010
1000
0010
0100
0001
0100
1000
0100
1000
0001
0010
0001
1000
0010
1000
0100
,
0010
0100
0010
1000
0010
0001
1000
0001
0100
0010
0100
0001
1000
0001
1000
0100
,
1001
0010
0001
1000
0011
0100
0010
1000
0101
0010
0100
0010
0101
1000
0001
1000
,
0200
0000
0000
0000
,
0320
0000
0000
0000
,
0230
0000
0000
0000
,
0300
0000
0000
0000
;
