#TITLE:Levas Polka;
#SUBTITLE:Basshunter RMX;
#ARTIST:Loituma;
#TITLETRANSLIT:;
#SUBTITLETRANSLIT:;
#ARTISTTRANSLIT:;
#CREDIT:;
#BANNER:Bn-Polka.png;
#BACKGROUND:Bg-Polka.png;
#LYRICSPATH:;
#CDTITLE:;
#MUSIC:loituma - levas polka (basshunter rmx).ogg;
#OFFSET:0.052;
#SAMPLESTART:32.879;
#SAMPLELENGTH:12.000;
#SELECTABLE:YES;
#DISPLAYBPM:140.000;
#BPMS:0.000=140.000,284.875=70.000,288.500=280.000,291.750=140.000;
#STOPS:;
#BGCHANGES:;
// cache tags:
#FIRSTBEAT:7.750;
#LASTBEAT:364.500;
#SONGFILENAME:Songs/in the groove2/Levas polka/levas.sm;
#HASMUSIC:1;
#HASBANNER:0;
#MUSICLENGTH:105.000;
// end cache tags

//---------------dance-single - Rynker----------------
#NOTES:
     dance-single:
     Rynker:
     Challenge:
     11:
     1.000,1.000,0.371,0.124,1.000,944.000,39.000,13.000,0.000,5.000:

0000
0000
0000
0000
,
0000
0000
0000
0000
0000
0000
0000
0000
0000
0000
0000
0000
0000
0000
0000
0100
,
1000
0100
1000
0001
0100
0000
0001
1000
0100
0000
0010
0000
0011
0000
0100
0001
,
1000
0000
0100
0000
0100
0000
0010
0001
1000
0000
0001
0100
0001
0000
1000
0100
,
1000
0000
0100
0000
0001
0000
0100
1000
0010
1000
0001
0010
0100
0000
1000
0000
,
0010
0000
0100
0000
0101
0000
0001
0010
0100
0000
0010
0000
0001
0000
0100
0010
,
0100
0000
1000
0100
0000
0001
0010
0100
0010
0001
0100
0001
1000
0000
0010
0000
,
0001
0000
0010
1000
0000
0000
0000
0100
0001
0000
0100
0000
0010
0000
0001
0000
,
0100
0000
1000
0100
0000
0001
0010
0100
1000
0010
0100
0001
1000
0000
0010
0000
,
0001
0000
0010
0100
0000
0000
0001
0000
0010
1000
0010
0000
0001
0000
1000
0000
,
0001
0100
0010
1000
0010
0000
0100
1000
0100
0000
0010
0000
1000
0000
0010
0100
,
0001
0000
1000
0000
0010
0000
0000
0100
0001
0000
0010
0000
0100
0000
0001
0100
,
0001
0000
0100
1000
0000
0100
1000
0010
0100
0001
0010
0100
0010
0000
1000
0000
,
0010
0000
0001
0000
0100
0000
1000
0100
0010
0000
1000
0000
0100
0000
0010
0001
,
0100
0000
0100
0001
0000
0010
0100
1000
0100
0010
0100
0001
0100
0000
1000
0000
,
1000
0000
0001
0100
0000
0000
0010
0000
1000
0100
0010
0000
0011
0000
0001
0000
,
0110
0000
0100
0001
0000
0010
0100
0010
1000
0010
0100
1000
0001
0000
0100
0000
,
0101
0000
0010
0002
0000
0000
0000
0000
0103
0010
1000
0100
1000
0000
0100
0000
,
0001
0000
0100
0010
0001
0000
0100
0000
1000
0000
0100
0000
0001
0000
0010
0000
,
2000
0000
0000
0000
0000
0000
3010
0001
1000
0100
0010
0001
1000
0000
0001
0100
,
0010
0000
1000
0001
0000
0001
0100
0010
1000
0100
1000
0000
0010
0000
0100
0001
,
0010
0000
0100
1000
0000
0100
0010
0001
0100
0010
1000
0001
0100
0000
0010
1000
,
0001
0000
0010
0100
0000
1000
0010
0100
0001
0000
0010
0000
0110
0000
0100
0000
,
1100
0000
1000
0010
0000
0100
0001
0010
0100
0010
1000
0010
0100
0000
1000
0000
,
0001
0000
0100
0010
0000
0001
0010
0100
0010
1000
0100
1000
0100
0000
1000
0000
,
0001
0000
0010
1000
0000
1000
0010
0001
0010
0000
0001
0000
0100
0000
1000
0000
,
0100
1000
0100
0010
0000
1000
0100
0010
0001
0010
0100
1000
0001
0000
0100
0000
,
1010
0000
0100
0001
0000
0010
0100
0010
0001
0100
0010
0100
1000
0000
0100
0001
,
0010
0000
0010
0001
0000
0100
0010
1000
0100
1000
0001
0010
0001
0000
0010
0100
,
1000
0000
0001
0100
0000
0010
1000
0100
1000
0010
0100
0001
0010
0000
0100
1000
,
0010
0000
0100
0001
0000
0010
0100
1000
0001
0000
0100
0000
1000
0000
0100
0000
,
0011
0000
0001
0010
0000
0100
1000
0100
0010
0001
0100
0010
0100
0000
1000
0000
,
0100
0000
0001
0010
0000
1000
0010
0001
0010
0001
0100
0010
1000
0000
0100
0000
,
0010
0000
0001
0100
0000
0100
0010
1000
0100
0000
0100
0000
0011
0000
0001
0000
,
0100
0010
1000
0010
0000
0100
0001
0010
0100
0010
0001
0100
0010
0000
0001
0000
,
0010
0000
0010
1000
0000
0100
0010
0001
0010
0000
0000
0000
0011
0000
0000
0000
,
1100
0000
0110
0000
0011
0100
0100
0000
,
1010
0000
0100
0000
0100
0000
1000
0000
0101
0000
0100
0001
0000
0000
0100
0010
,
0000
0000
1000
0001
0000
0000
0010
0200
0000
0300
1000
0001
0000
0000
0001
0010
,
0000
0000
0010
0100
0000
0000
0100
2000
0000
3000
1000
0001
0000
0000
1000
0100
,
0000
0000
0010
0001
0000
0000
0001
0200
0000
0300
0001
0010
0000
0000
0010
0100
,
0000
0000
0100
1000
0100
0010
0001
0000
0010
0000
0100
1000
0001
0000
0010
0001
,
1000
0000
0001
0100
0010
0000
0100
0020
1000
0030
0010
1000
0100
0000
0010
0001
,
1000
0000
0100
1000
0001
0000
0010
0002
1000
0003
0010
0100
0001
0000
0010
0100
,
1000
0000
0001
0100
0010
0000
1000
0001
0010
0000
0100
0010
0001
0000
0100
0001
,
0010
0000
0001
1000
0100
0000
0010
0001
0100
0000
0010
1000
0100
0000
0010
0000
,
0000
0001
0000
1100
0000
0011
0000
0101
,
0000
0000
0101
0000
0100
0000
0000
0010
0000
0000
1010
0000
1000
0000
0000
0100
,
0010
0100
0001
0100
0010
0000
0001
1000
0001
0000
0100
0000
0001
0000
0010
0100
,
1000
0000
0100
0000
0010
0000
0001
1000
0010
0000
0100
0000
0010
0000
1000
0100
,
0010
0000
0001
0000
0001
0000
0010
0001
0100
0001
0010
0001
0100
0000
0010
0000
,
0010
0000
1000
0000
1000
0000
0100
0010
0100
0000
0001
0000
0100
0000
1000
0010
,
1000
0000
0010
0001
0000
0010
1000
0010
0100
0001
0100
0001
0100
0001
0010
0001
,
1000
0000
0001
0200
0000
0000
0000
0301
0010
0000
0100
0000
0010
0000
1000
0000
,
0010
0000
0001
1000
0000
0001
0100
0010
0100
0001
0010
0100
0010
0000
0001
0000
,
1000
0000
0001
0100
0000
0000
0000
0000
0011
0000
0001
0010
0100
0000
1000
0001
,
0100
0010
0100
0010
0001
0000
0010
1000
0100
0000
0100
0000
0100
0000
0010
0001
,
0010
0000
0011
0000
0110
0000
0000
1000
0001
0000
0100
0000
1000
0000
0100
0001
,
0010
0000
0100
0000
0100
0000
1000
0001
0100
0010
0100
1000
0100
0010
1000
0001
,
0010
0000
0011
0000
0110
0000
0100
1000
0100
0000
0010
0000
0001
0000
0100
0000
,
1000
0000
0100
0001
0000
0001
0010
1000
0010
1000
0010
0100
0010
0001
1000
0010
,
0100
0000
0001
0020
0000
0000
0000
1030
0010
0000
0010
0000
0001
0000
0001
0000
,
0100
0000
1000
0100
1000
0000
0100
0001
0010
1000
0010
1000
0010
0100
0010
0001
,
1000
0000
0010
0002
0000
0000
0000
0013
1000
0000
0100
0000
0100
0000
0001
0100
,
0001
0100
1000
0000
1000
0000
0010
0100
0010
0000
0001
0000
0010
0000
1000
0100
,
1000
0000
0100
0000
0001
0000
0100
0010
0100
0000
0001
0000
0100
0000
1000
0100
,
0010
0000
0010
0000
0101
0000
0001
0010
0100
1000
0001
0100
1000
0100
0010
0100
,
0001
0000
0010
0000
0110
0000
0100
1000
0010
0000
0001
0000
0010
0000
1000
0000
,
0100
0000
0001
0100
0000
1000
0001
0100
0010
1000
0010
0100
0001
0000
0010
0000
,
0001
0000
1000
0100
0000
0000
0000
0010
0100
0000
0100
0000
1000
0000
0001
0000
,
0100
0000
1000
0100
0000
0001
0010
1000
0010
0001
0010
0001
0100
0000
0010
0000
,
0100
0000
0000
0000
0000
0000
0000
0000
0002
0000
0000
0000
2000
0000
0000
0000
0000
0000
0000
0000
0000
0000
0000
0010
0000
0000
0000
0000
0000
0000
0000
0010
0000
0000
0000
0000
0000
0000
0000
0010
0000
0000
0000
0010
0000
0000
0000
0000
3003
0000
0000
0000
0000
0000
0000
0000
1111
0000
0000
0000
0000
0000
0000
0000
,
0000
1000
0000
0000
0000
0000
0000
0000
,
0001
0100
0010
1000
0001
0000
0100
0001
0010
0000
1000
0010
0000
0001
0100
1000
,
0100
0010
1000
0001
0010
0000
0100
0010
0001
0000
0010
1000
0000
0010
0001
0100
,
0010
1000
0100
0010
0001
0000
0100
0001
0010
0000
0100
1000
0000
0010
0001
0010
,
0100
0000
0001
0000
0010
0000
0100
0000
1100
0000
0100
0010
0000
0001
0100
0010
,
0100
1000
0100
0010
0001
0000
0010
0000
1000
0000
0100
0010
0000
1000
0010
0100
,
0001
0100
0010
0001
0100
0000
0001
0000
0011
0000
0100
1000
0000
0010
1000
0100
,
1000
0000
0010
0000
0110
0000
0001
0000
0010
0100
1000
0010
0000
0100
0010
0100
,
0001
0010
1000
0010
0100
0000
1000
0000
0101
0000
0100
0010
1000
0000
0100
1000
,
0100
0010
0100
0001
0100
0000
1000
0010
0001
0000
0010
1000
0000
0100
0001
0100
,
0010
0100
1000
0001
0100
0000
0010
1000
0001
0000
0010
0100
0000
1000
0100
0010
,
0001
0100
0010
0001
0010
0000
1000
0100
0001
0000
0001
0100
0000
1000
0010
0100
,
0001
0000
0010
0000
0110
0000
0001
0000
0101
0000
0001
0010
0000
1000
0010
0001
,
0100
0001
0010
0100
0010
0000
0001
0000
0110
0000
1000
0100
0000
0010
0001
1000
,
0001
0100
1000
0100
0010
0000
1000
0000
0100
0000
0001
0100
0000
1000
0001
0100
,
0010
0000
0001
0000
0010
0000
1000
0000
0100
0010
0001
0010
0000
0100
1000
0010
,
0100
0001
0010
1000
0010
0000
0001
0000
0100
0000
0100
0001
0000
0010
0100
0010
,
0100
1000
0101
0100
0110
0001
1100
0010
,
0002
0000
0010
0100
,
0100
0003
0000
0000
0000
0000
0000
0000
;

//---------------dance-single - Rynker----------------
#NOTES:
     dance-single:
     Rynker:
     Hard:
     10:
     1.000,1.000,0.276,0.095,1.000,891.000,29.000,10.000,0.000,5.000:






0000
0000
0000
0000
,
0000
0000
0000
0000
0000
0000
0000
0000
0000
0000
0000
0000
0000
0000
0000
0001
,
0100
0010
1000
0100
1000
0000
0010
1000
0010
0000
0100
0000
0001
0000
0010
0001
,
0010
0000
0100
0000
1000
0000
0100
1000
0001
0000
0010
0000
0001
0000
0100
0001
,
0100
0000
0010
0000
1000
0000
0010
1000
0001
1000
0100
1000
0001
0000
0010
0000
,
0001
0000
1000
0000
1010
0000
0010
1000
0100
0000
0010
0000
0001
0000
0010
0001
,
0100
0000
0010
1000
0000
0010
1000
0100
1000
0001
0010
0001
1000
0000
0001
0000
,
0100
0000
0001
0010
0000
0000
0000
0100
1000
0000
0010
0000
0110
0000
0001
0000
,
0010
0000
0001
0100
0000
0010
1000
0100
0010
0001
0100
0001
1000
0000
0010
0000
,
1000
0000
0100
0010
0000
0000
0001
0000
0100
0001
1000
0000
0010
0000
1000
0000
,
0100
0010
0001
0010
0100
0000
1000
0001
0100
0000
0010
0000
1000
0000
0010
1000
,
0001
0000
0010
0000
0100
0000
0000
0010
0001
0000
0100
0000
0010
0000
1000
0001
,
0100
0000
0001
0010
0000
0100
1000
0010
1000
0001
0010
0001
1000
0000
0001
0000
,
0100
0000
0010
0000
1000
0000
0100
1000
0001
0000
0010
0000
0100
0000
0010
0001
,
0100
0000
0010
1000
0000
0100
0010
0001
0100
0010
1000
0001
0100
0000
0001
0000
,
0010
0000
0100
1000
0000
0000
0011
0000
0100
0001
0100
0000
0010
0000
1000
0000
,
0010
0000
0100
0001
0000
0010
0100
1000
0010
0100
0001
1000
0001
0000
1000
0000
,
0100
0000
0010
0002
0000
0000
0000
0003
0100
0001
1000
0010
0100
0000
0001
0000
,
0010
0000
0100
1000
0100
0000
0010
0000
0001
0000
0100
0000
0001
0000
0100
0000
,
0210
0000
0000
0000
0000
0000
0301
0010
0100
1000
0010
0100
0001
0000
0010
0100
,
0010
0000
0001
0100
0000
0010
1000
0010
0100
0001
1000
0000
0001
0000
0010
0100
,
1000
0000
0010
0100
0000
0001
0010
0100
1000
0010
0100
0001
1000
0000
0001
0010
,
0001
0000
0010
0100
0000
1000
0010
1000
0100
0000
0010
0000
0001
0000
0100
0000
,
0010
0000
1000
0100
0000
0010
0001
0100
0010
1000
0010
1000
0100
0000
0010
0000
,
0001
0000
0100
0001
0000
0010
0100
1000
0010
1000
0001
0010
0001
0000
0100
0000
,
0010
0000
1000
0100
0000
0010
0001
0010
0001
0000
0100
0000
0010
0000
1000
0000
,
0010
1000
0100
1000
0000
0001
0010
0001
0010
0100
1000
0001
1000
0000
0001
0000
,
0100
0000
0001
0010
0000
0100
1000
0100
0010
0001
0010
0001
0010
0000
0100
1000
,
0100
0000
1000
0001
0000
0100
0001
0100
0010
1000
0010
1000
0010
0000
0100
0001
,
0010
0000
0010
0100
0000
1000
0010
0100
0001
0010
0001
0010
0001
0000
0100
0001
,
0100
0000
0010
1000
0000
0010
0100
0010
1000
0000
0100
0000
0010
0000
0001
0000
,
0010
0000
0100
1000
0000
0010
0100
0001
0100
0010
0100
0001
1000
0000
0100
0000
,
0010
0000
0001
0100
0000
0010
1000
0010
0100
0001
0100
0010
0100
0000
0001
0000
,
0010
0000
0100
1000
0000
1000
0100
1000
0100
0000
0010
0000
0001
0000
0100
0000
,
0001
0010
0001
1000
0000
0001
0100
0010
1000
0010
1000
0001
0010
0000
0100
0000
,
1000
0000
0100
0010
0000
0001
0100
0001
0100
0000
0000
0000
0011
0000
0000
0000
,
1100
0011
0110
1100
,
0010
0001
0001
1000
0001
0101
0000
0110
,
0000
1001
0000
0110
0000
1001
0000
1100
,
0000
0101
0000
0011
0000
1100
0000
0110
,
0000
0011
0000
0101
0000
1100
0000
0110
,
0000
0000
0001
0010
0001
0010
0001
0000
0010
0000
0100
1000
0000
0000
1000
0001
,
0000
0000
0001
0100
0000
0000
0100
0020
0000
0030
0010
1000
0000
0000
0010
0100
,
0000
0000
0100
1000
0000
0000
0010
0002
0000
0003
1000
0100
0000
0000
0001
0100
,
0000
0000
0001
0100
0000
0000
0010
0100
0000
0000
1000
0100
0000
0000
0001
0010
,
0000
0000
0001
1000
0000
0000
0010
0001
0000
0000
0010
1000
0000
0000
0010
0000
,
0000
0001
0000
1100
0000
0011
0000
0101
,
0000
0000
0101
0000
0100
0000
0000
0010
0000
0000
1000
0000
1000
0000
0000
0100
,
0010
0100
0010
0100
0010
0000
0001
1000
0001
0000
0100
0000
0001
0000
0100
0010
,
0100
0000
0001
0000
1000
0000
0100
0010
0100
0000
0010
0000
0001
0000
0100
0010
,
0100
0000
0001
0000
0001
0000
0010
0100
1000
0100
1000
0100
1000
0000
0001
0000
,
0001
0000
0100
0000
0010
0000
0100
0010
0100
0000
0001
0000
0100
0000
0010
0100
,
0010
0000
1000
0010
0000
0010
1000
0010
0100
0001
0100
0010
0100
0010
0100
0010
,
1000
0000
0001
0200
0000
0000
0000
0301
0010
0000
0100
0000
0010
0000
0001
0000
,
0100
0000
0001
1000
0000
0001
0100
0010
0100
0001
0010
0001
0010
0000
0001
0000
,
1000
0000
0001
0100
0000
0000
0000
0000
0011
0000
0001
0010
0100
0000
1000
0001
,
0100
0010
0100
0010
0100
0000
0010
1000
0100
0000
0010
0000
0100
0000
0010
0001
,
0010
0000
0001
0000
0100
0000
0000
0010
1000
0000
0100
0000
1000
0000
0100
0010
,
0001
0000
0100
0000
0010
0000
1000
0001
0100
0010
0100
0010
0100
0010
1000
0001
,
1000
0000
0001
0000
0010
0000
0100
1000
0100
0000
0010
0000
0001
0000
0100
0000
,
0010
0000
0100
0001
0000
0001
0010
0001
1000
0100
0010
0100
0010
0001
1000
0010
,
1000
0000
0001
0020
0000
0000
0000
0031
0010
0000
0100
0000
1000
0000
0001
0000
,
0100
0000
0010
1000
0010
0000
0100
0001
0010
0001
1000
0001
0010
0100
1000
0100
,
1000
0000
0001
0020
0000
0000
0030
0100
1000
0000
0100
0000
0100
0000
0010
0001
,
0010
0100
1000
0000
1000
0000
0010
0100
0010
0000
0100
0000
0001
0000
1000
0100
,
1000
0000
0100
0000
0010
0000
0001
0100
0010
0000
0100
0000
0010
0000
1000
0100
,
0010
0000
0100
0000
1000
0000
0001
0010
0001
1000
0001
0100
0001
0100
0010
0100
,
0001
0000
0010
0000
0100
0000
0100
1000
0010
0000
0100
0000
0010
0000
1000
0000
,
0100
0000
0010
0001
0000
1000
0001
0100
0010
1000
0010
1000
0001
0000
0010
0000
,
0001
0000
1000
0100
0000
0000
0000
0010
0100
0000
0100
0000
1000
0000
0001
0000
,
0100
0000
0010
0100
0000
0001
0010
0100
0010
0001
0010
0001
0100
0000
0010
0000
,
0100
0000
0000
0000
0000
0000
0000
0000
0002
0000
0000
0000
2000
0000
0000
0000
0000
0000
0000
0000
0000
0000
0000
0010
0000
0000
0000
0000
0000
0000
0000
0010
0000
0000
0000
0000
0000
0000
0000
0010
0000
0000
0000
0010
0000
0000
0000
0000
3003
0000
0000
0000
0000
0000
0000
0000
1111
0000
0000
0000
0000
0000
0000
0000
,
0000
0001
0000
0000
0000
0000
0000
0000
,
0001
1000
0001
1000
0001
0000
0100
0001
0100
0000
0010
1000
0000
0010
1000
0010
,
1000
0001
1000
0001
1000
0000
0100
1000
0100
0000
0010
0001
0000
0010
0001
0100
,
0001
0100
0010
1000
0010
0000
0100
0001
0100
0000
0001
0010
0000
0100
1000
0100
,
1000
0001
0010
0100
1000
0100
1000
0001
,
0100
0010
1000
0001
0010
0001
0010
0100
,
1000
0000
0001
0000
0100
0000
0010
0000
1000
0000
0100
0010
0000
0001
1000
0001
,
1000
0000
0001
0000
0100
0000
0010
0000
1000
0010
1000
0010
0000
0100
0001
0100
,
0001
0100
0001
0100
0001
0000
0010
0000
0100
0000
1000
0100
1000
0000
0010
0100
,
0001
0010
0100
1000
0001
0000
0100
0001
0100
0000
0010
1000
0000
0010
1000
0010
,
1000
0010
1000
0010
1000
0000
0100
1000
0100
0000
0010
0001
0000
0100
0001
1000
,
0010
1000
0010
0100
0001
0000
0010
0001
0010
0000
0100
1000
0000
0001
0010
0001
,
1000
0000
0010
0000
0100
0000
0001
0000
0100
0000
0001
0010
0000
0100
1000
0100
,
0010
0001
0010
0001
1000
0000
0001
0000
1000
0000
0001
0100
0000
0010
1000
0010
,
1000
0001
0100
0001
1000
0000
0001
0000
0010
0000
0001
0010
0000
0100
1000
0001
,
1000
0001
0010
0100
1000
1000
0000
0001
,
0100
0000
0010
0000
0010
0000
1000
0000
0100
0000
0010
0000
0000
0000
0001
0100
,
0001
1000
0100
0010
,
0002
0000
1000
0100
,
0100
0003
0000
0000
0000
0000
0000
0000
;

//---------------dance-single - Rynker----------------
#NOTES:
     dance-single:
     Rynker:
     Medium:
     7:
     0.718,0.693,0.400,0.076,0.000,478.000,42.000,8.000,0.000,0.000:












0000
0000
0000
0000
,
0000
0000
0000
0000
,
0000
0000
0000
1000
,
0001
0000
0100
0000
0001
0010
0001
0000
,
0010
0100
0010
0000
0100
1000
0010
0100
,
0010
0000
0110
0000
0100
0001
0100
0001
,
1000
0100
1000
0000
0010
0100
0010
1000
,
0001
0000
0011
0000
0010
0001
1000
0001
,
0100
0001
0010
0000
0100
0010
0100
0010
,
0100
0000
0110
0000
0010
0100
1000
0000
,
0001
0100
0001
0000
0011
0000
0000
0000
,
0010
0000
0100
0000
1000
0001
0100
0000
,
0001
0010
0001
0000
1000
0001
0100
0001
,
0010
0100
0010
0000
0010
0010
0001
0000
,
0001
0001
0100
0000
0100
0001
1000
0000
,
1001
0000
1000
0000
0010
1000
0010
0100
,
0010
0100
0001
0000
0001
0010
0100
1000
,
0010
1010
1000
0000
,
0010
0000
0101
0000
,
1001
0000
0000
0000
1000
0100
1000
0001
,
0010
0001
1000
0001
0100
0001
1000
0000
,
0001
0010
0001
0000
1000
0001
0100
0010
,
1000
0010
0100
0010
1000
1000
0010
0010
,
1000
0000
0100
0000
0100
0100
1000
1000
,
0001
0001
0100
0000
0001
0001
0010
0010
,
0100
0100
1000
0000
0001
0100
0001
0010
,
0100
0000
0110
0000
0010
0100
1000
0010
,
0100
0000
0110
0000
0100
0001
0010
0001
,
1000
0001
0100
0000
0001
0100
0001
0010
,
0100
0000
0110
0000
0010
0100
1000
0010
,
1000
0010
0100
0010
0100
0100
0001
0001
,
0010
0000
0011
0000
0010
0100
1000
0100
,
1000
0000
0001
0000
0100
0001
0100
0001
,
1000
0000
0010
0000
1000
0010
0100
0010
,
0100
0000
0001
0000
0010
0001
1000
0001
,
0100
0001
0011
0010
,
0100
1000
1100
0000
,
1000
0001
0101
0100
,
0001
0000
0001
0010
,
0100
1000
0100
0000
1000
0000
0010
0000
,
0010
0000
0100
0000
0100
0001
0100
0001
,
0010
0011
0010
0100
,
1000
0000
0010
0000
0100
0010
0100
0000
,
0001
0100
0001
0000
1000
0100
1000
0000
,
0010
0000
0100
0000
0001
0010
0001
0000
,
1000
0100
1000
0000
0001
0000
0010
0000
,
0001
1000
0000
0001
,
0000
0100
0000
0110
,
0000
1100
1000
0001
,
0101
0000
0011
0000
,
0001
0000
0100
0000
0001
1000
0001
0000
,
1000
0100
1000
0000
0010
0000
0110
0000
,
0100
0001
0010
0011
,
0010
0000
0100
0000
1000
0010
1000
0000
,
0010
0100
0010
0000
0100
0001
0010
0100
,
1000
0000
1100
0000
1000
0100
1000
0000
,
0001
0100
0001
0000
0010
0001
0010
0000
,
0001
0100
0001
0000
1000
0100
1000
0000
,
0010
1000
0010
0000
0100
0010
0100
0001
,
0010
0021
0000
0031
,
0100
0000
0001
0000
1000
0100
1000
0002
,
2000
0003
0002
3000
1003
0001
0100
0001
,
0010
0000
0021
0000
0100
0100
0100
0030
,
1000
0100
1000
0000
0001
0100
0001
0000
,
0010
0001
0010
0000
0100
1000
0010
2000
,
3010
2010
0001
0100
,
3001
0010
0002
0000
1000
0100
0000
0103
,
0001
0000
0010
0000
0100
1000
0010
0100
,
0010
0000
0110
0000
0100
0001
0010
0100
,
1000
0000
1100
0000
1000
0100
0000
0100
,
0010
0000
0110
0000
0010
0101
1000
0001
,
0100
0000
1001
0001
0000
1000
0000
1001
,
0000
0000
0000
0000
,
0001
0100
0001
0010
,
0100
0010
0100
1000
0010
0000
0110
0000
,
0100
0001
0010
0100
1000
0001
0100
0000
,
0001
0010
0100
0010
0100
0100
1000
0000
,
0001
0100
0001
0010
0100
0000
0110
0000
,
0010
0100
1000
0010
0100
0000
0101
0000
,
0001
0010
0001
1000
0001
0000
0010
0000
,
0100
1000
0010
1000
0010
0000
0110
0000
,
0100
0001
0010
0001
1000
0100
1000
0000
,
0010
1000
0001
0010
0001
0000
1000
0000
,
0001
0100
0001
0010
0100
0000
0110
0000
,
0010
0100
1000
1000
0100
0000
1000
0000
,
0001
0100
0001
0001
0010
0000
0001
0000
,
0010
0010
0100
0100
1000
0000
1000
0000
,
0001
0100
0001
0010
0100
0000
0110
0000
,
0010
0100
1000
0010
0100
0000
0110
0000
,
0100
0000
0001
1000
,
1100
0000
0110
0000
,
0011
0000
0000
0000
;

//---------------dance-single - Rynker----------------
#NOTES:
     dance-single:
     Rynker:
     Easy:
     5:
     0.494,0.607,0.543,0.000,0.000,306.000,57.000,0.000,0.000,0.000:















0000
0000
0000
0000
,
0000
0000
0000
0000
,
1000
1000
0001
0000
,
0001
0010
0010
0000
,
0010
0100
0100
1000
,
0010
0000
0010
0100
,
0001
0100
0010
0000
,
1000
0000
0100
1000
,
1100
0000
0011
0000
,
0101
0000
0001
1000
,
1000
0000
0100
0010
,
0010
0000
0001
0100
,
0001
0000
1000
0010
,
1000
0000
0010
0100
,
0010
0000
1000
0100
,
1000
0000
0001
0010
,
0001
0000
0100
0001
,
0100
0001
1001
0000
,
1000
1000
0100
0000
,
0110
0000
0010
0001
,
1000
0001
0101
0100
,
0001
1000
1010
0010
,
1000
0010
0100
0100
,
0100
0000
0001
0010
,
0100
0010
0001
1000
,
0010
1000
1010
1000
,
0010
0100
0110
0010
,
0010
1000
1001
1000
,
0001
0010
0100
1000
,
0001
0100
0010
0100
,
0001
0010
0100
0110
,
0010
0001
1000
1001
,
1000
0001
0100
0101
,
0100
0010
1000
1010
,
1000
0001
0010
0100
,
0010
0001
1001
0000
,
1000
0000
0001
0000
,
0100
0000
0100
0010
,
1000
0010
0100
0001
,
0000
0001
0010
0100
,
0010
0000
0001
1000
,
0001
0000
0100
0010
,
0100
0000
0010
1100
,
0001
0010
0100
0000
,
1000
0000
0100
0010
,
0001
0000
1000
0000
,
0101
0000
0000
1001
,
0000
0011
0000
1100
,
0000
1001
1000
0001
,
0100
0000
0001
0010
,
0100
1000
0010
0100
,
0010
0000
1001
1000
,
0100
0010
0011
0001
,
0001
0100
0001
1000
,
1010
0010
1000
0010
,
0100
0000
0101
0001
,
0010
0010
0100
1000
,
0010
0100
0110
0100
,
0001
0010
0100
1000
,
0010
1000
0010
0010
,
0010
0100
0100
0001
,
0001
0000
0010
0100
,
1100
0001
0100
0001
,
1000
1100
1000
0010
,
0100
0101
0100
0001
,
0010
0110
0010
0100
,
1000
0001
0100
0001
,
0011
0010
0100
1010
,
1000
0010
0110
0100
,
0001
0010
0001
0011
,
0010
0100
1000
0101
,
1000
1001
0000
0000
,
0000
0000
0000
0000
,
1000
0001
0100
0001
,
0010
0010
0100
0100
,
1000
0010
0100
0110
,
0100
0001
0011
0000
,
1100
1000
0001
0100
,
0001
0010
0100
1000
,
0010
0100
0010
1000
,
0001
0011
0010
1100
,
1000
0101
0001
1010
,
0010
0110
0100
0011
,
0011
1001
0100
0001
,
0011
0110
0110
1000
,
0001
0101
0100
0001
,
1010
1000
0010
0100
,
0110
0010
1000
0011
,
0011
0001
1100
1000
,
0101
0000
0001
0000
,
0010
0000
0010
0000
,
0100
0000
0000
0000
;

//---------------dance-single - Rynker----------------
#NOTES:
     dance-single:
     Rynker:
     Beginner:
     1:
     0.135,0.260,0.000,0.000,0.000,99.000,0.000,0.000,0.000,0.000:


















0000
0000
0000
0000
,
0000
0000
0000
0000
,
0000
0000
1000
0000
,
0000
0000
0001
0000
,
0000
0000
0100
0000
,
0000
0000
0001
0000
,
0000
0000
0010
0000
,
0000
0000
0000
0100
,
0000
0000
0000
0000
,
1000
0000
0000
0000
,
0001
0000
0000
0000
,
0000
0100
0000
0000
,
0000
0000
0010
0000
,
0000
0000
0000
0010
,
0000
0000
0000
0000
,
0000
0000
1000
0000
,
0000
0000
0000
0000
,
0100
0000
0000
0000
,
0010
0000
0000
0000
,
0001
0000
0000
0000
,
1000
0000
0001
0000
,
0001
0000
0100
0100
,
0100
0000
0010
0000
,
0010
0000
1000
0000
,
1000
0000
0001
0000
,
0001
0000
0010
0000
,
0000
0010
0000
0000
,
0000
0000
0010
0000
,
0000
0000
0100
0000
,
0000
0000
0100
0000
,
0000
0000
1000
0000
,
0000
0000
0001
0000
,
0000
0000
0010
0000
,
0000
0000
0001
0000
,
0001
0000
0100
0000
,
0000
0000
0100
0000
,
0000
0000
0010
0000
,
0000
0000
1000
0000
,
0000
0000
1000
0000
,
0000
0000
0001
0000
,
0000
0000
0010
0000
,
0000
0000
0100
0000
,
0000
0000
1000
0000
,
0000
0000
0001
0000
,
0000
0000
0100
0000
,
0000
0000
0010
0000
,
0000
0000
0000
1000
,
0000
0000
0000
0001
,
0000
0000
0000
0010
,
0000
0000
0000
0100
,
0000
0000
0000
1000
,
0000
0000
0000
0001
,
0000
0000
0000
0100
,
0000
0000
0010
0010
,
0010
0000
0000
1000
,
1000
0000
0000
0001
,
0000
0000
0001
0000
,
0000
0000
0010
0000
,
0000
0000
0000
0100
,
0000
0000
0000
0000
,
1000
0000
0000
0000
,
0000
0001
0000
0000
,
0000
0100
0000
0000
,
0000
0000
0010
0000
,
0000
0000
0010
0000
,
0000
0000
1000
0000
,
0000
0000
0001
0000
,
0000
0000
0010
0000
,
0000
0000
0100
0000
,
0000
0000
1000
0000
,
0000
0000
0001
0000
,
0000
0100
0000
0000
,
0010
0000
0000
0000
,
0000
0000
0000
0000
,
1000
0000
0000
0000
,
0001
0000
0000
0000
,
0010
0000
0000
0000
,
0000
0100
0000
0000
,
0000
0000
1000
0000
,
0000
0000
0000
0001
,
0000
0000
0000
0000
,
0100
0000
0000
0000
,
0100
0000
0000
0000
,
0010
0000
0000
0000
,
0010
0000
0000
0000
,
0010
0000
0000
0000
,
1000
1000
1000
0000
,
0001
0000
0001
0000
,
0010
0000
0010
0000
,
0000
0000
0100
0000
,
0000
1000
0000
0000
,
0001
0000
0000
0000
;
