#TITLE:Detonator;
#SUBTITLE:;
#ARTIST:EarBreaker;
#TITLETRANSLIT:;
#SUBTITLETRANSLIT:;
#ARTISTTRANSLIT:;
#CREDIT:;
#BANNER:Detonator.png;
#BACKGROUND:Detonator-bg.png;
#LYRICSPATH:;
#CDTITLE:NVLM-cdtitle.png;
#MUSIC:Detonator.mp3;
#OFFSET:-1.581;
#SAMPLESTART:19.589;
#SAMPLELENGTH:12.000;
#SELECTABLE:YES;
#BPMS:0.000=160.000;
#STOPS:;
#BGCHANGES:;
// cache tags:
#FIRSTBEAT:0.000;
#LASTBEAT:338.000;
#SONGFILENAME:Songs/toune 8/Detonator/Detonator.sm;
#HASMUSIC:1;
#HASBANNER:1;
#MUSICLENGTH:129.472;
// end cache tags

//---------------dance-single - ----------------
#NOTES:
     dance-single:
     :
     Hard:
     9:
     0.615,0.843,0.239,0.100,0.309,513.000,31.000,13.000,0.000,0.000:  // measure 1
0010
0000
0010
0000
0100
0000
0000
0100
0000
0000
0001
0000
0010
0000
0000
0000
,  // measure 2
0100
0000
0100
0000
1000
0000
0000
1000
0000
0000
0010
0000
0100
0000
0000
0000
,  // measure 3
0001
0000
0001
0000
1000
0000
0000
1000
0000
0000
0100
0000
0010
0000
0000
0000
,  // measure 4
0001
0000
0001
0000
0100
0000
0000
0100
0000
0000
0010
0000
1000
0000
0000
0000
,  // measure 5
1001
0000
0000
0000
0000
0000
0000
0000
0010
0100
0000
0000
0010
0000
0000
0000
,  // measure 6
1000
0000
1000
0000
0010
0000
0000
0100
0000
0000
0100
0000
0001
0000
0000
0000
,  // measure 7
1000
0000
1000
0000
0100
0000
0000
0010
0000
0000
0010
0000
0001
0000
0000
0000
,  // measure 8
0100
0000
0100
0000
0010
0000
0000
1000
0000
0000
1000
0000
0001
0000
0000
0000
,  // measure 9
0020
0000
0000
0000
,  // measure 10
0000
0000
0000
0000
,  // measure 11
0130
0000
0000
0000
,  // measure 12
0100
0000
0000
0000
,  // measure 13
1001
0000
0100
1000
0100
0010
1000
0001
,  // measure 14
0010
0100
1000
0010
0100
0001
0011
0000
,  // measure 15
0110
0000
1000
0001
0100
1000
0100
0001
,  // measure 16
0010
0100
1000
0010
0100
0001
1001
0000
,  // measure 17
1100
0000
0010
0100
1000
0100
0001
0010
,  // measure 18
0100
1000
0010
0100
0001
1000
1100
0000
,  // measure 19
1001
0000
0100
0010
0000
1001
0000
0000
,  // measure 20
0100
0000
0010
0000
1000
0000
0001
0000
0010
0100
0010
0100
1000
0000
0000
0000
,  // measure 21
0100
0001
0100
0001
0000
0000
0000
0000
,  // measure 22
0000
0000
0000
0100
,  // measure 23
0010
1000
0100
0001
0001
0100
1000
1000
,  // measure 24
0100
0010
0001
0100
0010
0010
0010
0000
,  // measure 25
0100
0100
1000
0100
0001
0010
0100
1000
,  // measure 26
1000
0100
0001
0100
1000
1000
1000
0000
,  // measure 27
0010
0100
0001
0001
0100
0010
0001
0010
,  // measure 28
1000
0100
0001
0100
1000
0010
0010
0000
,  // measure 29
0100
0000
0100
0000
0001
0000
0010
0000
0100
0000
1000
0001
1000
0000
0000
0000
,  // measure 30
2002
0000
0000
3003
,  // measure 31
0100
0000
0100
0000
0001
0000
0010
0000
0100
0000
1000
0001
1000
0000
0001
0000
,  // measure 32
0100
0010
0100
1000
0100
0001
0010
0000
,  // measure 33
1000
0000
0010
0000
0001
0000
0100
0000
0010
0000
1000
0100
1000
0000
0000
0000
,  // measure 34
2020
0000
0000
3030
,  // measure 35
0001
0010
0100
1000
0010
0100
0001
1000
,  // measure 36
0100
0000
0000
0100
0000
0000
0100
0000
0000
0100
0000
0000
0100
0000
0000
0000
,  // measure 37
1002
0000
0000
0000
,  // measure 38
0000
0000
0000
0000
0000
0000
0000
0000
0103
0000
0000
0100
0010
0000
0000
0010
,  // measure 39
2000
0000
0000
0000
,  // measure 40
0000
0000
0000
0000
0000
0000
0000
0000
0000
0000
0000
0000
3100
0000
0100
0010
,  // measure 41
0200
0000
0000
0000
,  // measure 42
0000
0000
0000
0000
0000
0000
0000
0000
0301
0000
0000
0001
0010
0000
0000
0010
,  // measure 43
1000
0000
0000
1000
0000
0000
1000
0000
1000
0000
0000
2000
0000
0000
0000
0000
,  // measure 44
0000
0000
0000
3010
,  // measure 45
0100
0001
0100
0200
0000
0000
0000
0000
,  // measure 46
0000
0000
0000
0000
0000
0000
0000
0000
0301
0000
0000
0001
1000
0000
0000
1000
,  // measure 47
0020
0000
0000
0000
,  // measure 48
0000
0000
0000
0000
0000
0000
0000
0000
0000
0000
0000
0000
1030
0000
1000
0001
,  // measure 49
2000
0000
0000
0000
,  // measure 50
0000
0000
0000
0000
0000
0000
0000
0000
3001
0000
0000
0001
0100
0000
0000
0100
,  // measure 51
0010
0000
0000
0010
0000
0000
0010
0000
0010
0000
0000
0020
0000
0000
0000
0000
,  // measure 52
0000
0000
0000
0130
,  // measure 53
1000
0000
0001
0000
0010
0000
0100
0000
1000
0001
1000
0000
0001
0100
0000
0000
,  // measure 54
0100
0000
0010
0000
1000
0000
0100
0000
0010
0001
0010
0000
0001
0100
0000
0000
,  // measure 55
0100
0010
0100
0000
0001
0000
0010
0000
0100
0000
1000
0000
0010
0000
0100
0000
,  // measure 56
0001
1000
0000
0000
1000
0001
0000
0000
0001
1000
0000
0000
1000
0001
0000
0000
,  // measure 57
0001
0000
0100
0000
0010
0000
1000
0000
0100
0001
0100
0000
1000
0010
0000
0000
,  // measure 58
0010
0000
0100
0000
0001
0000
1000
0000
0100
0010
0100
0000
1000
0001
0000
0000
,  // measure 59
0001
0000
0100
0000
0010
0000
1000
0000
0100
0010
0000
0100
0010
0000
0001
0000
,  // measure 60
0100
0010
0010
1000
1000
0001
0001
0010
,  // measure 61
0010
0000
0100
0000
1000
0000
0001
0000
0100
0010
0100
0000
0010
1000
0000
0000
,  // measure 62
1000
0000
0001
0000
0010
0000
0100
0000
1000
0010
1000
0000
0001
0100
0000
0000
,  // measure 63
0100
0100
0010
0010
1000
1000
0001
0001
,  // measure 64
0010
0100
0010
0100
0010
0100
0010
0100
0010
0100
0010
0100
0010
0100
0010
0100
,  // measure 65
1000
0000
0001
0000
1000
0000
0100
0000
0010
0001
0010
0000
0001
0100
0000
0000
,  // measure 66
0100
0000
0010
0000
0100
0000
1000
0000
0100
0001
0100
0000
0001
0010
0000
0000
,  // measure 67
0010
0010
0100
0100
1000
1000
0001
0001
,  // measure 68
1001
0000
0000
0000
,  // measure 69
0100
0000
0010
0000
1000
0000
0001
0000
0010
0100
0010
0000
0001
0000
1000
0000
,  // measure 70
0010
0000
0100
0000
0001
0000
1000
0000
0100
0010
0100
0000
0100
0010
0100
0000
,  // measure 71
1000
0000
0001
0000
0010
0000
0100
0000
1000
0001
1000
0001
1000
0000
0000
0000
,  // measure 72
0010
0100
0001
1000
0100
0010
1001
0000
,  // measure 73
0100
0000
0010
0000
0100
0000
1000
0000
0001
0010
0001
0000
0100
0000
0010
0000
,  // measure 74
1000
0000
0100
0000
0010
0000
0001
0000
1000
0010
1000
0000
1000
0100
1000
0000
,  // measure 75
0001
0100
0101
0000
1000
0010
1010
0000
,  // measure 76
0001
0001
0010
0010
0100
0100
1000
1000
,  // measure 77
0010
0000
0100
0000
0001
0000
1000
0000
0100
0010
0100
0000
1000
0000
0001
0000
,  // measure 78
0010
0000
0100
0000
1000
0000
0010
0000
0100
0001
0100
0000
0100
0010
0100
0000
,  // measure 79
1000
0000
0100
0000
0001
0000
0010
0000
0100
1000
0000
0100
1000
0000
0000
0000
,  // measure 80
0001
0100
0000
0000
0100
0010
0000
0000
0010
1000
0000
0000
1000
0100
0010
0001
,  // measure 81
0000
0000
1001
0000
0000
1001
0000
0000
,  // measure 82
0010
0000
0100
0000
1000
0000
0001
0000
0100
0010
0100
0000
0010
1000
0010
0000
,  // measure 83
1001
0110
0011
1100
,  // measure 84
1100
1100
1010
1010
0110
0110
0101
0101
,  // measure 85
1001
0000
0000
0000
;

//---------------dance-single - ----------------
#NOTES:
     dance-single:
     :
     Challenge:
     10:
     0.785,0.979,0.525,0.185,0.560,619.000,68.000,24.000,0.000,0.000:  // measure 1
0010
0000
0100
1000
0100
0000
0010
0001
0000
0010
0001
0000
0101
0000
0000
0000
,  // measure 2
0100
0000
0010
1000
0010
0000
1000
0100
0000
1000
0001
0000
0101
0000
0000
0000
,  // measure 3
0001
0000
0010
0100
0010
0000
0001
0100
0000
0010
0100
0000
1100
0000
0000
0000
,  // measure 4
0001
0000
1000
0100
1000
0000
0010
0100
0000
0001
0100
0000
1100
0000
0000
0000
,  // measure 5
2002
0000
0000
0000
3003
0000
0000
0000
0010
0100
0010
0000
0110
0000
0000
0000
,  // measure 6
1000
0000
0100
0010
0100
0000
1000
0001
0000
1000
0100
0000
0110
0000
0000
0000
,  // measure 7
0001
0000
1000
0010
1000
0000
0100
0010
0000
0001
0010
0000
0110
0000
0000
0000
,  // measure 8
0100
0000
1000
0001
1000
0000
0100
0010
0000
0100
1000
0000
1001
0000
0000
0000
,  // measure 9
0010
0100
0001
0020
0000
0000
0000
0000
,  // measure 10
0000
0000
0000
0000
,  // measure 11
0130
0000
0000
0000
,  // measure 12
0000
0110
1000
0001
,  // measure 13
1001
0000
0000
0000
0100
0000
0010
0000
0001
0000
1000
0100
1000
0100
1000
0000
,  // measure 14
0010
0000
0100
0000
0001
1000
0001
1000
0001
0000
0010
0000
1100
0000
0000
0000
,  // measure 15
0110
0000
0000
0000
0001
0000
0010
0000
0100
0000
1000
0010
1000
0010
1000
0000
,  // measure 16
0001
0000
0010
0000
0100
1000
0100
1000
0100
0000
0010
0000
1001
0000
0000
0000
,  // measure 17
1010
0000
0000
0000
0001
0000
0100
0000
0010
0000
1000
0100
1000
0100
1000
0000
,  // measure 18
0001
0000
0100
0000
0010
1000
0010
1000
0010
0000
0100
0000
1001
0000
0000
0000
,  // measure 19
1001
0000
0100
1100
0000
0022
0033
0000
,  // measure 20
1000
0000
0100
0000
0010
0000
0001
0000
1000
0010
1000
0010
1000
0000
0100
0000
,  // measure 21
0010
0001
0100
1002
0000
0000
0000
0000
,  // measure 22
1003
0000
0000
1000
0000
0000
0110
0000
,  // measure 23
0001
0000
0100
0000
0010
0000
1000
0000
0100
0010
0100
0010
0001
0000
1000
0000
,  // measure 24
0010
0000
0100
0000
1000
0000
0100
0000
0001
0010
0001
0010
0100
0000
0000
0000
,  // measure 25
1000
0000
1000
0000
0010
0000
0100
0000
0001
0010
0001
0010
0100
0000
1000
0000
,  // measure 26
0010
0000
0100
0000
0001
0000
1000
0000
0100
0010
0100
0010
0001
0000
0000
0000
,  // measure 27
0010
0000
0100
0000
1000
0000
0001
0000
0100
0010
0100
0010
0100
0000
1000
0000
,  // measure 28
0100
0000
0001
0000
0010
0000
0100
0000
1000
0001
1000
0001
0010
0000
0000
0000
,  // measure 29
0110
0000
0100
0000
0001
0000
1000
0000
0100
0000
0010
0001
0010
0001
0010
0000
,  // measure 30
2002
0000
0000
0000
0000
0000
3003
0001
,  // measure 31
1001
0000
1000
0000
0100
0000
0010
0000
0001
0000
1000
0100
1000
0100
1000
0000
,  // measure 32
0010
0000
0010
0000
0100
0000
0100
0000
0001
1000
0001
1000
0001
0000
0000
0000
,  // measure 33
1100
0000
0100
0000
0010
0000
0001
0000
0100
0000
0010
1000
0010
1000
0100
0000
,  // measure 34
2200
0000
0000
3300
,  // measure 35
1001
0000
0010
0000
0100
0000
1000
0000
0010
0100
0010
0100
0001
0000
1000
0000
,  // measure 36
1100
0000
0000
0110
0000
0000
0011
0000
0000
0101
0000
0000
0110
0000
0000
0000
,  // measure 37
1002
0000
0000
0000
,  // measure 38
0000
0000
0000
0000
0000
0000
0000
0000
0103
0000
0010
0100
0010
0000
1000
0010
,  // measure 39
2000
0000
0000
0000
,  // measure 40
0000
0000
0000
0000
0000
0000
0000
0000
0000
0000
0000
0000
3001
0000
0100
0010
,  // measure 41
0200
0000
0000
0000
,  // measure 42
0000
0000
0000
0000
0000
0000
0000
0000
0301
0000
0010
0001
0010
0000
1000
0010
,  // measure 43
1000
0000
0000
1100
0000
0000
0110
0000
0011
0000
0000
2002
0000
0000
0000
0000
,  // measure 44
0000
0000
0000
3003
,  // measure 45
0110
0001
0100
0020
0000
0000
0000
0000
,  // measure 46
0000
0000
0000
0000
0000
0000
0000
0000
0031
0000
1000
0001
1000
0000
0010
1000
,  // measure 47
0020
0000
0000
0000
,  // measure 48
0000
0000
0000
0000
0000
0000
0000
0000
0000
0000
0000
0000
0130
0000
1000
0001
,  // measure 49
2000
0000
0000
0000
,  // measure 50
0000
0000
0000
0000
0000
0000
0000
0000
3001
0000
0100
0001
0100
0000
0010
0100
,  // measure 51
0010
0000
0000
1010
0000
0000
1001
0000
0011
0000
0000
0220
0000
0000
0000
0000
,  // measure 52
0000
0000
0000
0330
,  // measure 53
1000
0000
0100
0000
0010
0000
0001
0000
1000
0010
1000
0010
1000
0000
0100
0000
,  // measure 54
0001
0000
0010
0000
0100
0000
1000
0000
0010
0100
0001
0000
0100
0010
0100
0000
,  // measure 55
0001
0000
1000
0000
0100
0000
0010
0000
0001
0100
0001
0100
0010
0000
1000
0000
,  // measure 56
0100
0010
0000
0100
1000
0000
0001
1000
0000
0100
1000
0000
0010
0000
0100
0000
,  // measure 57
0001
0000
0010
0000
0100
0000
1000
0000
0010
0100
0010
0100
0001
0000
0010
0000
,  // measure 58
0100
0000
1000
0000
0001
0000
0100
0000
0010
1000
0010
0000
1000
0100
0010
0000
,  // measure 59
0011
0000
0001
0000
0100
0000
0010
0000
1000
0100
1000
0100
1000
0000
0001
0000
,  // measure 60
0100
0000
0010
1000
0100
0000
0010
0000
0001
0000
1000
0000
1010
0000
0001
0000
,  // measure 61
0011
0000
0100
0000
1000
0000
0001
0000
0100
0010
0100
0010
0100
0000
1000
0000
,  // measure 62
0100
0000
0001
0000
0010
0000
0100
0000
1000
0010
1000
0000
0001
0100
0010
0000
,  // measure 63
1000
0100
1000
0000
0001
0000
0001
0000
0010
0100
1000
0000
1000
0000
0001
0000
,  // measure 64
0010
0100
0010
0100
0010
0100
0010
0100
1000
0001
1000
0001
1000
0001
1000
0001
,  // measure 65
1000
0000
0001
0000
0010
0000
0100
0000
0001
1000
0001
1000
0001
0000
0100
0000
,  // measure 66
0010
0000
1000
0000
0100
0000
0010
0000
0001
1000
0001
0000
0010
0100
0010
0000
,  // measure 67
0100
1000
0001
0000
0100
0000
0100
0000
0010
1000
0001
0000
0010
0000
0010
0000
,  // measure 68
2002
0000
0000
3003
,  // measure 69
0100
0000
0010
0000
1000
0001
1000
0000
0001
0010
0001
0010
0001
0000
0100
0000
,  // measure 70
0010
0000
1000
0000
0001
0000
0010
0000
0100
1000
0100
0000
1000
0010
0100
0000
,  // measure 71
0001
0000
0001
0000
0010
0100
1000
0000
0001
0100
0001
0100
0001
0000
0010
0000
,  // measure 72
0100
1000
0000
0100
0001
0000
0010
0100
0000
1000
0010
0000
1001
0000
1001
0000
,  // measure 73
0001
0000
0100
0000
0010
1000
0010
0000
1000
0100
1000
0100
1000
0000
0001
0000
,  // measure 74
0010
0000
0100
0000
0010
0000
0001
0000
1000
0010
1000
0000
0100
1000
0100
0000
,  // measure 75
1000
0001
0011
0100
1000
0010
1010
0100
,  // measure 76
0001
0010
0000
0000
0010
0100
0000
0000
0100
1000
0000
0000
1000
0001
0000
0000
,  // measure 77
0101
0000
1000
0000
0100
0010
0100
0000
1000
0001
1000
0001
0010
0000
0100
0000
,  // measure 78
1000
0000
0010
0000
0100
0000
0001
0000
0010
0100
0010
0000
0100
1000
0100
0000
,  // measure 79
1000
0000
0100
0000
0001
0000
0010
0000
0100
1000
0100
1000
0001
0000
1000
0000
,  // measure 80
0100
0001
0000
0100
0010
0000
0001
1000
0000
0100
1000
0000
0010
0000
0110
0000
,  // measure 81
0000
0000
1001
0000
0000
0110
0000
0000
,  // measure 82
0011
0000
0100
0000
1000
0000
0001
0000
0100
0010
0100
0000
0010
1000
0100
0000
,  // measure 83
1001
0001
0011
0010
0110
0100
1100
1000
,  // measure 84
1010
0110
0101
1001
1100
0110
0011
1001
,  // measure 85
2020
0000
3030
0000
;

//---------------dance-double - ----------------
#NOTES:
     dance-double:
     :
     Hard:
     9:
     0.618,0.843,0.247,0.100,0.309,515.000,32.000,13.000,0.000,0.000:  // measure 1
00100000
00000000
00100000
00000000
01000000
00000000
00000000
01000000
00000000
00000000
00010000
00000000
00001000
00000000
00000000
00000000
,  // measure 2
00000010
00000000
00000010
00000000
00000100
00000000
00000000
00000100
00000000
00000000
00001000
00000000
00100000
00000000
00000000
00000000
,  // measure 3
00010000
00000000
00010000
00000000
00001000
00000000
00000000
00001000
00000000
00000000
00000010
00000000
00000001
00000000
00000000
00000000
,  // measure 4
00000100
00000000
00000100
00000000
00001000
00000000
00000000
00001000
00000000
00000000
00100000
00000000
01000000
00000000
00000000
00000000
,  // measure 5
10010000
00000000
00000000
00000000
00000000
00000000
00000000
00000000
01000000
00001000
00000000
00000000
00011000
00000000
00000000
00000000
,  // measure 6
00100000
00000000
00100000
00000000
01000000
00000000
00000000
00001000
00000000
00000000
00001000
00000000
00010000
00000000
00000000
00000000
,  // measure 7
00000010
00000000
00000010
00000000
00000100
00000000
00000000
00010000
00000000
00000000
00010000
00000000
00001000
00000000
00000000
00000000
,  // measure 8
01000000
00000000
01000000
00000000
00100000
00000000
00000000
00010000
00000000
00000000
00010000
00000000
00001000
00000000
00000000
00000000
,  // measure 9
00000200
00000000
00000000
00000000
,  // measure 10
00000000
00000000
00000000
00000000
,  // measure 11
01000300
00000000
00000000
00000000
,  // measure 12
00010000
00000000
00000000
00000000
,  // measure 13
00011000
00000000
01000000
00100000
10000000
01000000
00100000
00010000
,  // measure 14
00001000
00000100
00000010
00000001
00000100
00001000
00011000
00000000
,  // measure 15
01100000
00000000
10000000
00010000
01000000
00100000
00010000
00001000
,  // measure 16
00000100
00000010
00000001
00000100
00001000
00010000
01010000
00000000
,  // measure 17
11000000
00000000
00100000
01000000
00001000
00100000
00010000
00001000
,  // measure 18
00000100
00000010
00001000
00010000
00100000
01000000
11000000
00000000
,  // measure 19
10010000
00000000
01000000
00100000
00000000
00011000
00000000
00000000
,  // measure 20
00000010
00000000
00000100
00000000
00001000
00000000
00010000
00000000
00100000
01000000
00100000
01000000
10000000
00000000
00000000
00000000
,  // measure 21
01000000
00010000
00100000
00001000
00000000
00000000
00000000
00000000
,  // measure 22
00000000
00000000
00000000
01000000
,  // measure 23
00100000
10000000
01000000
00010000
00001000
00000100
00000001
00000100
,  // measure 24
00001000
00010000
01000000
10000000
00100000
00010000
00001000
00000000
,  // measure 25
00000010
00000100
00001000
01000000
00100000
00010000
00001000
00000100
,  // measure 26
00000010
00000001
00001000
00000100
00100000
00010000
01000000
00000000
,  // measure 27
00100000
00010000
00001000
00000100
00001000
00010000
00100000
01000000
,  // measure 28
10000000
00010000
00100000
00001000
00000100
00000010
00000001
00000000
,  // measure 29
00000100
00000000
00001000
00000000
00010000
00000000
00100000
00000000
01000000
00000000
10000000
00010000
10000000
00000000
00000000
00000000
,  // measure 30
00022000
00000000
00000000
00033000
,  // measure 31
01000000
00000000
01000000
00000000
00010000
00000000
00100000
00000000
00001000
00000000
00010000
00000010
00010000
00000000
00001000
00000000
,  // measure 32
00000100
00000010
00000001
00001000
00000100
00010000
00100000
00000000
,  // measure 33
10000000
00000000
00100000
00000000
00010000
00000000
00001000
00000000
00000100
00000000
00000010
00000001
00000010
00000000
00000000
00000000
,  // measure 34
00002002
00000000
00000000
00003003
,  // measure 35
00010000
00100000
01000000
10000000
00100000
01000000
00010000
10000000
,  // measure 36
01000000
00000000
00000000
00000100
00000000
00000000
01000000
00000000
00000000
00000100
00000000
00000000
01000000
00000000
00000000
00000000
,  // measure 37
00021000
00000000
00000000
00000000
,  // measure 38
00000000
00000000
00000000
00000000
00000000
00000000
00000000
00000000
01030000
00000000
00000000
01000000
00100000
00000000
00000000
00100000
,  // measure 39
20000000
00000000
00000000
00000000
,  // measure 40
00000000
00000000
00000000
00000000
00000000
00000000
00000000
00000000
00000000
00000000
00000000
00000000
31000000
00000000
00100000
00010000
,  // measure 41
00002000
00000000
00000000
00000000
,  // measure 42
00000000
00000000
00000000
00000000
00000000
00000000
00000000
00000000
00003100
00000000
00000000
00000100
00010000
00000000
00000000
00010000
,  // measure 43
00001000
00000000
00000000
00001000
00000000
00000000
00001000
00000000
00001000
00000000
00000000
20000000
00000000
00000000
00000000
00000000
,  // measure 44
00000000
00000000
00000000
30100000
,  // measure 45
01000000
00100000
00010000
00002000
00000000
00000000
00000000
00000000
,  // measure 46
00000000
00000000
00000000
00000000
00000000
00000000
00000000
00000000
00013000
00000000
00000000
00010000
00000010
00000000
00000000
00000010
,  // measure 47
00200000
00000000
00000000
00000000
,  // measure 48
00000000
00000000
00000000
00000000
00000000
00000000
00000000
00000000
00000000
00000000
00000000
00000000
00310000
00000000
00010000
00001000
,  // measure 49
00000200
00000000
00000000
00000000
,  // measure 50
00000000
00000000
00000000
00000000
00000000
00000000
00000000
00000000
00000310
00000000
00000000
00000010
00001000
00000000
00000000
00001000
,  // measure 51
00010000
00000000
00000000
00010000
00000000
00000000
00100000
00000000
00100000
00000000
00000000
00002000
00000000
00000000
00000000
00000000
,  // measure 52
00000000
00000000
00000000
01003000
,  // measure 53
10000000
00000000
00010000
00000000
00100000
00000000
01000000
00000000
10000000
00010000
10000000
00000000
00010000
00100000
00000000
00000000
,  // measure 54
00100000
00000000
00001000
00000000
00010000
00000000
00000100
00000000
00001000
00000010
00001000
00000000
00000001
00000100
00000000
00000000
,  // measure 55
00000100
00000000
00001000
00000000
00010000
00000000
00100000
00000000
01000000
10000000
01000000
00000000
10000000
00000000
00010000
00000000
,  // measure 56
00100000
00001000
00000000
00000000
00100000
00010000
00000000
00000000
00010000
00001000
00000000
00000000
00001000
00000100
00000000
00000000
,  // measure 57
00000010
00000000
00000001
00000000
00000100
00000000
00001000
00000000
00010000
00100000
00010000
00000000
00001000
01000000
00000000
00000000
,  // measure 58
00100000
00000000
01000000
00000000
00010000
00000000
10000000
00000000
01000000
00100000
00010000
00000000
00001000
00010000
00000000
00000000
,  // measure 59
00001000
00000000
00000100
00000000
00000010
00000000
00000001
00000000
00001000
00000100
00001000
00000100
00010000
00000000
00000010
00000000
,  // measure 60
00100000
00010000
01000000
00100000
10000000
01000000
00010000
00001000
,  // measure 61
00100000
00000000
01000000
00000000
10000000
00000000
00010000
00000000
01000000
00100000
01000000
00000000
00001000
00010000
00000000
00000000
,  // measure 62
00010000
00000000
00001000
00000000
00000100
00000000
00000010
00000000
00000001
00001000
00000001
00000000
00000100
00001000
00000000
00000000
,  // measure 63
00001000
00010000
00100000
01000000
10000000
01000000
00100000
00010000
,  // measure 64
00001000
01000000
00001000
01000000
00001000
01000000
00001000
01000000
00001000
01000000
00001000
01000000
00001000
01000000
00001000
01000000
,  // measure 65
00100000
00000000
00010000
00000000
00001000
00000000
00000100
00000000
00000010
00000001
00000010
00000000
00000001
00001000
00000000
00000000
,  // measure 66
00001000
00000000
00100000
00000000
01000000
00000000
10000000
00000000
00100000
01000000
00100000
00000000
01000000
00001000
00000000
00000000
,  // measure 67
00001000
00010000
00100000
01000000
10000000
01000000
00100000
00010000
,  // measure 68
00001100
00000000
00000000
00000000
,  // measure 69
01000000
00000000
00100000
00000000
10000000
00000000
00010000
00000000
00100000
01000000
00100000
00000000
00010000
00000000
00001000
00000000
,  // measure 70
00000100
00000000
00000010
00000000
00000001
00000000
00001000
00000000
00000100
00010000
00000100
00000000
00000100
00001000
00000100
00000000
,  // measure 71
00010000
00000000
00001000
00000000
00100000
00000000
01000000
00000000
10000000
00010000
10000000
00010000
10000000
00000000
00000000
00000000
,  // measure 72
01000000
00100000
00010000
00001000
00000100
00000010
00001100
00000000
,  // measure 73
00010000
00000000
00100000
00000000
01000000
00000000
10000000
00000000
00010000
00100000
00010000
00000000
01000000
00000000
00100000
00000000
,  // measure 74
00010000
00000000
00001000
00000000
00001000
00000000
00000100
00000000
00000010
00000001
00000010
00000000
00000001
00001000
00000001
00000000
,  // measure 75
00000100
00001000
00011000
00000000
00100000
01000000
11000000
00000000
,  // measure 76
00010000
00100000
00001000
00010000
00000010
00000100
00000001
00000010
,  // measure 77
00000100
00000000
00001000
00000000
00010000
00000000
00100000
00000000
01000000
10000000
01000000
00000000
00100000
00000000
00010000
00000000
,  // measure 78
00001000
00000000
00000100
00000000
00000010
00000000
00000001
00000000
00001000
00000100
00010000
00000000
00010000
00001000
00010000
00000000
,  // measure 79
00001000
00000000
01000000
00000000
00010000
00000000
00100000
00000000
01000000
10000000
01000000
10000000
01000000
00000000
00000000
00000000
,  // measure 80
00100000
00010000
00000000
00000000
00010000
00001000
00000000
00000000
00001000
00000100
00000000
00000000
00000100
00000010
00000001
00000010
,  // measure 81
00000000
00000000
00001100
00000000
00000000
00110000
00000000
00000000
,  // measure 82
00100000
00000000
01000000
00000000
10000000
00000000
00010000
00000000
01000000
00100000
01000000
00000000
00100000
00010000
00001000
00000000
,  // measure 83
00011000
01100000
00110000
00001100
,  // measure 84
01010000
01010000
00011000
00011000
00001010
00001010
00011000
00011000
,  // measure 85
00100100
00000000
00000000
00000000
;

//---------------dance-double - ----------------
#NOTES:
     dance-double:
     :
     Challenge:
     11:
     0.808,0.979,0.672,0.162,0.525,624.000,87.000,21.000,0.000,0.000:  // measure 1
00100000
00000000
00100000
00000000
01000000
00000000
00010000
01000000
00000000
01000000
00010000
00000000
00011000
00000000
00000000
00000000
,  // measure 2
00000010
00000000
00000010
00000000
00000100
00000000
00001000
00000100
00000000
00000100
00001000
00000000
00110000
00000000
00000000
00000000
,  // measure 3
00010000
00000000
00010000
00000000
00001000
00000000
00000100
00001000
00000000
00000100
00000010
00000000
00000011
00000000
00000000
00000000
,  // measure 4
00000100
00000000
00000100
00000000
00001000
00000000
00010000
00001000
00000000
00010000
00100000
00000000
01100000
00000000
00000000
00000000
,  // measure 5
10010000
00000000
00000000
00000000
00000000
00000000
00000000
00000000
01000000
00001000
01000000
00000000
00011000
00000000
00000000
00000000
,  // measure 6
00100000
00000000
00100000
00000000
01000000
00000000
00010000
00001000
00000000
00100000
00001000
00000000
00011000
00000000
00000000
00000000
,  // measure 7
00000010
00000000
00000010
00000000
00000100
00000000
00001000
00010000
00000000
00000100
00010000
00000000
00011000
00000000
00000000
00000000
,  // measure 8
01000000
00000000
01000000
00000000
00100000
00000000
00001000
00010000
00000000
00000100
00010000
00000000
00011000
00000000
00000000
00000000
,  // measure 9
00002200
00000000
00000000
00000000
,  // measure 10
00003000
00000000
00000000
00000000
,  // measure 11
01000300
00000000
00000000
00000000
,  // measure 12
00011000
00000000
00000000
00100100
,  // measure 13
00011000
00000000
00000000
00000000
01100000
00000000
00100000
01000000
10000000
00000000
01000000
00000000
00100000
00000000
00010000
00000000
,  // measure 14
00011000
00000000
00000100
00000000
00000010
00000000
00000001
00000000
00000100
00000010
00001000
00000000
00011000
00000000
00000000
00000000
,  // measure 15
01100000
00000000
00000000
00000000
10010000
00000000
00010000
10000000
01000000
00000000
00100000
00000000
00010000
00000000
00001000
00000000
,  // measure 16
00001100
00000000
00000010
00001000
00000001
00000000
00000100
00000000
00001000
00000000
00010000
00000000
01010000
00000000
00000000
00000000
,  // measure 17
11000000
00000000
00000000
00000000
01100000
00000000
01000000
00010000
00001000
00000000
00100000
00000000
00010000
00000000
00001000
00000000
,  // measure 18
00001100
00000000
00000010
00000100
00001000
00000000
00010000
00000000
00100000
00000000
01000000
00000000
11000000
00000000
00000000
00000000
,  // measure 19
10010000
00000000
11000000
01100000
00000000
00011000
00000000
00000000
,  // measure 20
00000011
00000000
00000100
00000010
00001000
00000000
00010000
00000000
00100000
01000000
00100000
01000000
10000000
00010000
10000000
00000000
,  // measure 21
01000000
00010000
00100000
00022000
00000000
00000000
00000000
00000000
,  // measure 22
00000000
00000000
00000000
00033000
,  // measure 23
01100000
00000000
10000000
00000000
01000000
00100000
00010000
00000000
00001000
00000000
00000100
00000010
00000001
00000010
00000100
00000000
,  // measure 24
00001000
00000000
00010000
00100000
01000000
00000000
10000000
01000000
00100000
00000000
00010000
00000000
00011000
00000000
00000000
00000000
,  // measure 25
00000011
00000000
00000100
00000000
00001000
00010000
00100000
01000000
00100000
00010000
00001000
00000000
00001000
00000000
00000100
00000000
,  // measure 26
00000010
00000000
00000001
00000000
00001000
00000000
00000100
00000000
00100000
00001000
00010000
00000000
01010000
00000000
00000000
00000000
,  // measure 27
01100000
00010000
00001000
00000100
00001000
00010000
00100000
01000000
,  // measure 28
10000000
00010000
00100000
00001000
00000100
00000010
00000011
00000000
,  // measure 29
00000110
00000000
00001000
00000000
00010000
00000000
00100000
00000000
01000000
00000000
10000000
00010000
10000000
00010000
01000000
00000000
,  // measure 30
00022000
00000000
00000000
00033000
,  // measure 31
01000000
00100000
01000000
00000000
00010000
00000000
00100000
00000000
00001000
00000000
00010000
00000010
00010000
00000100
00001000
00000000
,  // measure 32
00000100
00000000
00000010
00000000
00000001
00000000
00001000
00000000
00000100
00001000
00010000
00000000
00110000
00000000
00000000
00000000
,  // measure 33
11000000
00000000
00100000
00000000
00010000
00000000
00001000
00000000
00000100
00000000
00000010
00000001
00000010
00000001
00000010
00000000
,  // measure 34
00002002
00000000
00000000
00003003
,  // measure 35
00010000
00000000
00100000
00000000
01000000
00000000
10000000
00000000
00100000
00000000
01000000
00000000
00010000
01000000
10000000
01000000
,  // measure 36
01010000
00000000
00000000
00011000
00000000
00000000
00001100
00000000
00000000
00011000
00000000
00000000
01010000
00000000
00000000
00000000
,  // measure 37
00021000
00001000
00001000
00001000
00000000
00000000
00000000
00000000
,  // measure 38
00000000
00000000
00000000
00000000
00000000
00000000
00000000
00000000
01030000
00000000
00100000
01000000
00100000
00000000
10000000
00100000
,  // measure 39
20000000
00000000
00010000
00010000
00000000
00000000
00000000
00000000
,  // measure 40
00000000
00000000
00000000
00000000
00000000
00000000
00000000
00000000
00000000
00000000
00000000
00000000
31000000
00000000
00100000
00010000
,  // measure 41
00002000
00000000
00000100
00000100
00000000
00000000
00000000
00000000
,  // measure 42
00000000
00000000
00000000
00000000
00000000
00000000
00000000
00000000
00003100
00000000
00010000
00000100
00010000
00000000
00001000
00010000
,  // measure 43
00001000
00000000
00000000
00001100
00000000
00000000
00101000
00000000
00011000
00000000
00000000
20010000
00000000
00000000
00000000
00000000
,  // measure 44
00000000
00000000
00000000
30100000
,  // measure 45
01000000
00100000
00010000
00012000
00000000
00000000
00000000
00000000
,  // measure 46
00000000
00000000
00000000
00000000
00000000
00000000
00000000
00000000
00013000
00000000
00000010
00010000
00000010
00000000
00010000
00000010
,  // measure 47
00200000
00000000
01000000
01000000
00000000
00000000
00000000
00000000
,  // measure 48
00000000
00000000
00000000
00000000
00000000
00000000
00000000
00000000
00000000
00000000
00000000
00000000
00310000
00000000
00010000
00001000
,  // measure 49
00000200
00000000
00000010
00000010
00000000
00000000
00000000
00000000
,  // measure 50
00000000
00000000
00000000
00000000
00000000
00000000
00000000
00000000
00000310
00000000
00001000
00000010
00001000
00000000
00010000
00001000
,  // measure 51
00010000
00000000
00000000
00011000
00000000
00000000
00110000
00000000
00101000
00000000
00000000
00022000
00000000
00000000
00000000
00000000
,  // measure 52
00000000
00000000
00000000
00033000
,  // measure 53
10010000
00000000
00010000
00000000
00100000
00000000
01000000
00000000
10000000
00010000
10000000
00000000
00010000
00100000
00010000
00000000
,  // measure 54
00110000
00000000
00001000
00000000
00010000
00000000
00000100
00000000
00001000
00000010
00001000
00000000
00000001
00000100
00000001
00000000
,  // measure 55
00000110
00000000
00001000
00000000
00010000
00000000
00100000
00000000
01000000
10000000
01000000
10000000
00010000
10000000
00010000
00000000
,  // measure 56
00100000
00001000
00100000
00000000
00100000
00010000
00100000
00000000
00010000
00001000
00010000
00000000
00001000
00000100
00000010
00000100
,  // measure 57
00000010
00000000
00000001
00000000
00000100
00000000
00001000
00000000
00010000
00100000
00010000
00000000
00001000
01000000
00010000
00000000
,  // measure 58
00110000
00000000
01000000
00000000
00010000
00000000
10000000
00000000
01000000
00100000
00010000
00000000
00001000
00010000
00001000
00010000
,  // measure 59
00001000
00000000
00000100
00000000
00000010
00000000
00000001
00000000
00001000
00000100
00001000
00000100
00010000
00000000
00010010
00000000
,  // measure 60
00101000
00000000
00010000
00000000
01000000
00000000
00100000
00000000
10000000
00000000
01000000
00100000
00010000
00000000
00001000
00000000
,  // measure 61
00110000
00000000
01000000
00000000
10000000
00000000
00010000
00000000
01000000
00100000
01000000
00000000
00001000
00010000
00001000
00000000
,  // measure 62
00010000
00000000
00001000
00000000
00000100
00000000
00000010
00000000
00000001
00001000
00000001
00000010
00000100
00001000
00000100
00000000
,  // measure 63
00001000
00010000
00100000
01000000
10000000
01000000
00100000
00010000
,  // measure 64
00001000
00100000
00010000
01000000
00001000
00100000
00010000
01000000
00001000
00100000
00010000
01000000
00001000
00100000
00010000
01000000
,  // measure 65
01100000
00000000
00010000
00000000
00001000
00000000
00000100
00000000
00000010
00000001
00000010
00000001
00000001
00001000
00000100
00000000
,  // measure 66
00001000
00000000
00100000
00000000
01000000
00000000
10000000
00000000
00100000
01000000
00100000
00010000
01000000
00001000
00010000
00000000
,  // measure 67
00001000
00000000
00010000
00000000
00100000
00000000
01000000
00000000
10000000
01000000
10000000
01000000
00100000
00000000
00010000
00000000
,  // measure 68
00002200
00000000
00003300
00000000
,  // measure 69
01010000
00000000
00100000
00000000
10000000
00000000
00010000
00000000
00100000
01000000
00100000
01000000
00010000
00000000
00001000
00000000
,  // measure 70
00000100
00000000
00000010
00000000
00000001
00000000
00001000
00000000
00000100
00010000
00000100
00010000
00000100
00001000
00000100
00000000
,  // measure 71
00010000
00000000
00001000
00000000
00100000
00000000
01000000
00000000
10000000
00010000
10000000
00010000
10000000
01000000
10000000
00000000
,  // measure 72
01000000
00100000
00010000
00001000
00000100
00000010
00001100
00000000
,  // measure 73
00011000
00000000
00100000
00000000
01000000
00000000
10000000
00000000
00010000
00100000
00010000
00100000
01000000
10000000
00100000
00000000
,  // measure 74
00010000
00000000
00001000
00010000
00001000
00000000
00000100
00000000
00000010
00000001
00000010
00001000
00000001
00001000
00000001
00000000
,  // measure 75
00000100
00001000
00011000
00100000
00100000
01000000
11000000
10000000
,  // measure 76
10010000
00000000
00100000
00000000
00001000
00000000
00010000
00000000
00000010
00000100
00000010
00000100
00000001
00001000
00000010
00000000
,  // measure 77
00000100
00000000
00001000
00000000
00010000
00000000
00100000
00000000
01000000
10000000
01000000
10000000
00100000
01000000
00010000
00000000
,  // measure 78
00001000
00000000
00000100
00000000
00000010
00000000
00000001
00000000
00001000
00000100
00010000
00000100
00010000
00001000
00010000
00000000
,  // measure 79
00001000
00000000
01000000
00000000
00010000
00000000
00100000
00000000
01000000
10000000
01000000
10000000
01000000
10000000
01000000
00000000
,  // measure 80
00100000
00010000
00100000
00000000
00010000
00001000
00010000
00000000
00001000
00000100
00001000
00000000
00000100
00000010
00000001
00000010
,  // measure 81
00000001
00000000
00001100
00000000
00000000
00110000
00000000
00000000
,  // measure 82
00110000
00000000
01000000
00000000
10000000
00000000
00010000
00000000
01000000
00100000
01000000
00001000
00100000
00010000
00001000
00000000
,  // measure 83
00011000
00010000
01100000
00100000
00110000
00010000
00101000
00001000
,  // measure 84
01010000
00110000
00011000
00010100
00001010
00001100
00011000
00110000
,  // measure 85
00202000
00000000
00303000
00000000
;

//---------------dance-single - ----------------
#NOTES:
     dance-single:
     :
     Medium:
     7:
     0.462,0.584,0.278,0.193,0.008,358.000,36.000,25.000,0.000,0.000:  // measure 1
1000
1000
0100
0000
0000
0001
1000
0000
,  // measure 2
0010
0010
0001
0000
0000
0100
0010
0000
,  // measure 3
1000
1000
0100
0000
0000
0001
0100
0000
,  // measure 4
0010
0010
1000
0000
0000
0001
1000
0000
,  // measure 5
1001
0000
0000
0100
,  // measure 6
0010
0010
0001
0000
0000
1000
0010
0000
,  // measure 7
0100
0100
0001
0000
0000
1000
0100
0000
,  // measure 8
0010
0010
0001
0000
0000
1000
0010
0000
,  // measure 9
0020
0000
0000
0000
,  // measure 10
0000
0000
0000
0000
,  // measure 11
0130
0000
0000
0000
,  // measure 12
0000
0000
0000
0000
,  // measure 13
1001
0000
0001
0100
0000
0010
0100
0000
,  // measure 14
0001
1000
0001
0000
0100
0000
1001
0000
,  // measure 15
0110
0000
0010
0001
0000
0100
0001
0000
,  // measure 16
0010
0100
0010
0000
0100
0000
1001
0000
,  // measure 17
1100
0000
0010
0001
0000
0010
0100
0000
,  // measure 18
1000
0100
1000
0000
0001
0000
0110
0000
,  // measure 19
1001
0000
0100
0010
0000
1001
0000
0000
,  // measure 20
0010
0010
0010
0000
0100
0000
1001
0000
,  // measure 21
0100
0001
0100
0001
0000
0000
0000
0000
,  // measure 22
0000
0000
0000
0100
,  // measure 23
0010
0010
0010
0000
0001
0000
1000
0000
,  // measure 24
0001
0100
0001
0000
0010
0000
0100
0000
,  // measure 25
1000
0000
0100
0000
0010
0001
0010
0000
,  // measure 26
0001
1000
0001
0000
0100
0000
0010
0000
,  // measure 27
1000
0000
0100
0000
0010
0001
0010
0000
,  // measure 28
0001
1000
0001
0000
0100
0000
1000
0000
,  // measure 29
0100
0000
0001
0000
0010
0100
0010
0000
,  // measure 30
2002
0000
0000
3003
,  // measure 31
0100
0010
0100
0000
0001
1000
0001
0000
,  // measure 32
0100
0000
0010
0000
1000
0100
1000
0000
,  // measure 33
0001
0010
0100
0000
1000
0100
1000
0000
,  // measure 34
2002
0000
0000
3003
,  // measure 35
0100
0010
0100
0010
0100
0010
1000
0001
,  // measure 36
0100
0000
0000
0100
0000
0000
0100
0000
0000
0100
0000
0000
0100
0000
0000
0000
,  // measure 37
0002
0000
0000
0000
,  // measure 38
0000
0000
0203
0320
,  // measure 39
2030
0000
0000
0000
,  // measure 40
0000
0000
0000
3200
,  // measure 41
0320
0000
0000
0000
,  // measure 42
0000
0000
0032
0203
,  // measure 43
0320
0000
0000
0000
,  // measure 44
0000
0000
0000
1030
,  // measure 45
0100
0001
0010
0200
0000
0000
0000
0000
,  // measure 46
0000
0000
2300
3020
,  // measure 47
0230
0000
0000
0000
,  // measure 48
0000
0000
0000
0302
,  // measure 49
0023
0000
0000
0000
,  // measure 50
0000
0000
0230
2300
,  // measure 51
3020
0000
0000
0000
,  // measure 52
0000
0000
0000
0130
,  // measure 53
0001
0010
0100
1000
1000
0001
0001
0000
,  // measure 54
0100
0010
0100
0010
1000
0100
1000
0000
,  // measure 55
0001
0010
0001
0001
0100
0010
0100
0000
,  // measure 56
0011
1100
0011
1100
,  // measure 57
1000
0100
0010
0001
0001
0010
0100
0000
,  // measure 58
1000
0010
0100
0001
1000
0010
0100
0000
,  // measure 59
0001
0010
0100
1000
0001
0010
0100
0000
,  // measure 60
0010
0010
1001
1001
,  // measure 61
0100
0010
0100
0001
0010
0001
0010
0000
,  // measure 62
0100
1000
0100
1000
1000
0001
1000
0000
,  // measure 63
0110
0101
0110
1010
,  // measure 64
1000
0001
1000
0001
0100
0010
0100
0010
,  // measure 65
0100
0001
0001
0010
0100
0010
0001
0000
,  // measure 66
1000
0100
1000
0100
0010
0001
0001
0000
,  // measure 67
0011
0110
1100
1001
,  // measure 68
0110
0000
0000
0000
,  // measure 69
1000
0100
1000
0100
0010
0001
0001
0000
,  // measure 70
0100
0010
0100
0010
1000
1000
1000
0000
,  // measure 71
0001
0010
0100
1000
1000
1000
1000
0000
,  // measure 72
0010
0100
0001
1000
0100
0100
0100
0000
,  // measure 73
0010
0001
0010
0100
1000
1000
1000
0000
,  // measure 74
0010
0100
0001
1000
0001
0001
0001
0000
,  // measure 75
0100
0110
0001
1001
,  // measure 76
0100
0010
0100
1000
,  // measure 77
0010
0100
0001
0100
0001
0001
1000
0000
,  // measure 78
0100
0010
0001
0001
0010
0100
1000
0000
,  // measure 79
2000
0000
3020
0000
,  // measure 80
0031
0101
1000
1010
,  // measure 81
0000
0000
0000
0000
,  // measure 82
1000
0100
0010
0001
0100
0010
1000
0000
,  // measure 83
1001
0110
0011
1100
,  // measure 84
1000
1000
0100
0100
0010
0010
0001
0001
,  // measure 85
1001
0000
0000
0000
;

//---------------dance-single - ----------------
#NOTES:
     dance-single:
     :
     Easy:
     6:
     0.386,0.584,0.293,0.178,0.000,289.000,38.000,23.000,0.000,0.000:  // measure 1
0100
0100
1000
0001
,  // measure 2
0010
0010
0100
1000
,  // measure 3
0001
0001
0100
0010
,  // measure 4
1000
1000
0100
0010
,  // measure 5
1001
0000
0000
0100
,  // measure 6
0010
0010
0001
1000
,  // measure 7
0100
0100
0001
0010
,  // measure 8
0100
0100
1000
0001
,  // measure 9
0020
0000
0000
0000
,  // measure 10
0000
0000
0000
0000
,  // measure 11
0130
0000
0000
0000
,  // measure 12
0000
0000
0000
0000
,  // measure 13
1001
0010
0100
1000
,  // measure 14
0010
0100
0001
1001
,  // measure 15
0110
0100
0001
0010
,  // measure 16
0100
1000
0010
0110
,  // measure 17
0101
1000
0100
0010
,  // measure 18
0001
1000
0001
0110
,  // measure 19
1100
0001
1000
0100
,  // measure 20
0010
0010
0100
1001
,  // measure 21
0100
0001
0100
0001
0000
0000
0000
0000
,  // measure 22
0000
0000
0000
0100
,  // measure 23
1001
0001
0010
0100
,  // measure 24
1000
0100
0010
0001
,  // measure 25
1000
0010
0100
0001
,  // measure 26
0011
0100
1000
0001
,  // measure 27
0100
0010
1000
0100
,  // measure 28
0110
0001
1000
0010
,  // measure 29
0100
0001
0010
0100
,  // measure 30
2002
0000
0000
3003
,  // measure 31
0010
0100
0001
0010
,  // measure 32
0100
1000
1000
0100
,  // measure 33
0010
0001
1000
0010
,  // measure 34
2002
0000
0000
3003
,  // measure 35
0010
0100
0001
1000
,  // measure 36
0110
0011
0110
1100
,  // measure 37
0002
0000
0000
0000
,  // measure 38
0000
0000
0203
0320
,  // measure 39
2030
0000
0000
0000
,  // measure 40
0000
0000
0000
3200
,  // measure 41
0320
0000
0000
0000
,  // measure 42
0000
0000
0032
0203
,  // measure 43
0320
0000
0000
0000
,  // measure 44
0000
0000
0000
1030
,  // measure 45
0001
0000
0010
0200
0000
0000
0000
0000
,  // measure 46
0000
0000
2300
3020
,  // measure 47
0230
0000
0000
0000
,  // measure 48
0000
0000
0000
0302
,  // measure 49
0023
0000
0000
0000
,  // measure 50
0000
0000
0230
2300
,  // measure 51
3020
0000
0000
0000
,  // measure 52
0000
0000
0000
0130
,  // measure 53
0001
0000
0010
0000
1000
0100
0001
0000
,  // measure 54
0100
0000
0010
0000
1000
1000
1000
0000
,  // measure 55
0001
0000
0010
0000
0100
1000
0100
0000
,  // measure 56
1000
0110
0001
0110
,  // measure 57
1000
0000
0001
0000
0100
0010
0100
0000
,  // measure 58
0001
0000
0010
0000
0100
1000
0001
0000
,  // measure 59
0100
0000
0010
0000
1000
0100
1000
0000
,  // measure 60
0010
0010
1001
0100
,  // measure 61
0010
0000
0001
0000
1000
0010
0010
0000
,  // measure 62
0100
0000
0001
0000
0010
0100
0010
0000
,  // measure 63
0100
1001
0010
1001
,  // measure 64
0100
0010
0100
0010
0100
0010
0100
0010
,  // measure 65
0100
0000
0001
0000
0010
0100
0100
0000
,  // measure 66
1000
0000
0001
0000
1000
0100
1000
0000
,  // measure 67
0011
0110
1000
0110
,  // measure 68
1001
0000
0000
0000
,  // measure 69
0010
0000
0100
0000
0001
0100
1000
0000
,  // measure 70
0100
0000
0001
0000
1000
0100
0001
0000
,  // measure 71
0100
0000
1000
0000
0010
0100
0001
0000
,  // measure 72
0010
1001
0100
1001
,  // measure 73
0100
0000
0010
0000
1000
0100
0001
0000
,  // measure 74
0100
0000
1000
0000
0010
0100
0001
0000
,  // measure 75
0100
0110
0001
1001
,  // measure 76
0100
0100
0100
0100
,  // measure 77
0010
0000
0001
0000
1000
0100
0001
0000
,  // measure 78
0100
0000
0010
0000
0001
0010
0100
0000
,  // measure 79
1000
1000
0100
0010
,  // measure 80
0001
0101
1000
1010
,  // measure 81
0000
0000
0000
0000
,  // measure 82
1000
0000
0010
0000
0100
0001
0001
0000
,  // measure 83
1001
0110
0011
1100
,  // measure 84
1000
0100
1000
0100
0010
0001
0010
0001
,  // measure 85
1001
0000
0000
0000
;
