#TITLE:Fight;
#SUBTITLE:Majestic (2005);
#ARTIST:Gamma Ray;
#TITLETRANSLIT:;
#SUBTITLETRANSLIT:;
#ARTISTTRANSLIT:;
#CREDIT:SulferDragon;
#BANNER:Fight-banner.png;
#BACKGROUND:Fight-bg.png;
#LYRICSPATH:;
#CDTITLE:!SulferDragon.png;
#MUSIC:02-gamma_ray-fight-ser.mp3;
#OFFSET:-0.024;
#SAMPLESTART:72.340;
#SAMPLELENGTH:14.000;
#SELECTABLE:YES;
#BPMS:0.000=185.000,476.000=182.000,476.500=167.000,477.000=165.000,478.000=158.000,479.000=156.000,480.000=87.800,496.000=185.000;
#STOPS:;
#BGCHANGES:;
// cache tags:
#FIRSTBEAT:16.000;
#LASTBEAT:600.750;
#SONGFILENAME:Songs/Astronomic Metal Collection/Fight (SulferDragon)/02 - Fight.sm;
#HASMUSIC:1;
#HASBANNER:1;
#MUSICLENGTH:205.479;
// end cache tags

//---------------dance-single - ----------------
#NOTES:
     dance-single:
     :
     Hard:
     13:
     1.000,1.000,1.000,0.131,1.000,1573.000,317.000,27.000,0.000,1.000:
0000
0000
0000
0000
,
0000
0000
0000
0000
,
0000
0000
0000
0000
,
0000
0000
0000
0000
,
0100
1000
0100
0010
0100
1000
0100
0010
,
0100
1000
0100
0010
0100
1000
0100
0010
,
0001
0000
1000
0000
0100
0000
0010
0000
0100
0000
1000
0000
0100
0000
0010
1000
,
0011
0000
0011
0000
0011
0000
1100
0000
0011
1100
0011
1100
0011
1100
0011
1100
,
0011
0100
1000
0100
0001
0100
0010
0100
,
1010
0110
0011
1001
1100
0101
0011
1001
,
1010
0100
1000
0100
0001
0100
0010
0100
,
1001
0101
0110
0101
1100
0101
1001
0101
,
0011
0100
1000
0100
0001
0100
0010
0100
,
1001
0011
1010
1100
0101
0110
1100
1010
,
0011
0100
1000
0100
0001
0100
0010
0100
,
1000
0010
0100
0001
0010
0100
0010
0100
1000
0010
0100
0001
1000
0001
0010
0100
,
1010
0100
1001
0100
0001
0100
0011
0100
,
1000
0010
1000
0010
1100
0001
1000
0001
1000
0010
0100
0010
0101
1000
0001
1000
,
0010
0100
1001
0100
0001
0100
0011
0100
,
1000
0010
1000
0001
1100
0001
0100
0010
1000
0001
0100
0001
0110
0000
1000
0000
,
0010
0100
1001
0100
0001
0100
0011
0100
,
1100
0010
1001
0100
0001
0010
1100
0010
,
1010
0100
1001
0010
0100
0001
1010
0001
,
1000
0100
0010
0001
1000
0100
0010
0100
0010
0001
0100
0010
1000
0001
0010
0100
,
1001
0000
0001
0000
1010
0000
0001
0000
0001
0000
0001
0000
1010
0000
0001
1000
,
0010
0000
0010
0000
0101
0000
0010
0000
0010
0000
0010
0000
0101
0000
0010
0100
,
0001
0001
1100
0001
0001
0001
1100
0001
,
0001
0000
0001
0000
2200
0000
0000
3300
0010
0000
0010
0000
0202
0000
0000
0303
,
1001
0000
1000
0000
0011
0000
1000
0000
1000
0000
1000
0000
0011
0000
1000
0010
,
0100
0000
0100
0000
1001
0000
0100
0000
0100
0000
0100
0000
1001
0000
0100
0010
,
1000
1000
0101
1000
1000
1000
0101
1000
,
1000
0010
1000
0010
2002
0000
0000
3003
0100
0001
0100
0001
0110
0000
1000
0000
,
0101
0010
1100
0010
0000
0100
0011
0000
,
1000
0100
1001
0100
0000
0010
0101
0000
,
0010
1000
0110
1000
0000
0001
1010
0000
,
0100
0001
1100
0001
0000
0010
0101
0000
,
1100
0010
1001
0010
0000
1000
0011
0000
,
1001
0100
1010
0100
0000
0001
0110
0000
,
1000
0010
1000
0000
0101
0000
0010
1000
0010
0000
0100
0000
0011
0000
0100
0000
,
0010
1000
0010
0000
0101
0000
1000
0010
1000
0000
0001
0000
1100
0000
0001
0100
,
1010
0000
0010
0000
0101
0000
0010
0000
0010
0000
0010
0000
0101
0000
0010
1000
,
0001
0000
0001
0000
1100
0000
0001
0000
0001
0000
0001
0000
1100
0000
0001
0100
,
0010
0000
0010
0000
1001
0000
0010
0000
0010
0000
0010
0000
1001
0000
0010
0100
,
1000
0000
1000
0000
0202
0000
0000
0303
0010
0000
0010
0000
2002
0000
0000
3003
,
0110
0000
0100
0000
0011
0000
0100
0000
0100
0000
0100
0000
0011
0000
0100
0001
,
1000
0000
1000
0000
0110
0000
1000
0000
1000
0000
1000
0000
0110
0000
1000
0010
,
0100
0100
1010
0100
0100
0100
1010
0100
,
0100
0001
0100
0001
2200
0000
0000
3300
0010
1000
0010
1000
0022
0000
0000
0033
,
1001
1000
0011
1000
0001
0100
1010
0000
,
0010
0010
0101
0010
1000
0100
0011
0000
,
0001
0001
1010
0001
1000
0010
0101
0000
,
0110
0100
1001
0100
0001
0010
1100
0000
,
0011
0001
1010
0001
1000
0010
0101
0000
,
0100
0100
1001
0100
0001
0010
1100
0000
,
1000
0001
1000
0100
0011
0100
0001
1000
0010
0100
0001
0100
1001
0010
1000
0100
,
0010
0001
0010
0100
1010
0001
1000
0001
1100
0010
0100
0010
0100
0010
0100
0010
,
1000
0100
0011
1000
0010
0100
0001
0010
0001
0100
0001
1000
0010
0100
0001
1000
,
0010
0100
0011
1000
0001
0010
0100
0010
0100
1000
0101
0010
1000
0001
0100
0010
,
0100
0010
1100
0001
1000
0010
0100
0001
0100
0010
1000
0010
0100
0001
0010
0100
,
1000
0001
1010
0100
0010
1000
0001
1000
0010
0100
0011
1000
0100
0010
0001
0100
,
0010
1000
0110
0001
0100
0010
1000
0001
0100
0010
0100
0001
0010
0100
1000
0010
,
1001
0010
0100
0001
1000
0100
0010
0001
1000
0010
0100
0001
0100
0010
1000
0001
,
1010
0100
0010
1000
0001
1000
0001
0100
0010
1000
0001
0010
0001
1000
0100
0010
,
0001
0100
0001
0100
0010
1000
0010
1000
0001
0010
0001
0010
0100
1000
0100
1000
,
0011
0100
1010
0100
0001
0100
0011
0100
,
0010
0100
0010
1000
0101
1000
0001
0100
0010
0100
0001
1000
0101
1000
0010
0100
,
0011
0100
1001
0100
0001
0100
0011
0100
,
1000
0001
1000
0001
1010
0000
0100
0000
0001
0000
0010
0000
0101
0000
1000
0000
,
0110
0100
1001
0100
0001
0100
0011
0100
,
1100
0010
1001
0100
0001
0010
1100
0010
,
1010
0100
1001
0010
0100
0001
1010
0001
,
1000
0100
0010
0001
0100
0010
1000
0001
1000
0001
0010
0100
1000
0100
0010
0001
,
1100
0000
0100
0000
1001
0000
0100
0000
0100
0000
0100
0000
1001
0000
0100
0010
,
1000
0000
1000
0000
0011
0000
1000
0000
1000
0000
1000
0000
0011
0000
1000
0010
,
0100
0100
1010
0100
0100
0100
1010
0100
,
0100
0000
0100
0000
2002
0000
0000
3003
0010
0000
0010
0000
2200
0000
0000
3300
,
1001
0000
0001
0000
1100
0000
0001
0000
0001
0000
0001
0000
1100
0000
0001
0100
,
0010
0000
0010
0000
0101
0000
0010
0000
0010
0000
0010
0000
0101
0000
0010
1000
,
0001
0001
1010
0001
0001
0001
1010
0001
,
0001
1000
0001
1000
0202
0000
0000
0303
0010
1000
0010
1000
0110
0000
0001
0000
,
1000
0010
0101
0010
0000
1000
0011
0000
,
0100
0001
1010
0001
0000
0100
1001
0000
,
0010
1000
0101
1000
0000
0010
1100
0000
,
0001
1000
0110
1000
0000
0100
0011
0000
,
1100
0010
0101
0010
0000
0100
1001
0000
,
1010
0000
0100
0000
0011
0000
0100
0000
0000
0000
0010
0000
1001
0110
1001
0110
,
1001
0010
0100
0010
0101
1000
0010
0100
0001
0010
0100
1000
0011
0100
0010
0100
,
0001
1000
0001
0010
1100
0001
0100
0010
1100
0011
1100
0011
1100
0011
1100
0011
,
1100
0010
0100
0001
1000
0100
1000
0001
0100
0010
1000
0001
0100
0001
0010
0100
,
1000
0001
1010
0100
0001
1000
0010
0100
0010
1000
0011
0100
0001
1000
0010
0100
,
0001
1000
0101
0010
1000
0001
0100
0010
0100
0010
1000
0001
0100
0010
1000
0001
,
1010
0100
0010
1000
0001
0100
0001
0100
0010
1000
0110
0001
0100
0010
1000
0010
,
0100
0001
1100
0010
0100
0001
1000
0001
0100
0010
1000
0010
0100
0010
1000
0001
,
1010
0100
0001
1000
0010
0100
0001
0010
0100
1000
0100
0010
0001
0100
0010
1000
,
0011
0100
0010
1000
0001
1000
0010
0100
0001
1000
0010
1000
0010
0100
0001
1000
,
0011
1100
0010
0100
0001
1000
0001
1000
0010
0100
0010
0100
0001
1000
0001
1000
,
0011
0000
0000
0000
0000
0000
0000
0000
0000
0000
0000
0000
0000
0000
0000
0000
0100
0000
0000
0000
0000
0000
0000
0000
0000
0000
0000
0000
0000
0000
0000
0000
0010
0000
0000
0000
0000
0000
0000
0000
0000
0000
0000
0000
0000
0000
0000
0000
1000
0000
0000
0000
0000
0000
0000
0000
0000
0000
0000
0000
0001
0000
0000
0000
0000
0000
0000
0000
0000
0000
0000
0000
0100
0000
0000
0000
0000
0000
0000
0000
0000
0000
0000
0000
0010
0000
0000
0000
0000
0000
0000
0000
0000
0000
0000
0000
0001
0000
0000
0000
0000
0000
0000
0000
0000
0000
0000
0000
0100
0000
0000
0000
0000
0000
0000
0000
0000
0000
0000
0000
0010
0000
0000
0000
0000
0000
0000
0000
0100
0000
0000
0000
0000
0000
0000
0000
0000
0000
0000
0000
0001
0000
0000
0000
0000
0000
0000
0000
0000
0000
0000
0000
1000
0000
0000
0000
0000
0000
0000
0000
0000
0000
0100
0000
0000
0000
0000
0000
0010
0000
0000
0000
0000
0000
0000
0000
0001
0000
0000
0000
0000
0000
0000
0000
0010
0000
0000
0000
0000
0000
0000
0000
,
0100
0000
0000
0000
0000
0000
0000
0000
0000
0000
0000
0000
0000
0000
0000
0000
0010
0000
0000
0000
0000
0000
0000
0000
0000
0000
0000
0000
0000
0000
0000
0000
0100
0000
0000
0000
0000
0000
0000
0000
0000
0000
0000
0000
0000
0000
0000
0000
0010
0000
0000
0000
0000
0000
0000
0000
1000
0000
0000
0000
0000
0000
0000
0100
0000
0000
0000
0000
0000
0000
0000
0000
0001
0000
0000
0000
0000
0000
0000
0000
0000
0000
0000
0000
0100
0000
0000
0000
0000
0000
0000
0000
0000
0000
0000
0000
0001
0000
0000
0000
0000
0000
0000
0000
0010
0000
0000
0000
0000
0000
0000
0000
1000
0000
0000
0000
0000
0000
0000
0000
0001
0000
0000
0000
0000
0000
0000
0000
0010
0000
0000
0000
0000
0000
0000
0000
0100
0000
0000
0000
0000
0000
0000
0000
1000
0000
0000
0000
0000
0000
0000
0000
0001
0000
0000
0000
0000
0000
0000
0000
0100
0000
0000
0000
0010
0000
0000
0000
1000
0000
0000
0000
0000
0000
0000
0000
0000
0000
0000
0000
0000
0000
0000
0000
0000
0000
0000
0000
0000
0000
0000
0000
,
0001
0000
0000
0000
0000
0000
0000
0000
0000
0000
0000
0000
0000
0000
0000
0000
0000
0000
0000
0000
0000
0010
0000
0000
0000
0000
0000
0000
0000
0000
0001
0000
0000
0000
0000
0000
0000
0000
0000
0010
0000
0000
0000
0000
1000
0000
0000
0000
0100
0000
0000
0000
0000
0000
0010
0000
0000
0000
0000
0000
0001
0000
0000
0000
0000
0000
0000
0000
0000
0000
0000
0000
1000
0000
0000
0000
0000
0000
0000
0000
0000
0000
0000
0000
0001
0000
0000
0000
0010
0000
0000
0000
0100
0000
0000
0000
1000
0000
0000
0000
0000
0000
0000
0000
0001
0000
0000
0000
0000
0000
0000
0000
0010
0000
0000
0000
0000
0000
0000
0000
1000
0000
0000
0000
0000
0000
0000
0000
0100
0000
0000
0000
0000
0000
0000
0000
0010
0000
0000
0000
0000
0000
0000
0000
0100
0000
0000
0000
0000
0000
0000
0000
0010
0000
0000
0000
0000
0000
0000
0000
0001
0000
0000
0000
0000
0000
0000
0000
0000
0000
0000
0000
0000
0000
0000
0000
0100
0000
0000
0000
0000
0000
0000
0000
0010
0000
0000
0000
0000
0000
0000
0000
,
1000
0000
0000
0000
0000
0000
0001
0000
0000
0000
0000
0000
0000
0000
0000
0000
0000
0000
0000
0000
0000
0000
0000
0000
0200
0000
0000
0000
0000
0000
0000
0000
0000
0000
0000
0000
0000
0000
0000
0000
0000
0000
0000
0000
0000
0000
0000
0000
0000
0000
0000
0000
0000
0000
0000
0000
0000
0000
0000
0000
0000
0000
0000
0000
0000
0000
0000
0000
0000
0000
0000
0000
0000
0000
0000
0000
0000
0000
0000
0000
0000
0000
0000
0000
0000
0000
0000
0000
0000
0000
0300
0000
0000
0000
0000
0000
0010
0000
0000
0000
0000
0000
0000
0000
0100
0000
0000
0000
0000
0000
0000
0000
0001
0000
0000
0000
0000
0000
0000
0000
1000
0000
0000
0000
0000
0000
0000
0000
0000
0000
0000
0000
0000
0000
0000
0000
0000
0000
0000
0000
0000
0000
0000
0000
0010
0000
0000
0000
0000
0000
0001
0000
0000
0000
0000
0000
1000
0000
0000
0000
0000
0000
0000
0000
0000
0000
0000
0000
0010
0000
0000
0000
0000
0000
0000
0000
0000
0000
0000
0000
0100
0000
0000
0000
0000
0000
0000
0000
0000
0000
0000
0000
,
0001
0010
1000
0001
0100
1000
0010
0100
0010
0100
1000
0001
0010
0100
0010
0100
1000
0001
0100
1000
0010
0100
1000
0001
,
0100
0010
0001
1000
0100
0010
0001
1000
0100
0001
1000
0010
0001
1000
0100
0010
0100
0010
0001
1000
0010
0100
0010
0100
,
0001
1000
0100
0010
0001
0100
0010
1000
0100
0010
0001
0100
0010
1000
0100
0010
0001
0000
0100
0000
0000
0010
0000
0000
,
1000
0000
0101
0010
0101
0000
1000
0000
0011
0000
0100
0000
0010
0000
0001
0000
,
1100
0000
0010
0002
0000
0000
0000
0000
0000
0000
0000
0000
,
0000
0000
0000
0000
0000
0000
0003
0000
0100
0000
0001
0000
1000
0000
0000
0000
0000
0000
0010
0000
0000
0000
0000
0000
0100
0000
0000
0001
0000
0000
1000
0000
0000
0010
0000
0000
0100
0000
0000
0000
0000
0000
0001
0000
0000
0000
0000
0000
,
0210
0000
0000
0000
0000
0000
0000
0300
0000
1010
0001
0000
0100
0000
0000
0010
0000
0000
1100
0000
0000
0001
0000
0000
,
0010
0000
1100
0000
1001
0000
0011
0000
1010
0100
0001
0000
0010
0000
0100
0000
,
1001
0010
0100
0010
0001
0010
0100
0010
,
1000
0000
0100
0000
0010
0000
0001
0000
0010
0000
0100
0000
1000
0000
0000
0010
0000
0000
0001
0000
0000
0000
0000
0000
0100
0000
0000
0000
0000
0000
0010
0000
0000
0000
0000
0000
1000
0000
0000
0000
0000
0000
0001
0000
0000
0000
0000
0000
,
0010
0000
0000
0000
0000
0000
0000
0000
0000
0100
0000
0000
0000
0000
0000
0000
0001
0000
0000
0000
0000
0000
0000
0000
0010
0000
0000
0000
0000
0000
0000
0000
0000
0100
0000
0000
0000
0000
0000
0000
0001
0000
0000
0000
0000
0000
0000
0000
0010
0000
0000
0000
0000
0000
0000
0000
1000
0000
0000
0000
0000
0000
0000
0000
0000
0000
0000
0000
0000
0000
0000
0000
0001
0000
0000
0000
0000
0000
0000
0000
0000
0000
0000
0000
0000
0000
0000
0000
0000
0000
0000
0000
0000
0000
0000
0000
0001
0000
0000
0000
0000
0000
0000
0000
0000
0000
0000
0000
0000
0000
0000
0000
0000
0000
0000
0000
0000
0000
0000
0000
0010
0000
0000
0000
0000
0000
0000
0000
0000
0000
0000
0000
0100
0000
0000
0000
0000
0000
0000
0000
0000
0000
0000
0000
1000
0000
0000
0000
0000
0000
0100
0000
0000
0000
0000
0000
0010
0000
0000
0000
0000
0000
0000
0000
0000
0000
0000
0000
0001
0000
0000
0000
0000
0000
0000
0000
0000
0000
0000
0000
0010
0000
0000
0000
0000
0000
0000
0000
0000
0000
0000
0000
,
0100
0000
0000
0000
0000
0000
0000
0000
0000
0000
0000
0000
0000
0000
0000
0000
0000
0000
0000
0000
0000
0000
0000
0000
0001
0000
0000
0000
0000
0000
0000
0000
0000
0000
0000
0000
0000
0000
0000
0000
0000
0000
0000
0000
0000
0000
0000
0000
1000
0000
0000
0000
0000
0000
0000
0000
0000
0000
0000
0000
0000
0000
0000
0000
0000
0000
0000
0000
0000
0000
0000
0000
0010
0000
0000
0000
0000
0000
0000
0000
0200
0000
0000
0000
0000
0000
0000
0000
0000
0000
0000
0000
0000
0000
0000
0000
0000
0000
0000
0000
0000
0000
0000
0000
0000
0000
0000
0000
0000
0000
0000
0000
0000
0000
0000
0000
0000
0000
0000
0000
0000
0000
0000
0000
0000
0000
0000
0000
0000
0000
0000
0000
0000
0000
0000
0000
0000
0000
0000
0000
0000
0000
0000
0000
0000
0000
0000
0000
0000
0000
0000
0000
0000
0000
0000
0000
0000
0000
0000
0000
0000
0000
0000
0000
0000
0000
0000
0000
0000
0000
0000
0000
0000
0000
0000
0000
0000
0000
0000
0000
0000
0000
0000
0300
0000
0000
0000
0000
0000
0000
0000
0000
,
1001
1000
0011
1000
0010
0001
1100
0010
,
0001
1000
0011
1000
0010
0001
1100
0010
,
0001
0100
0011
0100
0010
0001
1010
0100
,
0001
0010
0101
0010
0100
0001
1010
0100
,
0001
1000
0011
1000
0010
0001
1100
0010
,
0001
1000
0011
1000
0010
0001
1100
0010
,
0001
0100
0011
0100
0010
0001
1010
0100
,
0001
1000
0000
0000
0010
0000
0000
0000
0101
0000
0000
0000
0110
0000
0000
0000
1100
0000
0000
0000
1001
0000
0000
0000
1010
0000
0000
0000
0110
0000
0000
0000
,
0011
0000
0100
0001
1010
0000
0100
0010
,
1001
0000
0010
1100
0101
0010
0100
0001
,
1100
0000
0010
1000
0101
0010
1000
0100
,
0011
0000
0000
0000
0000
0000
0000
0000
0000
0000
0000
0000
0000
0000
0000
0000
0000
0000
0000
0000
0000
0000
0000
0000
0000
0000
0000
0000
0000
0000
0000
0000
0000
0000
0000
0000
0000
0000
0000
0000
0000
0000
0000
0000
0000
0000
0000
0000
0100
0000
0000
0000
0000
0000
0000
0000
0000
0000
0000
0000
0000
0000
0000
0000
0000
0000
0000
0000
0000
0000
0000
0000
0001
0000
0000
0000
0000
0000
0000
0000
0000
0000
0000
0000
0000
0000
0000
0000
0000
0000
0000
0000
0000
0000
0000
0000
1000
0000
0001
0000
0000
0000
0000
0000
0000
0000
0000
0000
0000
0000
0000
0000
0000
0000
0010
0000
0000
0100
0000
0000
1000
0000
0000
0000
0000
0000
0000
0000
0000
0000
0000
0000
0001
0000
0000
0000
0000
0000
0000
0000
0000
0000
0000
0000
0110
0000
0000
0000
0000
0000
0000
0000
0000
0000
0000
0000
1000
0000
0000
0000
0000
0000
0000
0000
0000
0000
0000
0000
0010
0000
0000
0000
0000
0000
0000
0000
0000
0000
0000
0000
0100
0000
0000
0000
0000
0000
0000
0000
0000
0000
0000
0000
,
1001
0000
0011
0100
0001
0000
1010
0000
,
0100
1000
0101
0010
0000
0000
1100
0001
,
0100
1001
0010
1100
,
0010
0100
1010
0001
0000
0000
1100
1100
,
0011
0000
1010
0001
0100
0000
0010
0000
,
0000
0000
1010
0001
0100
0000
0010
0000
,
2000
0001
0000
0001
,
3011
1100
0011
1100
0011
1100
0011
1100
0011
1100
0011
1100
0011
1100
0011
1100
,
0011
0100
0001
0100
0010
1000
0010
0100
0001
0010
0100
1000
0100
0010
0001
0100
,
0010
0100
0010
1000
0001
0010
0100
0010
0001
1000
0100
0010
0001
0100
0010
0100
,
1010
0001
1000
0010
0100
0010
1000
0001
0100
0010
1000
0010
0100
0001
1000
0010
,
0100
0001
1100
0010
0100
0001
1000
0001
0100
0001
0110
1000
0010
0100
0001
1000
,
0001
1000
0011
0100
0001
0010
0100
1000
0010
0100
0010
0100
0001
0010
0001
1000
,
0110
1000
0010
0100
0001
1000
0010
0100
0001
1000
0001
0010
0100
1000
0100
0010
,
0101
1000
0001
0100
0010
0100
0010
1000
0001
0010
0100
1000
0010
0100
0010
1000
,
0010
0100
0001
0010
0100
1000
0010
0100
0001
1000
0100
0010
0001
1000
0010
0100
,
0011
1000
0010
1000
0110
1000
0001
0100
0001
1000
0001
0100
0010
0100
0010
0100
,
0001
1000
0001
1000
0011
0100
0010
0100
0001
0100
0010
0100
1010
0001
1000
0010
,
1000
0001
1000
0010
1001
0100
0001
0100
0001
1000
0010
1000
0010
0100
0010
0100
,
0010
0100
0001
0100
0011
1000
0010
1000
0010
1000
0010
1000
0110
0001
0100
0010
,
1000
0100
0010
0100
0010
0001
0100
0010
1000
0001
1000
0100
0010
0001
0100
0010
,
1100
0001
0100
0010
1000
0001
0100
0010
0100
0001
1000
0100
0010
0001
0010
0100
,
1001
0010
1000
0001
0100
0010
0100
0010
1000
0001
0010
0100
1000
0100
0010
0001
,
1100
0010
0100
0001
1000
0001
1010
0100
0001
1000
0010
0100
0011
1000
0010
1000
,
0101
1010
1001
0101
0011
1010
0101
1001
,
0220
0030
0000
0000
,
0000
0000
0000
0300
0000
0000
0000
0000
0000
0000
0000
0000
0000
0000
0000
0000
;
