#TITLE:Retro Virus;
#SUBTITLE:;
#ARTIST:TAKAq;
#TITLETRANSLIT:;
#SUBTITLETRANSLIT:;
#ARTISTTRANSLIT:;
#CREDIT:;
#BANNER:;
#BACKGROUND:;
#LYRICSPATH:;
#CDTITLE:;
#MUSIC:retrovirus.mp3;
#OFFSET:-0.031;
#SAMPLESTART:47.198;
#SAMPLELENGTH:12.000;
#SELECTABLE:YES;
#BPMS:0.000=126.940,172.000=127.100;
#STOPS:;
#BGCHANGES:;
// cache tags:
#FIRSTBEAT:0.000;
#LASTBEAT:290.250;
#SONGFILENAME:Songs/dragon force/retrovirus/rv.sm;
#HASMUSIC:1;
#HASBANNER:0;
#MUSICLENGTH:140.860;
// end cache tags

//---------------dance-single - ----------------
#NOTES:
     dance-single:
     :
     Hard:
     10:
     1.000,1.000,0.390,0.199,1.000,909.000,55.000,28.000,0.000,5.000:  // measure 1
1000
0100
1000
0000
0000
0010
0100
0000
0001
0000
1000
0010
0100
0001
0100
0010
,  // measure 2
1000
0100
1010
0000
0000
0100
0010
0000
0001
0000
0100
0010
1000
0010
0100
0001
,  // measure 3
0010
0100
0101
0000
0000
0100
1000
0000
0010
0000
0001
0010
0100
1000
0010
0100
,  // measure 4
0001
0010
1001
0000
0000
0100
0010
0000
0010
0000
0100
1000
0100
0010
0001
0010
,  // measure 5
0100
0001
1010
0000
0000
0100
0001
0000
0010
0000
1000
0010
0100
0001
0100
0010
,  // measure 6
1000
0010
0101
0000
0000
0100
0010
0000
0001
0000
1000
0010
0100
0001
1000
0010
,  // measure 7
0100
0001
1010
0000
0000
0100
0001
0000
1000
0000
0010
0100
0001
0010
0100
1000
,  // measure 8
0010
0100
1001
0000
0000
1000
0001
0000
0001
0000
0001
1000
0010
0001
0100
0010
,  // measure 9
1001
0000
0100
0000
0110
0000
0001
0010
0100
0010
0001
0000
1010
0000
0101
0000
,  // measure 10
1000
0000
0110
0000
0001
0000
0101
0000
0010
1000
0010
0100
0001
0000
0010
0000
,  // measure 11
1010
0000
0100
0000
0101
0000
0001
0000
0010
0100
1000
0010
0100
0000
0001
0000
,  // measure 12
0101
0000
0010
0000
1010
0000
0100
0000
0001
0010
0100
0010
0001
0010
0100
0010
,  // measure 13
1001
0000
0010
0000
0110
0000
1000
0000
0010
0100
0001
0100
0010
1000
0010
0100
,  // measure 14
0101
0000
0100
0000
1010
0000
0010
0000
1000
0010
0100
0010
1000
0010
0100
0010
,  // measure 15
0110
0000
0001
0000
1010
0000
0100
0000
1000
0100
0010
0100
1000
0001
0100
0010
,  // measure 16
0101
0010
0100
1000
0100
0010
0100
1000
0100
0010
0100
1000
0100
0010
0001
0010
,  // measure 17
1002
0000
0013
0000
0000
0100
0010
0000
1000
0000
0010
0100
0001
0010
0100
1000
,  // measure 18
1020
0000
1030
0000
0000
0001
1000
0000
0010
0000
0100
0001
0010
1000
0010
0100
,  // measure 19
2001
0000
3010
0000
0000
1000
0010
0000
0100
0000
0001
0010
0100
1000
0010
0100
,  // measure 20
0021
0000
0130
0000
0000
0010
1000
0000
0010
0000
0100
0001
0100
0010
1000
0010
,  // measure 21
0201
0000
0301
0000
0000
0100
0010
0000
1000
0000
0010
0100
1000
0010
0100
1000
,  // measure 22
0120
0000
0031
0000
0000
0100
1000
0000
0010
0000
0001
0100
0010
1000
0010
0100
,  // measure 23
1002
0000
0103
0000
0000
1000
0010
0000
0001
0000
0100
1000
0010
0001
0100
1000
,  // measure 24
1020
0000
0130
0000
0000
1000
0010
0000
0100
0000
0001
0010
0100
1000
0100
0010
,  // measure 25
1000
0010
0100
0001
0010
0000
1000
0000
0010
0100
0001
0100
0010
0000
1000
0000
,  // measure 26
0010
0100
1000
0010
0100
0000
0001
0000
0100
0010
1000
0010
0100
0000
0001
0000
,  // measure 27
1000
0100
0010
0001
0010
0000
0100
0000
0001
0010
0001
0100
0001
0000
1000
0000
,  // measure 28
0010
0100
0010
0100
1000
0000
0010
0000
1000
0010
0100
0001
0010
0000
1000
0000
,  // measure 29
0001
1000
0010
1000
0001
0000
0001
0000
1000
0010
0100
0001
0010
0000
1000
0000
,  // measure 30
0100
0010
0001
0010
0001
0000
1000
0000
0010
0100
0010
1000
0010
0000
0001
0000
,  // measure 31
0100
0010
0100
0010
0001
0000
1000
0000
0010
1000
0010
0001
0100
0000
0010
0000
,  // measure 32
0000
0000
0000
0000
0000
0000
0000
0000
0000
0000
1001
0000
0110
0101
1001
0000
,  // measure 33
0110
1000
0010
0100
0001
0000
0010
0000
0100
0010
1000
0010
0100
0000
0001
0000
,  // measure 34
0010
0100
1000
0100
0010
0000
0100
0000
0001
0010
0100
0010
0001
0000
0100
0000
,  // measure 35
0010
1000
0100
0010
0001
0000
0100
0000
0010
1000
0010
0100
0001
0000
0010
0000
,  // measure 36
1000
0010
0100
0001
0100
0000
0010
0000
1000
0010
0100
1000
0010
0000
0001
0000
,  // measure 37
0010
0001
0100
0010
0001
0000
1000
0000
0001
0010
1000
0100
0010
0000
1000
0000
,  // measure 38
0010
0001
0100
1000
0010
0000
0100
0000
0010
0001
1000
0100
0010
0000
0001
0000
,  // measure 39
1001
1010
1001
1010
1001
0000
0101
1001
0101
1001
0101
0000
1010
0000
0000
0000
,  // measure 40
0000
0000
0001
0000
0100
0010
0000
0000
1000
0100
0000
1001
0000
0000
0000
0000
,  // measure 41
0002
0000
0200
0000
,  // measure 42
0320
0000
2030
0000
,  // measure 43
3200
0000
0023
0000
,  // measure 44
1330
0010
0100
0001
0010
0100
1000
0010
0100
0001
0100
1000
0010
0100
1001
0100
,  // measure 45
0010
1000
0010
0100
0001
0100
0010
1000
0100
0010
0001
0100
0010
1000
1010
0001
,  // measure 46
0100
0010
0001
0010
0100
0010
0001
0010
0100
1000
0010
0100
0001
0100
1010
0100
,  // measure 47
0001
0010
1000
0100
0010
0001
0100
0010
0001
1000
0100
0010
0001
0100
0010
1000
,  // measure 48
0010
0100
0001
0010
0100
1000
0010
0100
0001
0100
1000
0100
0001
0100
1000
0100
,  // measure 49
0001
0100
1000
0010
0001
0010
1000
0010
0001
0010
1000
0100
1000
0100
0010
0100
,  // measure 50
0010
0001
0010
0001
0100
0010
0100
0010
1000
0100
1000
0100
0010
0001
1000
0001
,  // measure 51
0100
0010
1000
0010
0100
0010
1000
0100
0010
0001
0100
0010
1000
0010
0100
0001
,  // measure 52
0010
0100
1000
0010
0100
1000
0010
0001
0100
0010
0001
0100
1000
0010
0100
0001
,  // measure 53
0100
0010
0001
1000
0100
0010
1000
0010
1000
0100
0010
0100
1000
0010
1000
0100
,  // measure 54
0010
0100
1000
0010
0001
0010
0100
0010
0001
0100
0001
0010
0100
0010
0001
0100
,  // measure 55
0001
0010
1000
0100
0010
1000
0100
0010
1000
0100
0010
0001
0010
0100
0001
0010
,  // measure 56
0100
0001
0010
0100
1000
0100
0001
0010
0100
0010
0001
0010
0100
0010
0100
1000
,  // measure 57
0100
0010
0100
0010
0001
0010
0100
0010
0100
1000
0100
0010
0100
0010
0001
0010
,  // measure 58
0001
0100
0001
0010
0001
0100
0001
0010
0001
1000
0001
0010
0001
0100
0001
0010
,  // measure 59
0100
1000
0100
1000
0010
1000
0010
1000
0100
1000
0001
1000
0010
1000
0100
1000
,  // measure 60
0010
1000
0001
1000
0010
1000
0100
0010
0001
0010
0100
0001
0100
0010
0100
0001
,  // measure 61
0100
0010
0100
0010
1000
0010
0100
0010
1000
0010
0100
0010
1000
0010
1000
0010
,  // measure 62
0100
0001
0100
0010
1000
0010
0100
0001
0100
0010
1000
0010
0100
0010
0001
1000
,  // measure 63
0100
0010
0001
0100
0010
0001
1000
0100
0010
0001
0010
0100
1000
0001
0010
0100
,  // measure 64
1000
0010
0100
1000
0010
1000
0100
0010
0001
0100
0010
0001
0010
0100
1000
0010
,  // measure 65
1001
0000
0000
0000
0000
0000
0000
0000
0010
1000
0010
0100
0010
0000
1000
0100
,  // measure 66
0010
0001
0010
0100
1000
0000
0010
0000
0100
0010
0001
0010
0100
0000
1000
0010
,  // measure 67
0100
0001
0100
0010
1000
0000
0010
0000
1000
0010
0100
0010
1000
0000
0001
0010
,  // measure 68
0100
1000
0100
0010
0001
0000
1000
0000
0001
0010
0100
1000
0100
0000
0001
0000
,  // measure 69
1000
0100
0010
0001
0010
0100
1000
0000
0110
1000
0100
0010
0100
1000
0100
0010
,  // measure 70
0100
1000
0010
1000
0100
0010
0100
1000
0010
0001
0010
0100
0010
0001
0100
0010
,  // measure 71
0001
0010
0100
1000
0010
0100
0001
0000
0010
1000
0100
0010
0001
0010
0100
1000
,  // measure 72
0010
0100
0001
0100
0010
1000
0010
0002
0023
2030
3020
0032
0203
0320
2030
3020
,  // measure 73
0230
0302
0023
0030
2002
0000
0000
0000
0000
3003
0000
0000
0000
0000
0000
0000
;
