#TITLE:As Madness Took me;
#SUBTITLE:;
#ARTIST:Dragonland;
#TITLETRANSLIT:;
#SUBTITLETRANSLIT:;
#ARTISTTRANSLIT:;
#CREDIT:;
#BANNER:BN.png;
#BACKGROUND:BG.png;
#LYRICSPATH:;
#CDTITLE:Authority.png;
#MUSIC:As Madness Took Me.mp3;
#OFFSET:-1.160;
#SAMPLESTART:80.008;
#SAMPLELENGTH:12.000;
#SELECTABLE:YES;
#BPMS:0.000=219.007,70.000=219.002,232.000=219.123;
#STOPS:;
#BGCHANGES:;
// cache tags:
#FIRSTBEAT:0.000;
#LASTBEAT:843.500;
#SONGFILENAME:Songs/toune/As Madness Took Me/AMTE.sm;
#HASMUSIC:1;
#HASBANNER:1;
#MUSICLENGTH:237.931;
// end cache tags

//---------------dance-single - Blank----------------
#NOTES:
     dance-single:
     Blank:
     Hard:
     11:
     1.000,1.000,1.000,0.790,0.719,1380.000,331.000,188.000,0.000,0.000:

1001
0010
0100
1000
0010
0100
1000
0001
,
0010
1000
0001
0010
0100
0001
0010
0001
,
1000
0100
1000
0010
1000
0100
0001
0010
,
1000
0010
0001
0100
0010
0001
1000
0010
,
0001
1000
0100
0001
0010
1000
0010
1000
,
0010
0001
0100
0010
1000
0010
0001
0010
,
1100
0001
0100
0001
0010
1000
0001
0010
,
0100
0001
0100
1000
0011
0100
1000
0010
,
0101
0101
0101
0101
0000
1000
0001
0010
,
1100
1100
1100
1100
0000
0010
1000
0100
,
1001
1001
1001
1001
0000
0010
1000
0100
,
0110
0110
0110
0110
0000
1000
0001
0010
,
0101
0101
0101
0101
0000
1000
0100
0010
,
0011
0011
0011
0011
0000
0001
1000
0010
,
1010
1010
1010
1010
0000
0100
0001
0010
,
1001
1001
1001
1001
0200
0000
0000
0300
,
1001
0000
0010
0000
0100
0000
0010
0000
0001
0000
1000
0000
0110
0000
0000
0010
0000
0000
0000
0000
0000
0010
0000
0000
,
0000
0000
0001
2020
0000
0000
0000
3030
,
2010
0000
0010
0000
0001
0000
0100
3000
,
0102
0000
0010
0000
0100
0000
0010
0003
,
1020
0000
0100
0030
0201
0000
1000
0300
,
0012
0000
0100
0003
0210
0000
0001
0300
,
1010
0100
0010
0101
0010
1000
0110
0001
,
0010
1000
0102
0000
0100
0100
0100
0103
,
1010
1010
1010
0110
0000
0101
0000
0000
,
0101
0101
0101
1010
0000
1100
0000
0000
,
1100
1100
1100
0101
0000
0011
0000
0000
,
0110
0110
0110
1100
0000
0101
0000
0000
,
1001
1001
1001
0011
0000
1010
0000
0000
,
1010
1010
1010
0110
0000
0101
0000
0000
,
2020
0000
0000
0000
0000
0000
0000
0030
,
0002
0000
0000
0000
0000
0000
0000
3003
,
0120
0000
0000
0030
2001
0000
0000
3000
,
0201
0000
0000
0300
0012
1000
1000
1003
,
0202
0303
0000
0000
0102
0100
0100
0003
,
2010
0000
0001
3000
0201
0010
0010
0300
,
2001
0000
0010
3000
2010
0010
0001
3000
,
1002
0000
0003
0210
0000
0300
1020
0030
,
2001
0010
0100
0010
0001
0010
0200
3000
,
0020
0000
0000
0330
1100
0100
0110
0010
,
2010
0100
3010
0102
0100
0013
2010
3001
,
0120
0130
2010
3010
,
2002
0000
0000
3003
0000
0000
1100
0000
,
0011
0000
0000
0000
0110
0000
0000
0000
1001
0000
0000
0000
,
0011
0110
1001
0110
,
0012
0100
1000
0013
0201
0300
0012
0003
,
1020
0031
1020
0130
1020
0000
0002
0000
,
0000
0000
0000
0033
0000
0000
0000
0000
,
1100
0000
1010
0000
,
0011
0000
0000
0000
0000
0000
0000
0000
1100
0000
0000
0000
0001
0010
0001
0010
,
1001
1001
1001
1001
0000
0010
0100
0010
,
0101
0101
0101
0101
0000
0010
1000
0100
,
0011
0011
0011
0011
0000
1000
0100
0001
,
0110
0110
0110
0110
0000
1000
0001
0010
,
1010
1010
1010
1010
0000
0100
0010
1000
,
0101
0101
0101
0101
0000
1000
0010
0001
,
1100
1100
1100
1100
0000
0010
0100
0001
,
0010
1000
0100
0010
0001
1000
0010
0100
0001
0010
0100
1000
0010
0100
0010
1000
,
0001
0100
0010
1000
0100
0010
0100
1000
0001
0010
0100
0010
,
0001
0100
0010
0100
0001
1000
0010
0100
0001
0010
0100
1000
,
0010
0100
0010
1000
0100
0010
0001
0100
0010
1000
0010
1000
,
0010
0100
0001
0100
0010
1000
0100
0010
0001
0010
0100
0010
,
0001
1000
0010
0100
0001
0100
0010
1000
0100
0010
0100
1000
,
0001
0010
0001
0100
0001
0010
0100
1000
0010
0100
0010
1000
,
0001
0010
0100
0010
0001
1000
0010
0100
0010
1000
0100
0010
,
0002
0003
0020
0030
0200
0300
2000
3000
,
1010
0010
0110
0000
0101
0100
1200
0000
,
0000
0000
0300
0000
1000
0100
0010
0100
1000
0001
0100
0010
0100
0001
0010
0100
,
2000
3000
0020
0030
0200
0000
0000
0300
,
1010
0110
1001
0101
,
0010
0100
0002
0000
,
2000
0000
0000
0003
0020
0000
0000
3000
,
0200
0000
0000
0000
0000
0000
0330
0000
0001
0100
0001
0100
0001
0100
0001
0100
,
0002
0013
0100
1000
0010
0100
0010
0100
0001
0000
0000
0000
1000
0100
0010
0001
,
0010
0100
0010
0001
1000
0010
0100
0001
1000
0100
0010
0001
,
0100
0001
0100
0010
1000
0100
0010
0100
1000
0010
0100
0010
,
1000
0100
0010
0001
0010
0100
0010
0001
1000
0010
0100
0001
,
0100
0010
1000
0010
0100
0001
0010
0100
1000
0010
0100
0001
,
0010
0001
0010
0000
2200
0000
3300
0000
0010
0100
0010
0000
2002
0000
3003
0000
,
0100
0001
0100
0000
2020
0000
3030
0000
0100
1000
0100
0000
0220
0000
0330
0000
,
2020
0000
0030
0002
0000
0003
0200
3300
,
0101
0101
0101
0101
,
1001
0010
0001
1000
0010
0100
0001
0010
,
1000
0010
0100
0010
1000
0100
0001
0010
,
0100
0001
1000
0100
0010
0100
0010
0001
,
1000
0010
0100
1000
0100
0010
0001
0010
,
2200
0000
0000
0300
0010
0000
0010
3000
,
0202
0000
0000
0003
2000
0000
0000
3300
,
1100
0010
0100
0001
0010
1100
0010
0100
0001
0010
0100
0010
,
1001
0010
0100
1000
0010
0100
0010
1000
0010
0100
0001
0010
0100
0000
0000
0000
,
0100
0010
0100
0010
0100
0010
0100
0010
1000
0100
0010
0001
0010
0100
0010
0001
,
1100
0000
0000
0000
0102
0100
0010
0003
,
1020
0000
1000
0030
2001
0001
0010
3000
,
0210
0000
0010
0300
0102
0100
1000
0003
,
0202
0000
0303
2200
0000
3300
0022
0033
,
0102
0010
1000
0100
1000
0100
0020
0003
,
2000
0000
0000
3030
0101
0000
0101
0000
,
2010
0000
0000
0000
0000
0000
0000
0000
0000
3000
0201
0000
0000
0000
0000
0300
0000
0000
0012
0000
0000
0003
0000
0000
,
0201
0001
0010
0300
2001
0001
0010
3000
,
2002
0000
0000
3003
0000
0000
1001
0000
,
0110
0000
0000
0000
0000
0101
0000
0000
0000
1010
0000
0000
,
0011
1100
0101
0110
,
2002
0000
3003
0120
0000
0030
2001
3000
,
0012
0103
1200
0310
0002
0000
2000
0000
,
0000
0000
0000
0000
0000
0000
0000
3003
,
0110
0000
1010
0000
,
0101
0000
0000
0000
1000
0100
1000
0100
0011
0000
0000
0000
0000
0000
0000
0000
,
1001
0001
0010
0100
,
0010
0000
0000
0000
1000
0100
0010
0000
0001
0000
0000
0000
0100
0000
0010
0000
,
0001
1000
0100
0001
0010
1000
0100
0010
,
0001
0010
0001
0000
1000
0000
0010
0000
0100
0000
0001
0000
1000
0000
0010
0000
,
0101
0000
0000
0000
1100
0000
0000
0000
1100
0000
0000
0000
0000
0000
0010
1000
,
0011
0110
0110
0000
,
2200
0000
0000
0000
0000
0000
3300
0100
0022
0000
0000
0000
0000
0000
0033
0100
,
2020
0000
0000
0000
0000
0000
0000
0000
0000
0000
0000
0000
3030
0000
0000
0001
,
0110
1100
0101
0011
,
1100
0000
0000
0000
1001
0000
0000
0000
0110
0000
0000
0000
0101
1000
0001
0010
,
1100
0110
1010
0101
,
0011
0100
0010
0100
1001
0000
0010
0000
0101
0000
1000
0000
0110
0100
0001
0100
,
1010
0000
0000
0000
0101
0000
0000
0000
0011
0000
0000
0000
0011
0100
1000
0100
,
1010
0110
1100
0101
,
0011
0100
1000
0010
0100
0001
1010
0100
0010
0001
0010
0100
,
2002
3003
0000
0000
,
1010
0010
0010
0010
0101
0001
0001
0001
,
1001
1000
1000
1000
0110
0100
0100
0100
,
1001
0001
0001
0001
0110
0010
0010
0010
,
1001
0000
0110
0000
1100
0000
0011
0000
1010
0000
0101
0000
,
1010
0010
0010
0010
0101
0100
0100
0100
,
0101
0001
0001
0001
1100
0100
0100
0100
,
1010
1000
1000
1000
0101
0001
0001
0001
,
0011
0010
0010
0010
1100
0100
0100
0100
,
1010
0010
0010
0010
1001
1000
1000
1000
,
1010
0010
0010
0010
0110
0100
0100
0100
,
0021
0001
0031
0201
0010
0310
2010
0010
,
0100
0100
0100
0100
0010
0010
0010
3010
,
0101
0001
0001
0001
1010
1000
1000
1000
,
0110
0010
0010
0010
1010
1000
1000
1000
,
0101
0001
0001
0001
0110
0010
0010
0010
,
2100
0100
0100
3100
1002
1000
1000
1003
,
2020
0000
3030
0001
0000
0000
0000
0100
,
0010
1010
0011
0110
,
2020
0000
0030
0002
0000
0003
0200
0300
,
0020
0000
0030
0002
0000
0003
0200
3300
,
0102
0000
0000
0000
0000
0000
0000
0000
0000
0003
0000
0000
0010
0000
1000
0000
0020
0000
0000
0000
0000
0000
0000
0000
,
0000
0000
0000
0000
0000
0000
0000
0000
0000
0000
0030
0000
1000
0100
0010
0001
,
2000
0000
0000
0000
0010
3000
0200
0000
,
0000
0000
0000
0000
0000
0000
0000
0300
,
0020
0000
0030
2000
3020
0000
0230
0302
,
0000
0000
0003
0000
0200
0000
0300
0000
1000
0100
0010
0100
1000
0000
0010
0000
,
0001
0010
0100
1000
0010
0100
0010
1000
0010
0100
0001
0010
0100
0010
0001
1000
,
0100
1000
0001
0010
0001
1000
0100
0010
0100
0010
0001
1000
0010
0100
0001
0010
,
0200
0300
2000
3000
0020
0030
0001
0010
,
0002
0000
1003
0100
2000
3000
0010
0100
,
0020
0000
0130
0000
0010
0001
2000
0000
,
0000
0000
3000
0000
0010
0000
0100
0000
0001
0010
0100
1000
0010
0100
0010
1000
,
0010
0100
0001
0010
0100
1000
0100
0010
0100
1000
0010
0100
0010
1000
0100
0010
,
0001
1000
0001
0010
0100
1000
0010
0100
0010
1000
0100
0010
0001
0010
0100
0010
,
0002
0000
0000
0000
0000
0000
0003
0000
0010
0100
2000
0000
0000
0000
3000
0000
,
0010
0001
0100
0000
0020
0000
0030
0000
2000
0000
0000
0000
0000
0000
3000
0000
,
0120
0000
0000
0030
0002
0000
0000
0000
,
0000
0000
0000
0000
0000
0003
1000
0100
,
0020
0030
1000
0100
0002
0023
0000
0000
,
0000
0000
0030
0000
0000
0000
0000
0000
0001
1000
0010
0100
0010
1000
0100
0010
,
0001
0010
0100
0010
0001
1000
0100
1000
0010
0100
0010
1000
0100
0010
0001
1000
,
0001
1000
0010
0100
0010
1000
0100
0010
0001
0010
0100
0010
0001
1000
0010
0100
,
0002
0000
0000
0003
0100
0020
0000
0000
,
0000
0000
0000
0000
0000
0000
0000
0030
,
1010
0010
0002
0013
,
0000
1000
0020
1030
,
1010
0000
0000
0000
0001
0010
0100
1000
0001
0000
0100
0000
0010
0000
0000
1000
,
0100
0010
0001
0100
0010
0100
0001
1000
0020
0000
0000
0000
0000
0000
0000
0000
,
0000
0030
1001
0000
0011
0000
0101
0000
,
0000
1010
0110
0011
,
0001
1000
0010
0100
0010
1000
0100
0010
0001
0010
0001
1000
0100
1000
0001
0010
,
0100
1000
0001
0010
0001
1000
0100
0010
0001
0010
0100
0010
0001
1000
0010
0100
,
0001
0000
0000
0000
0000
0000
0000
0000
0001
1000
0010
0100
0001
0010
0100
1000
,
0020
0000
0000
0000
0000
0030
1000
0010
,
1000
0010
0001
0100
0010
1000
0001
0000
,
1000
0100
0010
0100
0010
0001
1000
0010
0100
0010
1000
0100
0010
0001
0010
0100
,
1000
0001
0010
0100
0010
0001
1000
0100
0010
0000
0100
0000
0001
0000
0010
0000
,
1000
0010
0100
0010
0001
1000
0010
0100
,
0202
0000
0000
0303
0220
0000
0000
0330
,
0022
0000
0000
0033
2002
0000
0000
3003
,
0001
0010
0100
0010
0001
1000
0100
0010
0100
1000
0010
0100
0010
1000
0001
0010
,
0001
1000
0100
0010
0001
0100
0010
0100
0001
0010
0100
1000
0010
0100
0001
1000
,
0100
0010
0001
0010
0001
1000
0010
0100
0001
0100
0001
1000
0010
1000
0100
0010
,
0001
1000
0010
0100
0001
0100
0010
1000
0010
1000
0100
0010
0001
1000
0100
0010
,
0002
0003
0100
0010
0100
0010
1000
0001
,
1000
0010
0100
0001
0020
0000
0000
0030
,
0010
0100
0010
1000
0100
0010
0001
0100
0010
1000
0100
0010
0001
0100
0001
0100
,
0010
1000
0010
0100
0001
0010
0100
0010
0001
1000
0010
0100
0001
0010
0100
1000
,
0011
0110
2002
0000
,
0000
0000
0000
3003
0220
0330
0000
0000
,
1100
0110
0022
0000
,
0000
0000
0000
0033
2020
3030
0000
0000
,
0110
1100
0220
0000
,
0000
0000
0000
0330
0011
0000
0101
0000
,
2020
0000
0000
0000
0000
3030
0000
1010
,
0000
0110
0000
0011
0000
1010
0000
0101
,
0000
1010
0000
0022
0000
0000
0000
0033
,
1000
0100
0010
0001
1000
0010
0100
0001
0010
0100
1000
0100
0011
0000
0000
0000
,
0101
0000
2020
0000
0000
0000
3030
0101
,
0000
0110
0000
0011
0000
1100
0000
0101
,
0000
0000
0000
0000
0110
0000
0000
0000
0000
0000
0000
0000
0210
0000
0000
0000
0000
0000
0000
0000
0000
0300
0000
0000
,
1020
0000
0000
0000
0000
0030
1002
0000
,
0000
0000
0003
0210
0000
0000
0000
0000
,
0000
0000
0000
0300
0000
0000
1000
0000
0100
0000
1000
0000
0100
0000
1000
0000
0100
0000
1000
0000
0100
0000
1000
0000
,
0100
1000
0100
2001
0000
0000
0000
0000
0000
0000
0000
0000
,
0000
0000
0000
0000
,
0000
0000
0000
0000
,
0000
0000
0000
0000
0000
0000
0000
3000
;
