#TITLE:R8U;
#SUBTITLE:-rave medley nonstop-;
#ARTIST:KeeL/SHIKI;
#TITLETRANSLIT:;
#SUBTITLETRANSLIT:;
#ARTISTTRANSLIT:;
#CREDIT:;
#BANNER:r8ubana.png;
#BACKGROUND:r8ubg.png;
#LYRICSPATH:;
#CDTITLE:cdtitle.png;
#MUSIC:r8u.mp3;
#OFFSET:-0.080;
#SAMPLESTART:102.220;
#SAMPLELENGTH:12.000;
#SELECTABLE:YES;
#BPMS:0.000=162.000;
#STOPS:;
#BGCHANGES:;
// cache tags:
#FIRSTBEAT:8.000;
#LASTBEAT:392.000;
#SONGFILENAME:Songs/Japanese Collaboration Mix/R8U/R8U.sm;
#HASMUSIC:1;
#HASBANNER:1;
#MUSICLENGTH:145.862;
// end cache tags

//---------------dance-single - ----------------
#NOTES:
     dance-single:
     :
     Hard:
     9:
     0.677,0.840,0.603,0.295,0.134,560.000,88.000,43.000,0.000,0.000:
0000
0000
0000
0000
,
0000
0000
0000
0000
,
1001
0000
0000
0000
,
0001
0001
0001
0001
,
1000
0001
0100
0000
1000
0001
0100
0001
,
2000
0000
3000
0000
,
1001
0100
0010
0001
0100
0010
1000
0000
,
0010
0001
0010
0000
0100
1000
0010
0000
,
1000
0100
0010
0001
0100
0010
1000
0000
,
1000
0000
0000
1000
0000
0000
0001
0000
0000
0001
0000
0000
0100
0000
0110
0000
,
2002
0000
0000
3003
,
1001
0100
0010
0001
0100
0010
0100
0000
,
0100
0010
1000
0100
0010
0100
0010
0000
,
0001
0100
0010
1000
0001
1000
0001
0000
,
1000
0010
0100
0001
1000
0001
1000
0000
,
1001
0000
0100
0000
0010
0000
0001
0000
0100
0000
0010
0000
0000
0010
0000
0000
,
0100
0001
1000
0000
0100
1000
0001
0000
,
1001
0000
0100
0000
0010
0000
0001
0000
0100
0000
0010
0000
0000
0100
0000
0000
,
0010
0100
0010
0000
1000
0100
0010
0001
,
0100
0000
1000
0000
0001
0010
0100
1000
,
1001
0000
0110
0000
1000
0010
0100
0000
,
1001
0000
0110
0000
0001
1000
0001
0000
,
1000
0001
0100
0000
0001
1000
0010
0000
,
2000
0000
0000
0000
0000
3010
0110
0000
,
0002
0000
0000
0000
0000
0103
0110
0000
,
2001
3010
1002
0103
,
1002
0000
1003
0000
0010
0010
0100
0100
,
0020
0000
0000
0000
0000
0000
0000
0030
,
1000
0001
1000
0001
1000
0100
0010
0001
,
1000
0001
0100
0000
0001
1000
0001
0100
,
0001
1000
0010
0010
0100
0001
1000
0100
,
0200
0000
0000
0000
0000
0301
0110
0000
,
2000
0000
0000
0000
0000
3010
0110
0000
,
1001
0010
0110
1000
,
1001
0000
0110
0000
0010
0100
0010
0100
,
2002
0000
0000
3003
,
0001
0000
1000
0000
0001
0000
1000
0000
0001
1000
0001
1000
0000
0000
0000
0000
,
1001
0100
0010
0001
0100
0010
1000
0000
,
1000
0010
0100
0001
0010
0100
1000
0000
,
1000
0100
0010
0001
0100
0001
0010
0100
,
1000
0010
0100
0000
0001
0010
0100
0000
,
1001
0000
0000
2002
0000
0000
3003
0000
0110
0000
0000
0220
0000
0000
0330
0000
,
1001
0000
0000
2002
0000
0000
0000
0000
0000
0000
0000
0000
3003
0000
0000
0000
,
1010
0000
0000
2020
0000
0000
3030
0000
0011
0000
0000
0022
0000
0000
0033
0000
,
1001
0000
0000
1001
0000
0000
1001
0000
0001
1000
0001
1000
0000
0000
0000
0000
,
1001
0100
0010
0001
0100
0010
1000
0000
,
1000
0100
0010
0000
0010
0001
0010
0000
,
0100
1000
0100
0010
0001
1000
0010
0000
,
1010
0010
0100
0001
2002
0000
0000
3003
,
0020
0000
0000
0000
0000
0130
1001
0000
,
0200
0000
0000
0000
0000
0310
1001
0000
,
1010
0110
0101
0011
,
1001
0000
0000
1001
0000
0000
0010
0000
0000
0010
0000
0000
0100
0000
0010
0000
,
1000
0001
1000
0010
0100
0001
0010
0100
,
0010
0100
0010
0100
0010
0100
0010
0000
0001
0000
0100
0000
0010
0000
1000
0000
,
0001
1000
0100
0000
0001
1000
0001
1000
,
0001
1000
0001
1000
0001
0000
0010
0100
0010
0100
0010
0000
1000
0000
0001
0000
,
1000
0001
0100
0010
1000
0100
0010
0000
,
1000
0100
0010
0001
0100
0010
0100
0000
,
1000
0001
0010
0000
0001
1000
0100
0000
,
1000
0001
1000
0010
0100
0010
0100
0000
,
2002
0000
0000
0000
,
0000
0000
0000
3003
,
2001
0001
0001
3002
,
1000
1000
1000
2003
,
0010
3020
0100
0230
,
0010
0320
0100
0130
,
2001
3100
0120
0031
,
2001
3010
0110
1001
,
1001
0100
0000
0110
0001
0000
0110
0001
,
0000
0110
1000
0100
0010
0001
0100
0010
,
1000
1100
0000
0010
0110
0000
0001
0110
,
0000
1000
0001
0010
0100
1000
0010
0100
,
0010
1010
0000
0100
0110
0000
1000
1010
,
0000
0100
0010
0001
0100
0010
1000
0001
,
1000
0101
0000
0010
0011
0000
0001
1000
,
0100
0010
0001
0100
0010
0010
0100
0100
,
0001
1000
0100
0010
0001
1000
0200
0000
,
1300
0010
0100
0001
0010
0100
2000
0000
,
3010
0001
0100
0010
1000
0100
0020
0000
,
0130
0001
1000
0100
0010
0001
1000
0100
,
1000
0100
0010
0001
0010
0001
0010
0100
,
1000
0100
1000
0100
0010
0001
0010
0000
,
0001
0100
0001
0100
0010
1000
0010
0000
,
1010
0011
1100
0101
,
1001
0100
0010
0001
0100
0001
0001
0000
,
1001
0100
0010
0001
0010
1000
1000
0000
,
1001
1000
1100
0000
1001
0001
0101
0000
,
1001
0000
0110
0000
1001
1000
0010
1000
,
0001
0010
0001
1000
0010
0110
1001
0000
,
0100
0010
0001
0100
0010
1001
0110
0000
,
1001
0100
0010
0000
0110
0001
1000
0000
,
1001
0000
0110
0000
0001
1000
0010
0100
,
0001
1000
0001
0000
1000
0000
0001
1000
0000
0001
1000
0000
0001
1000
0001
1000
,
0010
0100
0010
0000
0100
0000
0010
0100
0000
0010
0100
0000
0010
0100
0010
0100
,
0001
1000
0001
0000
1000
0000
0001
1000
0000
0001
1000
0000
0001
1000
0001
1000
,
0001
0000
0010
0000
0100
0000
0100
2000
0000
0000
0000
0000
0002
0000
0000
0000
,
0000
0000
0000
0000
,
3003
0000
0000
0000
;
