#TITLE:Ending Credits;
#SUBTITLE:Sonic The Hedgehog 2 (1992);
#ARTIST:Masatu Nakamura;
#TITLETRANSLIT:;
#SUBTITLETRANSLIT:;
#ARTISTTRANSLIT:;
#CREDIT:;
#BANNER:Ending Credits.jpg;
#BACKGROUND:Ending Credits-bg.jpg;
#LYRICSPATH:;
#CDTITLE:gloveTitle.png;
#MUSIC:Ending Credits.mp3;
#OFFSET:1.945;
#SAMPLESTART:1.620;
#SAMPLELENGTH:12.000;
#SELECTABLE:YES;
#BPMS:0.000=114.641,4.000=140.702,40.000=136.832,56.000=136.833,124.000=136.834,176.000=119.815,200.000=115.226,256.000=112.397;
#STOPS:;
#BGCHANGES:;
// cache tags:
#FIRSTBEAT:4.000;
#LASTBEAT:336.250;
#SONGFILENAME:Songs/VGMP 3/Ending Credits (GLoVE)/Ending Credits.sm;
#HASMUSIC:1;
#HASBANNER:1;
#MUSICLENGTH:159.874;
// end cache tags

//---------------dance-single - HEAVY----------------
#NOTES:
     dance-single:
     HEAVY:
     Hard:
     12:
     1.000,1.000,1.000,0.719,1.000,931.000,391.000,115.000,0.000,77.000:

0000
0000
0000
0000
,
0010
0000
0000
0010
0000
0000
0010
0000
0000
0010
0000
0000
0010
0000
0000
0000
0000
0000
0010
0000
0000
0010
0000
0000
0000
0000
0000
0010
0000
0000
0010
0000
0000
0000
0000
0000
0010
0000
0000
0000
0000
0000
1001
0000
0100
0000
0010
0000
,
1201
0300
1010
0000
1001
0000
1021
0130
1001
0000
1010
0000
1102
0013
1100
0000
,
1021
0030
1100
0000
1010
0000
1201
0310
1001
0000
1100
0000
1021
0130
1001
0000
,
0112
0003
2110
3000
0101
0000
0112
1003
0110
0000
1100
0000
0101
0010
1100
0000
,
0101
0000
0110
0000
1100
0000
0101
1000
0110
0000
1100
0000
0011
0100
1001
0000
,
2110
3000
0011
0000
1010
0000
0112
1003
0110
0000
0011
0000
1210
0301
0110
0000
,
1012
0003
1100
0000
1010
0000
1210
0301
1010
0000
1100
0000
1021
0130
1001
0000
,
1120
0030
1001
0000
1100
0000
0112
1003
0110
0000
0011
0000
0110
1000
0011
0000
,
1010
0000
0110
0000
1010
0000
0011
0100
1010
0000
1100
0000
0110
0001
1010
0000
,
0001
0000
0000
0000
0000
0000
0000
0000
0001
0000
0000
0000
0000
0000
0000
0000
2011
0000
0000
0000
3000
0000
0000
0000
0001
0000
0000
0000
0000
0000
0000
0000
0201
0000
0000
0000
0300
0000
0000
0000
0201
0000
0000
0000
0300
0000
0000
0000
0011
0000
0000
0000
0000
0000
0000
0000
0201
0300
0000
0000
0200
0300
0000
0000
,
0021
0030
0021
0030
1001
0000
0201
0300
0001
0000
1000
0000
0101
0000
1010
0000
,
0001
0000
0000
0000
0000
0000
0000
0000
0001
0000
0000
0000
0000
0000
0000
0000
2011
0000
0000
0000
3000
0000
0000
0000
0001
0000
0000
0000
0000
0000
0000
0000
0201
0000
0000
0000
0300
0000
0000
0000
0201
0000
0000
0000
0300
0000
0000
0000
0011
0000
0000
0000
0000
0000
0000
0000
0201
0300
0000
0000
0200
0300
0000
0000
,
0021
0030
1021
1030
1001
1000
0201
0300
0011
0010
1000
0000
1100
1000
1010
1000
,
0111
0000
1001
0000
0110
0000
1001
0000
0110
0000
0010
0100
1000
0011
0100
0010
,
1001
0000
0110
0000
0010
0000
1100
0000
0011
0010
0000
1001
0000
0100
0010
0001
,
1100
0000
0010
0000
0010
1000
0101
0010
1001
0000
0100
0010
1000
0101
0010
0101
,
1010
0000
0010
0100
1000
0000
0001
0100
1000
0000
0001
0010
1000
0000
0001
0010
,
0101
0000
1001
0000
0110
0000
1001
0000
0110
0000
0010
0100
1000
0011
0100
0010
,
1001
0000
0110
0000
0010
0000
1100
0000
0011
0010
0000
1001
0000
0100
0010
0001
,
1100
0000
0010
0000
0010
1000
0101
0010
1001
0000
0100
0010
1000
0101
0010
0101
,
1010
0000
0011
0100
1001
0000
0011
0100
1001
0001
0110
1100
1001
0010
1100
0110
,
1002
0003
0000
0000
0010
0000
0100
0000
1021
0030
0100
0000
0000
0000
1002
0003
0000
0000
0000
0000
0000
0000
0000
0000
0010
0000
0000
0000
2100
3000
2010
3000
,
0001
0000
0000
0000
2100
3000
2010
3000
0101
0000
0010
0000
0200
0300
1002
0003
0000
0000
0010
0000
0000
0000
0100
0000
1000
0000
0001
0000
0000
0000
0000
0000
,
0012
0003
0100
0000
0000
0000
1000
0000
0021
0030
0000
0000
0000
0000
0002
0003
0000
0000
0000
0000
0000
0000
0000
0000
1000
0000
0000
0000
0000
0000
0000
0000
,
0000
0000
0000
0000
1000
0000
0000
0000
0001
0001
1000
0000
1010
0001
1100
1010
,
0102
0003
0000
0000
0010
0000
0100
0000
1021
0030
0100
0000
0000
0000
1002
0003
0000
0000
0000
0000
0000
0000
0000
0000
0010
0000
0000
0000
2100
3000
2010
3000
,
0001
0000
0000
0000
2100
3000
2010
3000
0101
0000
0010
0000
0200
0300
1002
0003
0000
0000
0010
0000
0000
0000
0100
0000
1000
0000
0001
0000
0000
0000
0000
0000
,
0012
0003
0100
0000
0000
0000
1000
0000
0021
0030
0000
0000
0000
0000
0002
0003
0000
0000
0000
0000
0000
0000
0000
0000
1000
0000
0000
0000
0000
0000
0000
0000
,
0000
0000
1000
0000
1000
0000
1000
0000
0101
0101
0010
0100
1010
1001
0100
0000
,
0010
0000
0010
0010
0000
0010
0010
0000
0010
0000
0010
0000
0010
0010
1000
1000
,
0001
0000
0000
0000
0000
0000
0000
0000
0000
0000
0000
0000
0000
0000
0000
0000
0000
0000
0000
0000
0000
0000
0000
0000
0010
0000
0000
0000
0000
0000
0000
0000
0000
0000
0000
0000
0000
0000
0000
0000
0000
0000
0000
0000
0000
0000
0000
0000
0101
0000
0000
0000
0000
0000
0000
0000
0000
0000
0000
0000
0000
0000
0000
0000
0000
0000
0000
0000
0000
0000
0000
0000
1000
0000
0000
0000
0000
0000
0000
0000
0000
0000
0000
0000
0100
0000
0000
0000
0000
0000
0000
0000
0000
0010
0000
0000
0001
0000
0000
0000
0000
0000
0000
0000
0000
0000
0000
0000
0001
0000
0000
0000
0000
0000
0000
0000
0000
0000
0000
0000
0100
0000
0000
0000
0000
0000
0000
0000
0000
0000
0000
0000
0000
0000
0000
0000
0000
0000
0000
0000
0000
0000
0000
0000
0011
0000
0000
0000
0000
0000
0000
0000
0000
0000
0000
0000
0100
0000
0000
0000
0000
0000
0000
0000
0000
0000
0000
0000
1000
0000
0000
0000
0000
0000
0000
0000
0010
0000
0000
0000
0000
0000
0000
0000
0000
0000
0000
0000
0000
0000
0000
0000
,
1001
0000
0000
0000
0000
0000
0000
0000
0010
0000
0000
0000
0000
0000
0000
0000
0101
0000
0000
0000
0000
0000
0000
0000
1000
0000
0000
0000
0100
0000
0000
0010
0001
0000
0000
0000
0001
0000
0000
0000
0100
0000
0000
0000
0000
0000
0000
0000
0011
0000
0000
0000
0000
0000
0000
0000
1000
0000
0000
0000
0000
0000
0000
0000
,
0010
0000
0000
0000
0000
0000
0000
0000
0000
0000
0000
0000
0100
0000
0000
0000
0000
0000
0000
0000
0000
0000
0000
0000
1001
0000
0000
0000
0000
0000
0000
0000
0000
0000
0000
0000
0010
0000
0000
0000
0000
0000
0000
0000
0000
0000
0000
0000
1101
0000
0000
0000
0000
0000
0000
0000
0000
0000
0000
0000
0010
0000
0000
0000
0000
0000
0000
0000
0000
0000
0000
0000
1000
0000
0000
0000
0000
0000
0000
0000
0000
0000
0000
0000
0110
0000
0000
0000
0000
0000
0000
0000
0000
1000
0000
0000
0001
0000
0000
0000
0000
0000
0000
0000
0000
0000
0000
0000
0101
0000
0000
0000
0000
0000
0000
0000
0000
0000
0000
0000
0010
0000
0000
0000
0000
0000
0000
0000
0000
0000
0000
0000
0100
0000
0000
0000
0000
0000
0000
0000
0000
0000
0000
0000
1011
0000
0000
0000
0000
0000
0000
0000
0000
0000
0000
0000
0100
0000
0000
0000
0000
0000
0000
0000
0000
0000
0000
0000
1001
0000
0000
0000
0000
0000
0000
0000
0010
0000
0000
0000
0000
0000
0000
0000
0000
0000
0000
0000
0000
0000
0000
0000
,
1100
0000
0000
0000
0000
0000
0000
0000
0010
0000
0000
0000
0000
0000
0000
0000
0101
0000
0000
0000
0000
0000
0000
0000
1000
0000
0000
0000
0100
0000
0000
0010
0001
0000
0000
0000
0001
0000
0000
0000
0100
0000
0000
0000
0000
0000
0000
0000
0011
0000
0000
0000
0000
0000
0000
0000
1000
0000
0000
0000
0000
0000
0000
0000
,
0010
0000
0000
0000
0100
0000
0000
0000
1001
0000
0000
0000
0010
0000
0000
0000
1101
0000
0000
0000
0010
0000
0000
0000
1000
0000
0000
0000
0110
0000
0000
1000
0001
0000
0000
0000
0101
0000
0000
0000
0010
0000
0000
0000
0100
0000
0000
0000
1011
0000
0000
0000
0000
0000
0000
0000
0110
0000
0000
0000
0000
0000
0000
0000
,
1000
0000
0000
0000
1000
0000
0000
0000
0000
0000
0000
0000
0001
0000
0000
0000
0000
0000
0000
0000
0000
0000
0000
0000
1000
0000
0000
0000
0000
0000
0000
0000
0001
0000
0000
0000
0000
0000
0000
0000
0100
0000
0000
0000
0000
0000
0000
0000
0001
0000
0000
0000
0001
0000
0000
0000
1000
0001
0000
0000
0100
0001
0000
0000
,
1010
0000
0001
1110
0000
0000
1100
1000
0010
0000
0000
0101
0000
0000
1010
0000
,
1100
0000
0000
0000
0000
0000
0000
0000
0101
0000
0000
0000
1110
0000
0000
0000
0000
0000
0000
0000
0000
0000
0000
0000
1000
0000
0000
0000
1000
0000
0000
0000
0200
0300
0000
0000
0020
0030
0000
0000
0002
0003
0000
0000
1210
0300
0000
0000
0000
0000
0000
0000
0000
0000
0000
0000
1000
0000
0000
0000
0000
0000
0000
0000
,
1010
0000
0001
1110
0000
0000
1001
1010
0100
0000
0000
0101
0010
0000
1000
0000
,
1010
0000
0000
0000
0002
0003
0000
0000
0010
0000
0000
0000
1102
0003
0000
0000
0020
0030
0000
0000
0000
0000
0000
0000
1020
0030
0000
0000
1000
0000
0000
0000
0200
0300
0000
0000
0000
0000
0000
0000
0200
0300
0000
0000
0011
0000
0000
0000
2100
3000
0000
0000
2001
3000
0000
0000
0110
0000
0000
0000
0001
0000
0000
0000
,
0110
0000
0001
1110
0000
0000
1100
1000
0010
0000
0000
0011
0000
0000
1010
0000
,
1100
0000
0000
0000
0000
0000
0000
0000
0101
0000
0000
0000
1110
0000
0000
0000
0000
0000
0000
0000
0000
0000
0000
0000
1000
0000
0000
0000
1000
0000
0000
0000
0200
0300
0000
0000
0020
0030
0000
0000
0002
0003
0000
0000
1210
0300
0000
0000
0000
0000
0000
0000
0000
0000
0000
0000
1000
0000
0000
0000
0000
0000
0000
0000
,
1010
0000
0000
0000
0000
0000
0001
0000
0000
1110
0000
0000
0000
0000
0000
0000
0000
0000
1001
0000
0000
1010
0000
0000
0101
0000
0000
1000
0000
0000
0000
0000
0000
1010
0000
0000
0101
0000
0000
0000
0000
0000
0010
0000
0000
0000
0100
0000
,
1010
0000
0000
0000
0000
0100
0010
0000
0000
0001
0000
0000
1100
0000
0000
1010
0000
0000
1001
0000
0010
1000
0000
1000
,
0210
0000
0300
0001
0000
0000
1100
0000
0001
0010
0000
0100
1020
0000
0131
1000
0000
0000
0011
0000
2200
0000
0000
3300
,
1002
0000
0000
0000
0003
0000
0010
0000
0000
0000
0000
0000
0101
0000
0000
0000
0010
0000
1000
0000
0000
0000
0001
0000
0210
0000
0000
0000
1301
0000
0020
0030
0000
0000
0200
0300
2001
3000
0000
0000
0020
0030
2001
3000
0000
0000
0201
0300
,
2010
0000
3000
0001
0000
0000
1010
0000
0100
1000
0000
0010
0100
0000
0011
1000
0000
0000
0011
0000
2200
0000
0000
3300
,
1000
0000
0000
0000
0000
0000
0001
0000
0000
0000
0000
0000
0110
0000
0000
0000
0001
0000
0100
0000
0000
0000
0010
0000
1000
0000
0000
0000
0101
0000
0020
0030
0000
0000
0200
0300
2001
3000
0000
0000
0020
0030
0201
0300
0000
0000
2001
3000
,
0100
0000
0100
0000
0000
0100
0010
0000
0000
0100
0000
0100
0001
0000
0001
0010
0000
0001
0010
0001
0010
0001
0000
0010
,
1100
0000
0010
0001
0000
0100
1011
0000
0000
1100
0000
0000
0101
0000
1000
0011
0000
0000
1011
0000
0000
0100
0000
1000
,
0010
0000
0000
0010
0000
0000
1001
0000
0000
0001
0000
0000
0120
0030
0000
2000
3000
0000
0102
0003
0020
0230
0300
0000
,
1001
0000
0100
0001
0000
0010
1101
0000
0000
1010
0000
0000
0101
0000
1000
0110
0000
0000
1101
0000
0000
0010
0000
1000
,
0100
0000
0101
0000
1010
0000
0011
0000
0100
0000
0000
0000
0010
0000
0010
0010
,
1000
0000
0010
0010
0010
0010
1000
0000
0010
0000
1010
0100
0011
1000
0110
1010
,
0001
0000
0110
1010
0101
0010
1000
0000
0000
0000
1100
0110
0011
0101
1010
0101
,
1000
0100
0001
0100
0010
0100
1010
0000
0001
0000
1000
0010
0101
0010
1001
0110
,
1000
0000
0101
1010
1100
0001
0010
0000
0000
0000
1100
0110
0011
0101
0110
1010
,
0100
0100
0001
0100
0010
0100
1010
0000
0001
0000
1000
0010
0100
0000
0001
0010
,
1000
0000
1000
0000
0010
0000
0010
0000
1000
0000
0010
0000
1000
0000
1000
0000
0001
0010
1000
0000
0000
0000
1000
0000
0010
0000
0000
0000
0010
0000
0010
0000
,
0100
0000
0000
0000
0000
0000
0002
0000
0000
0000
0000
0000
0000
0000
0000
0000
1000
0000
0000
0000
0000
0000
0000
0000
0100
0000
0000
0000
0000
0000
0000
0000
0000
0000
0000
0000
0000
0000
0000
0000
0000
0000
0000
0000
0000
0000
0000
0000
1010
0000
0000
0000
0000
0000
0000
0000
0000
0000
0000
0000
0000
0000
0000
0000
0000
0000
0000
0000
0000
0000
0000
0000
0100
0000
0000
0000
0000
0000
0000
0000
0000
0000
0000
0000
0000
0000
0000
0000
0000
0000
0000
0000
0000
0000
0000
0000
0010
0000
0000
0000
0000
0000
0000
0000
0000
0000
0000
0000
0000
0000
0000
0000
0000
0000
0000
0000
0000
0000
0000
0000
0100
0000
0000
0000
0000
0000
0000
0000
0000
0000
0000
0000
0000
0000
0000
0000
0000
0000
0000
0000
0000
0000
0000
0000
1100
0000
0000
0000
0000
0000
0000
0000
0000
0000
0000
0000
0010
0000
0000
0000
0000
0000
0000
0000
0000
0000
0000
0000
0000
0000
0000
0000
0000
0000
0000
0000
0000
0000
0000
0000
0100
0000
0000
0000
0000
0000
0000
0000
0000
0000
0000
0000
,
0013
2000
0000
0000
0000
0000
0000
0000
0100
0000
0000
0000
0010
0000
0000
0000
0101
0000
0000
0000
0000
0000
0000
0000
0000
0000
0000
0000
0000
0000
0000
0000
0100
0000
0000
0000
0010
0000
0000
0000
0001
0000
0000
0000
0000
0000
0000
0000
0101
0000
0000
0000
0010
0000
0000
0000
0000
0000
0000
0000
0100
0000
0000
0000
,
3010
0002
0100
0000
0000
0000
0000
0000
0110
0000
0000
0000
1000
0000
0000
0000
0010
0000
0000
0000
0100
0000
0000
0000
0110
0000
1000
0000
0000
0000
0010
0000
,
0103
2000
0010
0000
0000
0000
0000
0000
0101
0000
0000
0000
0001
0000
0000
0000
0011
0000
0001
0000
0101
0000
0001
0000
0101
0000
0010
0000
0001
0000
0101
0000
,
3001
0010
0000
1000
0000
0000
0000
0000
0000
1000
0000
0000
1000
0000
0000
0000
0000
0000
0001
0010
0000
1000
0000
0000
0000
0000
0000
1000
0000
0000
1000
0000
0000
0000
0000
0000
0001
0000
0000
0001
0000
0000
0001
0000
0000
0001
0000
0000
,
1000
0000
0000
0001
0000
0000
1000
0000
0000
0001
0000
0000
1000
0000
0010
0101
0000
0000
1010
0000
0110
1001
0000
0100
,
0011
0000
0000
1001
0000
0000
0100
0000
0000
1010
0000
0000
0001
0000
0000
1110
0000
0000
0011
0000
0100
1001
0000
0000
,
0110
0000
0010
0101
0000
1000
0010
0000
0000
0101
0000
0000
1000
0000
0000
0110
0000
1000
0001
0000
0000
1110
0000
0000
,
0101
0000
0001
1010
0000
0100
1001
0000
0000
1100
0000
0000
0010
0000
0000
0101
0000
0000
1100
0000
0000
0111
0000
1000
,
0011
0000
0000
1011
0000
0100
0001
0000
0000
1010
0000
0000
0100
0000
0000
1001
0000
0000
0010
0000
0001
1100
0000
0000
,
0010
0000
0000
1101
0000
0000
0110
0000
0000
1110
0000
0000
0101
0000
0011
1100
0000
0010
0100
0000
0000
1001
0000
0000
,
0100
0000
0000
1011
0000
0000
0100
0000
0000
1011
0000
0100
1010
0000
1001
0110
0000
0000
0001
0000
0000
1110
0000
0000
,
0001
1100
0010
1001
0100
0011
1000
1110
,
0001
1100
0010
1001
0100
0011
1000
1110
,
0001
0000
1100
0000
0010
0000
1001
0000
0100
0000
0011
0000
1010
0010
0001
0010
,
1000
0000
0000
0000
0000
0000
0010
0000
0000
0000
0000
0000
1000
0000
0000
0000
0000
0000
0010
0000
0000
0000
0000
0000
1000
0000
0000
0000
0000
0000
0010
0000
0000
0000
0000
0000
1000
0000
0000
0000
0100
0010
0001
0000
0000
0000
0100
0000
,
0011
0000
1101
0000
0010
0000
1101
0000
0011
0000
1000
0110
0001
0100
1010
0000
,
0011
0000
0000
0000
0000
0000
0000
0000
0000
0000
0000
0000
0000
0000
0000
0000
0000
0000
0000
0000
0000
0000
0000
0000
1011
0000
0000
0000
0000
0000
0000
0000
0000
0000
0000
0000
0000
0000
0000
0000
0000
0000
0000
0000
0000
0000
0000
0000
0110
0000
0000
0000
0000
0000
0000
0000
0000
0000
0000
0000
0000
0000
0000
0000
0000
0000
0000
0000
0000
0000
0000
0000
0111
0000
0000
0000
0000
0000
0000
0000
0000
0000
0000
0000
0000
0000
0000
0000
0000
0000
0000
0000
0000
0000
0000
0000
1100
0000
0000
0000
0000
0000
0000
0000
0000
0000
0000
0000
0000
0000
0000
0000
0000
0000
0000
0000
0000
0000
0000
0000
0001
0000
0000
0000
0000
0000
0000
0000
0000
0000
0000
0000
1100
0000
0000
0000
0000
0000
0000
0000
0000
0000
0000
0000
0000
0000
0000
0000
0000
0000
0000
0000
0000
0000
0000
0000
0001
0000
0000
0000
0010
0000
0100
0000
1000
0000
0000
0000
0001
0000
0000
0000
0000
0000
0000
0000
0000
0000
0000
0000
0000
0000
0000
0000
0000
0000
0000
0000
0100
0000
0000
0000
,
0011
0000
1101
0000
0010
0000
1101
0000
0011
0000
1000
0110
0001
0100
1010
0000
,
0011
0000
0000
0000
0000
0000
0000
0000
0000
0000
0000
0000
0000
0000
0000
0000
0000
0000
0000
0000
0000
0000
0000
0000
1011
0000
0000
0000
0000
0000
0000
0000
0000
0000
0000
0000
0000
0000
0000
0000
0000
0000
0000
0000
0000
0000
0000
0000
0110
0000
0000
0000
0000
0000
0000
0000
0000
0000
0000
0000
0000
0000
0000
0000
0000
0000
0000
0000
0000
0000
0000
0000
0111
0000
0000
0000
0000
0000
0000
0000
0000
0000
0000
0000
0000
0000
0000
0000
0000
0000
0000
0000
0000
0000
0000
0000
1100
0000
0000
0000
0000
0000
0000
0000
0000
0000
0000
0000
0000
0000
0000
0000
0000
0000
0000
0000
0000
0000
0000
0000
1000
0000
0000
0000
0000
0000
0000
0000
0000
0000
0000
0000
0101
0000
0000
0000
0000
0000
0000
0000
0000
0000
0000
0000
0000
0000
0000
0000
0000
0000
0000
0000
0000
0000
0000
0000
1000
0000
0000
0000
0100
0000
0010
0000
0001
0000
0000
0000
1000
0000
0000
0000
0000
0000
0000
0000
0000
0000
0000
0000
0000
0000
0000
0000
0000
0000
0000
0000
0100
0000
0000
0000
,
0010
0000
2101
3000
0210
0300
1021
0030
0102
0103
1100
0002
0013
2000
3121
0030
,
1002
0000
0000
0003
0000
0000
1010
0000
0000
0000
0000
0000
0100
0000
0000
0000
0000
0000
1100
0000
0000
0000
0000
0000
0010
0000
0000
0000
0000
0000
1010
0000
0000
0000
0000
0000
0001
0000
0000
0000
1000
0100
0011
0000
0000
0000
0000
0100
,
0002
0000
0003
0000
1010
0000
0000
0000
0002
0000
0003
0000
1010
0000
0000
0000
0000
0000
1201
0000
0300
0000
0000
0000
1021
0000
0030
0000
1000
0000
0100
0010
,
0001
0010
0100
0001
1000
0100
0001
0100
1000
0001
0100
0010
0001
0010
0100
0001
1000
0100
0010
0001
1000
0100
0010
0100
0010
0001
1000
0100
0010
0100
0010
0001
,
1000
0100
0010
0000
0000
0000
0000
0000
0000
0000
0000
0000
0000
0000
0000
0000
0000
0000
0000
0000
0000
0000
0000
0000
0000
0000
0000
0000
0000
0000
0000
0000
;
