#TITLE:Payon;
#SUBTITLE:(v2);
#ARTIST:soundTeMP;
#TITLETRANSLIT:;
#SUBTITLETRANSLIT:;
#ARTISTTRANSLIT:;
#CREDIT:;
#BANNER:payon.png;
#BACKGROUND:payon-bg.png;
#LYRICSPATH:;
#CDTITLE:!a0Title.png;
#MUSIC:payon.mp3;
#OFFSET:-3.903;
#SAMPLESTART:40.890;
#SAMPLELENGTH:12.000;
#SELECTABLE:YES;
#BPMS:0.000=90.000;
#STOPS:;
#BGCHANGES:;
// cache tags:
#FIRSTBEAT:0.000;
#LASTBEAT:204.000;
#SONGFILENAME:Songs/Essential Sim Collection/(Arch0wl) payon version 2/payon.sm;
#HASMUSIC:1;
#HASBANNER:1;
#MUSICLENGTH:143.229;
// end cache tags

//---------------dance-single - ----------------
#NOTES:
     dance-single:
     :
     Hard:
     8:
     0.394,0.409,0.447,0.468,0.056,264.000,64.000,67.000,0.000,0.000:  // measure 1
0012
0103
0000
0001
0000
1000
0000
0100
,  // measure 2
0000
0010
0000
0000
0000
1000
2100
3001
,  // measure 3
0000
0000
0001
0021
0031
1000
0000
0000
,  // measure 4
0100
2000
0000
3001
0000
0010
1000
0100
,  // measure 5
0000
0000
0000
0000
0000
0000
0000
0000
0001
0100
0001
0000
1000
0100
1000
0000
,  // measure 6
0000
0000
0100
0010
0001
0100
0000
0000
,  // measure 7
0100
0201
1300
1001
0100
0021
0130
1001
,  // measure 8
0000
1001
0000
0000
0020
0130
0000
1001
,  // measure 9
0000
0000
0000
0002
0000
1003
0000
1000
,  // measure 10
0000
1000
1000
0000
0001
0000
0010
0000
0100
0000
0210
0000
0310
0000
0001
0000
,  // measure 11
2001
3010
0100
1000
0010
0100
0000
1001
,  // measure 12
0000
0000
1000
0100
1000
0100
0010
0100
,  // measure 13
0000
0001
1000
0000
0000
0000
0000
0000
0000
0000
0000
0000
2002
0000
0000
0000
,  // measure 14
0000
0000
0000
3003
0000
0120
0000
1030
,  // measure 15
0000
0000
0100
0012
0103
1000
0000
0000
,  // measure 16
0102
1003
0000
1001
0000
0001
0002
1003
,  // measure 17
0000
0000
0000
0000
0000
2010
0000
3002
,  // measure 18
0000
0003
1000
0200
0310
0002
0000
0003
,  // measure 19
0100
0021
0000
1030
0000
1000
2001
3001
,  // measure 20
0000
0000
0000
0000
0000
0022
0030
1003
,  // measure 21
0000
0000
1000
0210
0001
1300
0000
0000
,  // measure 22
0100
0102
0013
2100
3001
1020
0130
2001
,  // measure 23
3010
0000
0000
0000
0000
0200
0000
0320
,  // measure 24
0000
0030
0002
2003
0000
0001
0000
3001
,  // measure 25
0000
0001
1000
0000
0100
0000
1000
0000
0100
0000
0010
0000
0001
0000
0100
0000
,  // measure 26
0010
1000
0001
0100
0001
0011
0000
1100
,  // measure 27
0000
0000
0001
2000
0000
3100
0000
0000
,  // measure 28
0001
0020
0000
0130
1000
0100
0010
0001
,  // measure 29
0100
0010
1000
0001
0000
0201
0000
1300
,  // measure 30
0000
0000
0001
2002
3000
0013
0000
0000
,  // measure 31
0100
1100
0000
0110
0000
0000
0001
0012
,  // measure 32
0103
1001
0000
0000
0000
1010
0000
0101
,  // measure 33
0000
0000
0001
2001
3001
0210
0301
1001
,  // measure 34
0000
0000
0001
0000
1000
0000
0001
0000
0010
0000
0001
0000
0001
0000
1000
0100
,  // measure 35
0010
0001
0100
0010
1000
0100
0010
0001
0100
0010
1000
0000
0000
0000
1000
0000
,  // measure 36
0000
0000
2000
0001
0000
3001
0000
0000
,  // measure 37
0000
2200
3000
0310
0000
0000
0001
0201
,  // measure 38
0301
1001
0000
0000
0000
1002
0000
1003
,  // measure 39
0000
0000
0001
0120
0130
2010
3010
0110
,  // measure 40
0000
0001
1000
0000
0100
0000
0001
0000
0100
0000
1000
0000
0100
0000
0001
0000
,  // measure 41
0000
0000
0000
0000
0000
0021
1030
1200
,  // measure 42
0301
0000
1000
1002
0103
1002
0013
0001
,  // measure 43
0010
0012
0003
0201
0300
0012
0003
0201
,  // measure 44
0300
0000
0200
1300
0000
0100
0010
0001
,  // measure 45
0100
0010
1000
0100
1000
0100
0010
0010
,  // measure 46
0001
0000
0000
1001
0000
0000
0000
0000
0000
0110
0000
0000
0000
0000
0000
0020
0000
0130
0000
0002
0000
1003
0000
0000
,  // measure 47
0100
0011
0000
0000
0000
2010
3001
1100
,  // measure 48
0000
0000
0000
0002
0000
0013
0000
0200
0000
1300
0000
0000
0100
0000
0000
0010
0000
0000
0000
0000
0000
0000
0000
0000
,  // measure 49
0000
0002
0013
0200
0310
2000
3010
0110
,  // measure 50
0000
1100
0000
0101
0000
1001
0000
0000
,  // measure 51
0000
0000
2002
0000
,  // measure 52
3003
0000
0000
0000
;

//---------------dance-double - ----------------
#NOTES:
     dance-double:
     :
     Hard:
     28:
     0.956,1.000,1.000,0.314,1.000,661.000,180.000,45.000,0.000,52.000:  // measure 1
00110000
00000000
01010001
00000000
00000100
00001000
10010010
00000000
00000000
00000000
11000000
00000000
00000000
00000000
01100001
00000000
,  // measure 2
00000100
00001000
00110010
00000000
00000000
00000000
00000000
00000000
00000000
00000000
10100001
00000000
01100100
00001000
00110010
00000000
,  // measure 3
00000000
00000000
00000000
00000000
01010000
00000000
00110001
00000000
10010100
00001000
10100010
00000000
00000000
00000000
00000000
00000000
,  // measure 4
01000000
00000000
00000000
00000000
10000001
01000000
00100000
00010000
10000100
01000000
00101000
00010000
10000010
00000000
00000000
00000000
00000000
00000000
00000000
00000000
00100000
00000000
00000000
00000000
10000000
00000000
00000000
00000000
01000001
00000000
00000000
00000000
,  // measure 5
00000100
00001000
00000010
00000000
00000000
00000000
00000000
00000000
00010000
01000000
00010001
00000000
10000100
01001000
10000010
00000000
,  // measure 6
00000000
00000000
00000000
00000000
01000000
00000000
00100001
00000000
00010100
00001000
01000010
00000000
00000101
00000000
00000101
00000000
,  // measure 7
01000000
00000000
02010001
00000000
13000100
00001000
10010010
00000000
01000000
00000000
00210000
00000000
01300000
00000000
10010001
00000000
,  // measure 8
00000100
00000000
00001000
00000000
10010010
00000000
00000000
00000000
00000101
00000000
00000000
00000000
00000011
00000000
00000000
00000000
00200000
00000000
00000000
00000000
01300001
00001000
00000001
00000000
00000000
00000000
00000000
00000000
10010000
00000000
00000000
00000000
,  // measure 9
00000100
00000000
00000000
00000000
00000100
00000000
00000000
00000000
00000000
00000000
00000000
00000000
00020100
00001100
00000000
00000000
00000000
00000000
00000000
00000000
10030100
00000000
00000000
00000000
00000100
00000000
00000000
00000000
10000000
00000000
00000000
00000000
,  // measure 10
00000000
00000000
10000000
00000000
10000000
00000000
00000000
00000000
00010100
00000000
00000100
00000000
00100010
00000000
00000000
00000000
01000000
00000000
00000000
00000000
02100000
00000000
00000000
00000000
03100000
00000000
00000000
00000000
00010001
00000010
00000001
00000000
,  // measure 11
20010000
00000000
30100000
00000000
01000100
00000100
10000010
00000000
00100000
00000000
01000001
00000000
00000000
00000000
10010000
00000000
,  // measure 12
00000000
00000000
10000001
01001000
10000001
01000000
00100000
01000000
,  // measure 13
00000000
00010000
10000000
00000000
00000100
00000001
00000010
00000000
00000000
00000000
00000000
00000000
22220000
00000100
00000010
00000001
,  // measure 14
00000100
00000000
00000010
00000000
00000001
00000000
00000100
00000000
00000010
00000000
00000001
00000000
33330100
00000000
00000000
00000000
00000000
00000000
00000000
00000000
10000100
00010000
10000000
00010000
10000000
00010000
10000000
00010000
10000100
00010000
10000000
00010000
,  // measure 15
10000000
00010000
10000000
00010000
10000000
00010000
10000000
00010000
10000100
00010000
10000000
00010000
10000010
00010000
10000000
00010000
10000001
00010000
10000000
00010000
10000010
00010000
10000000
00010000
10000000
00010000
10000000
00010000
10000000
00010000
10000000
00010000
,  // measure 16
10000100
00010000
10000000
00010000
10000100
00010000
10000000
00010000
10000000
00010000
10000000
00010000
10000100
00010000
10000000
00010000
10000000
00010000
10000000
00010000
10000100
00010000
10000000
00010000
10000100
00010000
10000000
00010000
10000001
00010000
10000000
00010000
,  // measure 17
10000100
00010000
10001000
00010000
10000001
00010000
10000000
00010000
10000010
00010000
10001000
00010000
10000001
00010000
10000000
00010000
10000000
00010000
10000000
00010000
10000100
00010000
10000000
00010000
10000000
00010000
10000000
00010000
10000001
00010000
10000000
00010000
,  // measure 18
10000000
00010000
10000000
00010000
10000000
00010000
10000000
00010000
10000100
00010000
10000000
00010000
10001000
00010000
10000000
00010000
10000010
00010000
10000000
00010000
10000001
00010000
10000000
00010000
10000000
00010000
10000000
00010000
10000000
00010000
10000000
00010000
,  // measure 19
10000100
00010000
10000000
00010000
10001000
00010000
10000000
00010000
10000000
00010000
10000000
00010000
10000001
00010000
10000000
00010000
10000000
00010000
10000000
00010000
10000010
00010000
10000000
00010000
10001000
00010000
10000000
00010000
10000100
00010000
10000000
00010000
,  // measure 20
10000000
00010000
10000000
00010000
10000000
00010000
10000000
00010000
10000000
00010000
10000000
00010000
10000000
00010000
10000000
00000000
00000000
00000000
00000000
00000000
00010100
00100000
01000000
10000000
01000000
00100000
00010000
00100000
01000001
10000000
01000000
00100000
,  // measure 21
00010000
00100000
01000000
10000000
01000000
00100000
00010000
00100000
01000010
10000000
01000000
00100000
00010001
00100000
01000000
10000000
01000100
00100000
00010000
00100000
01001000
10000000
01000000
00100000
00010000
00100000
01000000
10000000
01000000
00100000
00010000
00100000
,  // measure 22
01000010
10000000
01000000
00100000
00010001
00100000
01000000
10000000
01000100
00100000
00010000
00100000
01001000
10000000
01000000
00100000
00010010
00100000
01000000
10000000
01000100
00100000
00010000
00100000
01000010
10000000
01000000
00100000
00011000
00100000
01000000
10000000
,  // measure 23
01000100
00100000
00010000
00100000
01000000
10000000
01000000
00000000
00000000
00000000
00000000
00000000
00000000
00000000
00000000
00000000
00000000
00000000
00000000
00000000
00011001
10000000
00100000
01000000
00010000
10000000
00100000
01000000
00010110
10000000
00100000
01000000
,  // measure 24
00010000
10000000
00100000
01000000
00010000
10000000
00100000
01000000
00010001
10000000
00100000
01000000
00011000
10000000
00100000
01000000
00010000
10000000
00100000
01000000
00010010
10000000
00100000
01000000
00010000
10000000
00100000
01000000
00010100
10000000
00100000
01000000
,  // measure 25
00010000
10000000
00100000
01000000
00010100
10000000
00100000
01000000
00011000
10000000
00100000
01000000
00010001
10000000
00100000
01000000
00010010
10000000
00100000
01000000
00010100
10000000
00100000
01000000
00011000
10000000
00100000
01000000
00010010
10000000
00100000
01000000
,  // measure 26
00010100
10000000
00100000
01000000
00010010
10000000
00100000
01000000
00011000
10000000
00100000
01000000
00010100
10000000
00100000
01000000
00010010
10000000
00100000
01000000
00010001
10000000
00100000
01000000
00010000
10000000
00100000
01000000
00010100
10000000
00100000
01000000
,  // measure 27
00010000
10000000
00100000
01000000
00010000
10000000
00100000
01000000
00010010
10000000
00100000
01000000
00011000
10000000
00100000
01000000
00010000
10000000
00100000
01000000
00010100
10000000
00100000
01000000
00010000
10000000
00100000
01000000
00010000
10000000
00100000
01000000
,  // measure 28
10011001
10011001
10011001
00011000
00022000
00000000
00000000
00000000
00000000
00000000
00000000
00000000
01033000
00000000
00000000
00000000
10000000
00000000
00000000
00000000
01000000
00000000
00000000
00000000
00100000
00000000
00000000
00000000
00010000
00000000
00000000
00000000
,  // measure 29
01000000
00100000
10000000
00010000
00000000
02010000
00000000
13000000
,  // measure 30
00000000
00000000
00010000
20020000
30000000
00130000
00000000
00000000
,  // measure 31
01000000
11000000
00000000
01100000
00000000
00000000
00010000
00120000
,  // measure 32
01030000
10010000
00000000
00000000
00000000
10100000
00000000
01010000
,  // measure 33
00000000
00000000
00010000
20010000
30010000
02100000
03010000
10010000
,  // measure 34
00000000
00000000
00010000
00000000
10000000
00000000
00010000
00000000
00100000
00000000
00010000
00000000
00010000
00000000
10000000
01000000
,  // measure 35
00100000
00010000
01000000
00100000
10000000
01000000
00100000
00010000
01000000
00100000
10000000
00000000
00000000
00000000
10000000
00000000
,  // measure 36
00000000
00000000
20000000
00010000
00000000
30010000
00000000
00000000
,  // measure 37
00000000
22000000
30000000
03100000
00000000
00000000
00010000
02010000
,  // measure 38
03010000
10010000
00000000
00000000
00000000
10020000
00000000
10030000
,  // measure 39
00000000
00000000
00010000
01200000
01300000
20100000
30100000
01100000
,  // measure 40
00000000
00010000
10000000
00000000
01000000
00000000
00010000
00000000
01000000
00000000
10000000
00000000
01000000
00000000
00010000
00000000
,  // measure 41
00000000
00000000
00000000
00000000
00000000
00210000
10300000
12000000
,  // measure 42
03010000
00000000
10000000
10020000
01030000
10020000
00130000
00010000
,  // measure 43
00100000
00120000
00030000
02010000
03000000
00120000
00030000
02010000
,  // measure 44
03000000
00000000
02000000
13000000
00000000
11000011
01100110
00111100
,  // measure 45
00011000
00100100
01000010
10000001
01000010
00100100
00011000
00111100
,  // measure 46
01111110
00000000
00000000
11111111
00000000
00000000
00000000
00000000
00000000
01100000
00000000
00000000
00000000
00000000
00000000
00200000
00000000
01300000
00000000
00020000
00000000
10030000
00000000
00000000
,  // measure 47
01000000
00110000
00000000
00000000
00000000
20100000
30010000
11000000
,  // measure 48
00000000
00000000
00000000
00020000
00000000
00130000
00000000
02000000
00000000
13000000
00000000
00000000
01000000
00000000
00000000
00100000
00000000
00000000
00000000
00000000
00000000
00000000
00000000
00000000
,  // measure 49
00000000
01101001
10100011
11001010
10100110
11011011
01111110
10111101
,  // measure 50
00000000
11110000
00000000
00001111
00000000
11110000
00000000
00000000
,  // measure 51
00000000
00000000
22022022
00000000
,  // measure 52
33033033
00000000
00000000
00000000
;

//---------------dance-single - ----------------
#NOTES:
     dance-single:
     :
     Challenge:
     14:
     0.987,1.000,1.000,1.000,0.946,555.000,223.000,212.000,0.000,0.000:  // measure 1
0012
0103
0000
0001
0000
1000
0000
0100
,  // measure 2
0000
0010
0000
0000
0000
1000
2100
3001
,  // measure 3
0000
0000
0001
0021
0031
1000
0000
0000
,  // measure 4
0200
0000
0000
0000
0001
0001
0001
0001
0001
0001
0001
0301
1000
0000
0000
0000
0000
0000
0000
0000
0010
0000
0000
0000
1000
0000
0000
0000
0100
0000
0000
0000
,  // measure 5
0000
0000
0000
0000
0000
0000
0000
0000
1001
0110
1001
0000
1100
0011
1100
0000
,  // measure 6
0000
0000
0100
0010
0001
0100
0000
0000
,  // measure 7
0100
0201
1300
1001
0100
0021
0130
1001
,  // measure 8
0000
1001
0000
0000
0020
0130
0000
1001
,  // measure 9
0000
0000
0000
0000
0000
0000
0000
0000
0000
0000
0000
0001
0002
0000
0000
0000
0000
0000
0000
0000
1003
0000
0000
0000
0000
0000
0000
0000
1000
0000
0000
0000
,  // measure 10
0000
1000
1000
0000
0001
0000
0010
0000
0100
0000
0210
0000
0310
0000
0001
0000
,  // measure 11
2001
3010
0100
1000
0010
0100
0000
1001
,  // measure 12
0000
0000
1000
0100
1000
0100
0010
0100
,  // measure 13
0000
0001
1000
0000
0000
0000
0000
0000
0000
0000
0000
0000
2002
0000
0000
0000
,  // measure 14
0000
0000
0000
0000
0000
0000
0000
0000
0000
0000
0000
0000
3003
0000
0000
0000
0000
0000
0000
0000
1000
0210
1300
0021
1030
0120
1030
0012
1003
0210
1300
0021
,  // measure 15
1030
0120
1030
0012
1003
0210
1300
0021
1030
0120
1030
0012
1003
0210
1300
0021
1030
0120
1030
0012
1003
0210
1300
0021
1030
0120
1030
0012
1003
0210
1300
0021
,  // measure 16
1030
0120
1030
0012
1003
0210
1300
0021
1030
0120
1030
0012
1003
0210
1300
0021
1030
0120
1030
0012
1003
0210
1300
0021
1030
0120
1030
0012
1003
0210
1300
0021
,  // measure 17
1030
0120
1030
0012
1003
0210
1300
0021
1030
0120
1030
0012
1003
0000
0000
0000
0000
0000
0000
0000
0120
1030
0210
0301
0210
1300
0120
0031
0120
1030
0210
0301
,  // measure 18
0210
1300
0120
0031
0120
1030
0210
0301
0210
1300
0120
0031
0120
1030
0210
0301
0210
1300
0120
0031
0120
1030
0210
0301
0210
1300
0120
0031
0120
1030
0210
0301
,  // measure 19
0210
1300
0120
0031
0120
1030
0210
0301
0210
1300
0120
0031
0120
1030
0210
0301
0210
1300
0120
0031
0120
1030
0210
0301
0210
1300
0120
0031
0110
0000
0000
0000
,  // measure 20
0000
0000
0000
0000
0000
0000
0000
0000
0000
0000
0000
0000
0000
0000
0000
0000
0000
0000
0000
0000
0012
1003
0021
1030
0012
1003
0012
1003
0021
1030
0120
1030
,  // measure 21
0120
1030
0210
1300
0120
1030
0210
1300
0102
0013
0201
0310
0201
0310
0102
0013
0201
0310
2100
3010
1200
0310
2100
3010
1200
0310
1200
0310
2100
3010
1200
0310
,  // measure 22
0102
0013
0102
1003
0120
1030
0102
1003
0210
1300
0201
1300
0102
1003
0120
1030
0201
0310
0102
0013
2001
3010
2100
3001
0120
0031
1200
0301
0120
0031
1200
0301
,  // measure 23
0220
0330
0000
0000
0000
0000
0000
0000
0000
0000
0000
0000
0000
0000
0000
0000
0000
0000
0000
0000
0001
0120
0031
2100
3001
1020
0031
2100
3001
0210
0301
1020
,  // measure 24
0031
2010
3001
0120
0031
0210
0301
2010
3100
0012
0103
1020
0130
2001
3100
0021
0130
1002
0103
2010
3100
1002
0103
0021
0130
1020
0130
0012
0103
1002
0103
2001
,  // measure 25
3100
1002
0103
2001
3100
0000
0000
0000
0100
0000
0000
0000
1000
0000
0000
0000
0100
0000
0000
0000
0010
0000
0000
0000
0001
0000
0000
0000
0100
0000
0000
0000
,  // measure 26
0010
0000
0000
0000
1000
0000
0000
0000
0001
0000
0000
0000
0100
0000
0000
0000
0001
0000
0000
0000
1000
0210
1300
0102
1003
0120
1030
0201
1300
0120
1030
0102
,  // measure 27
1003
0120
1030
0201
1300
0210
1300
0201
1300
0120
1030
0102
1003
0120
1030
0102
1003
0210
1300
0102
1003
0120
1030
0102
1003
0210
1300
0102
1003
0210
1300
0102
,  // measure 28
1003
0120
1030
0201
1300
0000
0000
0000
0000
0000
0000
0000
0100
0000
0000
0000
1000
0000
0000
0000
0100
0000
0000
0000
0010
0000
0000
0000
0001
0000
0000
0000
,  // measure 29
0100
0010
1000
0001
0000
0201
0000
1300
,  // measure 30
0000
0000
0001
2002
3000
0013
0000
0000
,  // measure 31
0100
1100
0000
0110
0000
0000
0001
0012
,  // measure 32
0103
1001
0000
0000
0000
1010
0000
0101
,  // measure 33
0000
0000
0001
2001
3001
0210
0301
1001
,  // measure 34
0000
0000
0001
0000
1000
0000
0001
0000
0010
0000
0001
0000
0001
0000
1000
0100
,  // measure 35
0010
0001
0100
0010
1000
0100
0010
0001
0100
0010
1000
0000
0000
0000
1000
0000
,  // measure 36
0000
0000
2000
0001
0000
3001
0000
0000
,  // measure 37
0000
2200
3000
0310
0000
0000
0001
0201
,  // measure 38
0301
1001
0000
0000
0000
1002
0000
1003
,  // measure 39
0000
0000
0001
0120
0130
2010
3010
0110
,  // measure 40
0000
0001
1000
0000
0100
0000
0001
0000
0100
0000
1000
0000
0100
0000
0001
0000
,  // measure 41
0000
0000
0000
0000
0000
0021
1030
1200
,  // measure 42
0301
0000
1000
1002
0103
1002
0013
0001
,  // measure 43
0010
0012
0003
0201
0300
0012
0003
0201
,  // measure 44
0300
0000
0200
1300
0000
0100
0010
0001
,  // measure 45
0100
0010
1000
0100
1000
0100
0010
0010
,  // measure 46
0001
0000
0000
1001
0000
0000
0000
0000
0000
0110
0000
0000
0000
0000
0000
0020
0000
0130
0000
0002
0000
1003
0000
0000
,  // measure 47
0100
0011
0000
0000
0000
2010
3001
1100
,  // measure 48
0000
0000
0000
0002
0000
0013
0000
0200
0000
1300
0000
0000
0100
0000
0000
0010
0000
0000
0000
0000
0000
0000
0000
0000
,  // measure 49
0000
0002
0013
0200
0310
2000
3010
0110
,  // measure 50
0000
1100
0000
0101
0000
1001
0000
0000
,  // measure 51
0000
0000
2002
0000
,  // measure 52
3003
0000
0000
0000
;
