#TITLE:Another Day;
#SUBTITLE:(Technical Lolibreak Remix);
#ARTIST:Odaxelagnia;
#TITLETRANSLIT:;
#SUBTITLETRANSLIT:;
#ARTISTTRANSLIT:;
#CREDIT:The Cosmic Pope Vs. Christalshizzle;
#BANNER:Bn-Another.png;
#BACKGROUND:Bg-Another.png;
#LYRICSPATH:;
#CDTITLE:;
#MUSIC:Another Day (Technical Lolibreak Remix).ogg;
#OFFSET:0.016;
#SAMPLESTART:16.021;
#SAMPLELENGTH:19.200;
#SELECTABLE:YES;
#BPMS:0.000=150.000;
#STOPS:;
#BGCHANGES:;
// cache tags:
#FIRSTBEAT:8.000;
#LASTBEAT:314.500;
#SONGFILENAME:Songs/SPEEEDCOOOORE 2/Another Day - [Christal Vs. Pope]/Another Day (Technical Lolibreak Remix).sm;
#HASMUSIC:1;
#HASBANNER:1;
#MUSICLENGTH:125.952;
// end cache tags

//---------------dance-single - B. Abear Vs. C. Spae----------------
#NOTES:
     dance-single:
     B. Abear Vs. C. Spae:
     Challenge:
     12:
     0.943,0.874,0.302,0.453,0.957,733.000,38.000,57.000,27.000,0.000:

0000
0000
0000
0000
,
0000
0000
0000
0000
,
0001
1000
0100
1000
0001
0100
0001
0000
1000
0100
0010
0000
0001
1000
0001
1000
,
0010
0000
0100
0010
0000
0000
0010
0000
0000
0200
0000
0000
0301
0000
0010
0000
,
1100
0000
0000
0000
1000
0000
1000
0000
1000
0010
0200
0000
0300
0000
0001
1000
,
0004
0000
0000
4000
0000
0000
0000
0000
0000
0000
0000
0000
3003
0000
0000
0000
0000
0000
0000
0000
0000
0000
0000
0000
0001
0000
0000
0000
0000
0000
0001
0000
1000
0000
0001
0000
1000
0000
0000
0100
0000
0000
0010
0000
0000
0100
0000
0000
,
1000
0000
0001
0000
1000
0010
0100
0001
2000
0000
0000
0000
3002
0000
0000
0013
,
0100
0000
0000
1000
0000
0000
0100
0000
0000
1000
0000
0000
0000
0000
0000
0000
0000
0000
0001
0000
0000
0000
0000
0000
1000
0000
0000
0000
0000
0000
1000
0000
0000
0000
0000
0000
0010
0000
0100
0000
0010
0000
0100
0000
0010
0000
0100
0000
,
0001
1000
0100
1000
0001
0100
0001
1000
0400
0000
1300
0000
0001
0100
0010
0100
,
0001
0000
0000
1000
0100
0010
0001
1000
0001
0000
0004
0000
0003
0000
1000
0000
,
1100
0000
0000
0000
0100
0000
1000
0000
0001
0010
0100
1000
0001
0100
0001
0010
,
0400
0000
0000
0000
0310
0000
0000
0000
0001
0000
0100
0000
0010
1000
0010
1000
,
0001
0000
0001
0010
0100
0000
1000
0000
0001
0100
0010
0000
1000
0000
0000
0000
,
1001
0000
0000
0000
0001
0000
1000
0000
0100
0000
0400
0000
0310
0001
1000
0010
,
0100
0000
0001
0000
1000
0000
0001
0MM0
0MM0
0MM0
1000
0000
0001
0001
0000
0000
,
1000
0000
0000
0000
0000
0000
1000
0000
0000
0000
0000
0000
0100
0000
0000
0000
0000
0000
0010
0000
0001
0000
0010
0000
0001
0000
0000
1000
0000
0000
0001
0000
0000
0100
0000
0000
0000
0000
0000
0000
0000
0000
0010
0000
0000
0000
0000
0000
,
0010
0000
4000
0000
3001
0000
0010
0000
0001
0010
0000
0000
0100
0000
0000
0000
,
1000
0010
0100
0000
0001
0010
0100
1000
0100
0010
0001
0000
1000
0000
0001
1000
,
0100
0000
0010
0000
0100
0000
1000
0000
0001
0010
0100
0000
1000
0000
0000
0000
,
0001
0000
0001
0000
1000
0000
0001
0000
0100
0010
0100
0010
1000
0001
1000
0001
,
0100
0000
0010
0000
1000
0000
0001
0000
0010
0001
0010
0000
0100
0000
1000
0000
,
0001
0100
0001
0000
1000
0000
0000
0000
0001
0000
0100
0000
0010
0000
0000
0000
1000
0000
0100
0000
0010
0000
0001
0000
1000
0000
0000
0000
0000
0000
0000
0000
,
0M00
0000
0001
00M0
0100
M010
0000
100M
,
0M00
00M0
M001
0M01
,
10M1
0000
1000
010M
0010
M001
0000
1M00
,
00M0
0000
0000
0000
0000
0000
1000
0000
0000
0000
0000
0000
0M00
0000
0000
0000
0000
0000
0000
0000
0000
0000
0000
0000
0001
0000
0000
1000
0000
0000
0100
0000
0010
0000
0001
0000
1000
0000
0000
0010
0000
0000
0100
0000
0001
0000
1000
0000
,
0001
0010
0001
1000
0010
0100
0004
0000
1003
0000
1000
0100
0040
0000
0000
0000
,
0130
1000
0001
0100
0010
0000
0200
0000
0301
1000
0001
0000
2000
0000
0001
0000
,
3001
0000
0000
0000
0000
0000
1000
0000
0000
1000
0000
0000
0100
0000
0000
0000
0000
0000
1000
0000
0000
0000
0000
0000
0001
0000
0100
0000
0001
0000
0100
0000
0001
0000
0100
0000
0001
0000
0000
0000
0000
0000
0000
0000
0000
0000
0000
0000
,
1000
0000
0001
0000
1000
0000
0001
0000
1000
0000
0001
0000
1000
0000
0000
0000
0000
0000
0000
0000
0000
0000
0000
0000
0001
0000
0000
0100
0000
0000
0010
0000
0000
1000
0000
0000
0001
0000
0000
0000
0000
0000
1000
0000
0000
0000
0000
0000
,
2002
0000
3003
0000
0000
0000
0022
0003
,
0031
0000
1000
0000
0010
0000
0100
0000
0001
1000
0400
0000
1300
0000
0001
0000
,
0100
0000
0000
0000
0000
0000
0100
0000
0000
0010
0000
0000
1000
0000
0000
0000
0000
0000
0001
0000
0000
0000
0000
0000
0010
0000
0000
0100
0000
0000
0010
0000
0000
0100
0000
0000
1000
0000
0001
0000
0100
0000
0001
0000
1000
0000
0100
0000
,
1000
0000
0001
1000
0100
0010
0001
0000
1000
0000
0001
0000
0100
0000
0010
0000
,
1000
0000
0001
0000
0101
0000
0000
0000
0100
0010
0100
0010
4000
0000
3001
0000
,
0001
0000
0010
0000
0100
0000
0010
0001
0100
0010
0000
1000
0100
0010
0004
0000
,
1003
0000
1000
0001
0010
0000
0100
1000
0001
0000
0001
0000
0100
0000
0010
0000
,
1000
0000
0001
0000
1000
0000
0001
0000
0000
0010
0000
0000
0100
0000
0000
0000
0000
0000
1000
0000
0000
0000
0000
0000
0100
0000
0000
0000
0000
0000
0010
0000
0000
0000
0000
0000
0001
0000
1000
0000
0010
0000
1000
0000
0001
0000
0010
0000
,
0001
0100
0010
1000
0001
0000
0010
0000
0001
0000
0001
0000
1000
0100
0010
0001
,
1000
0000
0010
0000
1000
0000
0000
0000
0001
0000
0010
0000
0100
0000
0010
0000
0004
0000
0000
0000
0000
0000
0000
0000
1003
0000
0000
0010
0000
0000
0100
0000
,
0001
1000
0400
0310
0004
1003
0010
0100
,
0001
0010
0100
1000
0001
0000
1000
0000
0100
0010
0001
1000
0010
0000
0100
0000
,
0010
0000
1000
0000
0001
0000
4000
0000
3001
0100
0001
0100
0010
1000
0100
0010
,
0001
0000
0000
0000
0000
0000
1000
0000
0000
0000
0000
0000
0001
0000
0000
1000
0000
0000
0001
0000
0010
0000
0001
0000
0020
0000
0000
0000
0000
0000
0130
0000
0000
0000
0000
0000
1000
0000
0000
0000
0000
0000
0001
0000
0000
0000
0000
0000
,
0100
0000
0010
1000
0001
1000
0100
0010
0001
0000
0001
0000
1000
0100
0010
0001
,
1000
0000
0000
0000
0000
0000
1000
0000
0001
0000
1000
0000
0001
0000
0000
0100
0000
0000
0010
0000
0000
1000
0000
0000
0001
0000
0000
0010
0000
0000
0001
0000
0000
0010
0000
0000
0100
0000
0000
0000
0000
0000
1000
0000
0000
0000
0000
0000
,
0001
0100
0010
1000
0001
0100
0010
1000
0001
0000
0001
0000
1000
0001
1000
0100
,
0020
0030
0000
0000
0000
0000
0002
0003
0000
0000
0200
0300
0110
0000
0020
0030
,
2000
3000
0000
0000
0002
0003
0000
0000
2000
3000
0200
0300
0000
0000
0000
0000
,
0210
0300
0000
0000
0000
0000
0020
0030
0000
0000
0002
0003
1001
0000
2000
3000
,
0020
0000
0000
0030
0000
0000
0000
0000
0000
0000
0000
0000
0200
0000
0000
0300
0000
0000
0M00
0000
0000
0000
0000
0000
1000
0000
0001
0000
0100
0000
0001
0000
1000
0000
0100
0000
0010
0000
0001
0000
1000
0000
0001
0000
0100
0000
0010
0000
,
1000
0000
0001
0000
0010
0100
1100
1000
,
0001
1000
0100
0010
0001
1000
0001
0000
0000
0000
0000
0000
1000
0000
0000
0000
0000
0000
0001
0100
0010
1000
0001
1000
,
0100
0000
1000
0000
0010
0100
0101
0004
,
1003
0000
0000
0000
0000
0000
0000
0000
1000
0000
0000
0000
1000
0000
1000
0001
,
0100
0000
0000
0010
0000
0000
1000
0000
0000
0001
0000
0000
0010
0000
0000
0100
0000
0000
1000
0000
0000
0001
0000
0000
0100
0000
0001
0000
1000
0000
0001
0000
0000
0010
0000
0000
0100
0000
0000
0000
0000
0000
1000
0000
0000
0100
0000
0000
,
0010
0001
0000
1000
0010
0000
0100
0010
0200
0000
0301
1000
0000
0001
1000
0100
,
1000
0000
0000
0000
0000
0000
0000
0000
0000
0000
0000
0000
0001
0000
0000
0000
0000
0000
0000
0000
0000
0000
0000
0000
0010
0000
0000
0000
0000
0000
0000
0000
0000
0000
0000
0000
0100
0000
0000
0000
0000
0000
0000
0000
0000
0000
0000
0000
1000
0000
0000
0000
0000
0000
0000
0000
0001
0000
0000
0000
0000
0000
0000
0000
1000
0000
0000
0000
0000
0000
0000
0000
0001
0000
0000
0000
0000
0000
0000
0000
0000
0000
0000
0000
0100
0000
0000
0000
0000
0000
0000
0000
0000
0000
0000
0000
0010
0000
0000
0000
0000
0000
0000
0000
0000
0000
0000
0000
0000
0000
0000
0000
0000
0000
1000
0000
0000
0000
0000
0000
0000
0000
0000
0000
0000
0000
0000
0000
0000
0000
0000
0000
0001
0000
0000
0000
0000
0000
0000
0000
0000
0000
0000
0000
0010
0000
0000
0000
0000
0000
0000
0000
0000
0000
0000
0000
0000
0000
0000
0000
0000
0000
0000
0000
0000
0000
0000
0000
0100
0000
0000
0000
0000
0000
0000
0000
0000
0000
0000
0000
0000
0000
0000
0000
0000
0000
0000
0000
0000
0000
0000
0000
,
1000
0010
0100
0001
1000
0010
0100
0001
1000
0000
0004
0000
0013
0000
0100
1000
,
0001
0000
0100
0000
0010
0000
0100
0000
0001
0000
0000
0000
1000
0000
0000
0000
0100
0000
0010
0000
0001
0000
1000
0001
1000
0000
0000
0000
0010
0000
0000
0000
,
0100
0000
0000
0000
0001
0000
1000
0000
0100
0000
0010
0000
0004
0000
0000
0000
1003
0000
0000
0010
0000
0000
0100
0000
0001
0000
1000
0000
0100
0000
0010
0000
,
0001
0100
0010
0100
0001
1000
0200
0000
,
0310
0000
0001
0000
1000
0000
0010
0000
1000
0000
0010
0000
0100
0001
0000
0001
,
0100
0000
0000
0010
0000
0000
1000
0000
0000
0001
0000
0000
0100
0000
0000
0010
0000
0000
1000
0000
0000
0001
0000
0000
0040
0000
0000
0000
0000
0000
0130
0000
0000
1000
0000
0000
0004
0000
0000
0000
0000
0000
1003
0000
0100
0000
1000
0000
,
0001
0100
0010
0100
0001
0010
0400
0000
1300
0000
0001
1000
0010
0000
0100
0000
,
0001
0000
1000
0000
0001
0010
0100
1000
0001
0100
0001
1000
0100
0000
0010
0000
,
0100
1000
0004
0000
0103
0010
1000
0010
0100
0000
0002
0000
1003
0000
0400
0000
,
0310
0000
0004
0000
1003
0000
0010
0000
0000
0000
0100
0001
1000
0000
0002
0000
,
0013
0100
1000
0001
0100
0010
0100
0001
1000
0000
1000
0000
0001
0000
0010
0000
,
0100
1000
0001
0100
0010
1000
0001
0000
0010
0000
0100
0000
1000
0000
0004
0000
,
1003
0100
0010
0001
1000
0100
0010
0100
1000
0000
0001
0000
0100
0010
0100
0001
,
2000
0000
0000
0000
3001
0000
0000
0000
0200
0300
0200
0300
0020
0030
0200
0300
,
0001
0000
0000
0000
1000
0000
0100
0000
0020
0030
0200
0300
2000
3000
0002
0103
,
0010
0000
0100
0000
0001
0000
1000
0000
0002
0003
0002
0003
0020
0030
0002
0003
,
0100
0000
0010
0000
1000
0000
0000
0000
0002
0003
0020
0030
0200
0300
4000
0000
,
3002
0000
0000
0000
1003
0000
0100
0000
2000
3000
2000
3000
0020
0030
0200
0300
,
0001
0000
1000
0000
0010
0000
0100
0000
0002
0003
0020
0030
0200
0300
2000
3000
,
0001
0000
0100
0000
0001
0000
1000
0000
0200
0300
0020
0030
0004
0000
4003
0000
,
3M20
0M00
0M00
0M00
0M00
0M30
0000
0000
;
