#TITLE:Mysteria;
#SUBTITLE:Hellfire Club (2004);
#ARTIST:Edguy;
#TITLETRANSLIT:;
#SUBTITLETRANSLIT:;
#ARTISTTRANSLIT:;
#CREDIT:;
#BANNER:Mysteria-banner.png;
#BACKGROUND:Mysteria-bg.png;
#LYRICSPATH:;
#CDTITLE:CDTitle.gif;
#MUSIC:Edguy - Mysteria.mp3;
#OFFSET:-9.624;
#SAMPLESTART:71.120;
#SAMPLELENGTH:11.400;
#SELECTABLE:YES;
#BPMS:0.000=168.000,235.500=160.580,242.000=169.740,246.000=168.000;
#STOPS:;
#BGCHANGES:;
// cache tags:
#FIRSTBEAT:0.000;
#LASTBEAT:707.000;
#SONGFILENAME:Songs/Astronomic Metal Collection/Mysteria (Charlo)/Mysteria.sm;
#HASMUSIC:1;
#HASBANNER:1;
#MUSICLENGTH:265.319;
// end cache tags

//---------------dance-single - Blank----------------
#NOTES:
     dance-single:
     Blank:
     Challenge:
     11:
     1.000,1.000,1.000,0.200,1.000,1648.000,305.000,53.000,0.000,0.000:
1100
0010
0101
1010
0001
0110
1000
1001
,
0100
0101
0110
0010
1100
0010
1001
0010
,
0011
0001
1100
0110
0001
0110
0100
1001
,
1000
0110
1010
0001
0022
0000
0000
0033
,
1100
0001
0110
1100
0010
0011
0100
0110
,
1000
1100
1010
0010
0101
0010
1001
0100
,
0011
0010
1100
0110
0001
1100
1000
0101
,
0001
0000
0000
0100
0000
0000
0010
0000
0000
1000
0000
0100
0000
0010
0000
0001
0000
0000
1000
0000
0000
0010
0000
0000
0100
0000
0000
0001
0000
0000
0010
0000
0000
0100
0000
0000
0010
0000
0000
0001
0000
0000
1000
0000
0000
0010
0000
0000
,
1001
0100
0001
0100
0010
1000
0100
1000
0001
0100
0010
0100
0001
0010
0100
0010
,
0001
1000
0010
0100
0001
0010
0100
1000
0001
1000
0100
0010
0001
1000
0010
0100
,
0010
1000
0001
0010
0001
1000
0010
1000
0100
0010
0100
1000
0001
0100
0010
0100
,
0001
0010
0001
1000
0010
0100
0010
1000
0100
1000
0001
0100
0010
1000
0100
0010
,
0001
1000
0100
0010
0001
0010
0001
0100
0001
1000
0001
0010
0100
0010
0001
1000
,
0010
1000
0100
0001
0100
0010
0100
0001
0010
0100
1000
0100
1000
0001
0100
0010
,
1000
0100
1000
0010
0100
0001
1000
0001
0100
0010
1000
0100
1000
0001
0010
0100
,
0010
0001
0010
0100
1000
0100
0010
0001
1000
0100
0010
0100
1000
0100
1000
0100
,
1001
0001
0001
0001
0001
0001
0001
0001
,
0001
0001
0001
0001
0001
0001
0001
0001
,
0001
0001
0001
0001
0001
0001
0001
0001
,
0001
0001
0001
0001
0001
0001
0001
0001
,
0100
0100
0100
0100
0100
0100
0100
0100
,
0100
0100
0100
0100
0100
0100
0100
0100
,
0100
0100
0100
0100
0100
0100
0100
0100
,
0100
0100
0100
0100
0100
0100
0100
0100
,
1001
1001
1001
1001
1001
1001
1001
1001
,
1001
1001
1001
1001
1001
1001
1001
1001
,
1001
0000
1001
0000
1001
0000
1001
0000
1001
0000
1001
0000
1001
0000
1001
0100
,
1000
0010
0100
0000
1000
0100
1000
0010
0100
0001
0010
0000
0001
0100
0001
1000
,
0011
0100
0010
0001
1000
0100
0010
0001
1000
0010
0100
0001
1000
0100
1000
0001
,
0010
0100
0010
0001
0010
0001
0010
0100
0010
0001
1000
0010
0100
0010
1000
0100
,
1000
0001
0100
0010
0100
0001
1000
0010
1000
0001
0100
0001
1000
0100
1000
0001
,
0010
0001
0010
0100
1000
0100
0010
0100
1000
0001
0100
0010
0100
0001
0010
0001
,
1000
0010
1000
0001
1000
0100
1000
0100
0010
0001
0010
0100
1000
0001
1000
0100
,
0010
0001
1000
0100
1000
0001
0100
0010
1000
0100
1000
0010
0100
0001
0010
0001
,
1000
0010
1000
0100
0010
0100
1000
0001
0010
0100
1000
0100
0010
0100
1000
0001
,
0100
0010
0100
0001
1000
0010
0100
0010
1000
0010
1000
0100
0010
0001
0010
0100
,
2002
0000
0000
0000
0000
3003
0011
0000
2020
0000
0000
0000
0000
0000
3030
0000
,
0001
0001
1010
0000
,
1100
0000
0022
0000
0000
0033
0110
0000
2002
0000
0000
0000
0000
0000
0000
3003
,
0010
0000
0000
0000
0010
0000
0000
0000
1100
0000
0000
0000
0001
0000
1000
0001
,
0100
0010
0101
0000
0010
1000
0011
0000
,
1000
0100
0011
0000
0010
1000
1010
0000
,
0001
0000
1000
0000
0010
0000
1001
0000
0001
0100
0001
0000
1000
0010
0100
0010
,
1000
0000
0101
0000
1100
0000
0110
1010
,
0001
0100
0010
1000
0100
1000
0010
0100
0001
0010
0001
1000
0100
1000
0010
0100
,
0001
0010
0001
1000
0010
0100
0001
1000
0100
1000
0001
0100
0010
0100
0001
1000
,
0100
0010
0100
1000
0001
0010
0100
1000
0100
0010
0001
0010
0100
1000
0100
1000
,
0001
0100
0010
0100
0001
0010
0100
0010
0001
1000
0100
0010
0100
1000
0010
0100
,
0010
1000
0100
0010
0001
0010
0100
0010
0001
1000
0100
0010
0100
1000
0010
0100
,
0001
0010
0100
0010
0001
1000
0010
0100
0010
1000
0010
0100
0001
0100
0010
1000
,
0100
0010
0001
0010
0100
1000
0001
0010
0100
1000
0001
0100
0010
0100
0001
1000
,
0100
0010
0100
1000
0011
0000
0000
0000
0110
0000
0000
0000
1001
0000
1100
0000
,
0001
0100
0010
0100
0001
1000
0100
0010
0100
1000
0001
0010
0001
1000
0100
1000
,
0010
1000
0100
0010
0001
0100
0001
0010
0100
1000
0010
0100
0001
0010
0100
1000
,
0100
0010
0100
1000
0001
0100
0010
0100
0001
0100
0010
1000
0100
0010
0100
1000
,
0001
0010
0100
1000
0010
0100
0010
0100
0010
1000
0100
0010
0100
1000
0001
0100
,
0001
1000
0010
1000
0100
0010
0001
0010
0100
0010
0001
1000
0010
0100
0010
1000
,
0001
0010
0100
0010
0001
1000
0010
0100
0010
1000
0001
0010
0001
1000
0010
1000
,
0100
0010
0100
1000
0001
0010
0100
1000
0001
0100
0010
0100
0001
0010
0002
0000
,
0000
0000
0000
0000
,
0000
0000
0000
0000
0000
0000
0000
0003
1100
0000
0000
0000
0000
0000
1010
0000
,
0000
0101
2001
0000
,
0000
0000
0000
0000
,
0000
0000
0000
0000
,
0000
0000
0000
0000
,
0000
3000
0010
0001
,
1000
0000
0010
2000
0000
3001
0000
0000
,
0000
0100
0010
0001
1000
0000
0000
0100
,
0010
0001
2000
3100
,
0110
0011
1100
0110
1001
0000
0011
0110
,
0101
0000
1100
0000
0110
1100
0101
0000
,
0110
0000
1001
0000
0101
0000
0110
1100
,
0110
0000
0101
0000
0101
0110
1001
0000
,
0120
0000
1000
0030
2002
0000
0000
0000
,
0000
0000
0000
0000
,
0000
3003
1000
0000
,
0110
0000
1000
1000
,
0101
0000
0000
0000
0020
0000
0000
0030
1100
0000
0000
0000
0110
0000
1100
0000
,
0101
0000
0110
0000
0101
1010
0110
0000
,
1100
0000
1001
0000
0110
0000
0101
0011
,
1100
0000
1010
0000
0110
0101
1010
0000
,
0110
1100
0100
0000
,
0011
0000
0010
0010
,
1001
0000
0100
0000
,
0011
0000
0000
0000
0000
1001
1010
0000
,
0011
1100
0110
1000
0101
0000
1100
0101
,
0110
0000
1100
0000
0101
0011
1010
0000
,
0011
0000
1100
0000
0101
0000
0011
0110
,
1100
0000
1001
0000
0011
0110
0101
0000
,
2002
0000
0000
3003
0110
0000
0000
0000
,
0101
0000
0100
0100
,
1001
0000
1001
0000
,
0110
0000
0000
0000
0000
1100
0101
0011
,
0110
0000
0001
1010
0101
0000
0200
0000
,
0000
0310
0001
1000
0200
0000
0300
0010
,
0002
0000
0000
0000
0000
0000
0000
1003
,
0100
0000
1000
0000
0001
0000
0010
0000
0100
0000
0000
0200
0000
0000
0000
0000
,
0000
0000
0000
0000
0000
0000
0000
0000
0000
0000
0000
0000
0000
0000
0000
0000
0000
0000
0000
0300
0020
0000
0000
0000
0000
0000
0000
0000
0000
0000
0000
0000
,
0030
0000
0002
0000
0003
0000
0010
0100
0010
0000
0010
0000
0010
0000
0200
0000
,
0300
0000
2000
0000
0000
0000
0000
0000
0000
0000
3010
0100
0010
0000
0010
0000
,
0020
0030
0000
2000
0000
3000
1000
0010
,
0100
0010
1000
0001
0020
0000
0000
0000
,
0000
0000
0000
0000
0000
0000
0000
0030
0001
0000
0100
0000
0010
0000
1000
0000
,
0100
0010
0001
0010
0001
0000
0002
1003
,
0100
1000
0010
0100
0001
0010
0100
1000
,
0010
0000
0100
0000
0001
0000
0010
0000
0200
0000
0000
0000
0000
0000
0000
0300
,
1000
0000
0010
0000
0100
0000
0001
0000
0010
0000
0100
0000
2000
0000
0000
3000
,
0200
0000
0000
0300
0012
0000
0000
0003
0110
0000
0001
0000
1000
0000
0100
0000
,
0010
0001
1000
0100
0011
1100
1010
1001
,
0011
0110
1100
1010
2002
0000
0000
0000
,
0000
0000
0000
0000
0000
0000
0000
3003
0022
0000
0000
0033
1100
0000
0110
0000
,
0000
0000
0110
0000
1001
0000
1000
0100
1000
0100
0010
0000
0001
0000
1000
0000
,
0100
1000
0001
0100
0010
0100
0001
0010
,
0100
1000
0100
0010
1001
0000
1100
0110
,
0101
0000
0011
0000
1100
0110
1001
0000
,
0011
0000
0101
0000
1100
0000
1001
0110
,
1001
0000
0011
0000
1100
0110
1001
0000
,
0011
0110
2001
0000
,
0002
0000
0000
0003
0020
0000
0000
0000
,
0000
0000
0000
0000
,
0000
0000
0000
3030
0110
0000
0000
0101
,
0000
0000
0110
0000
1001
1000
0110
1100
,
0001
1010
0010
0101
1000
0110
1100
0010
,
1001
0100
0011
0100
0011
1000
1100
1001
,
0010
0110
0100
1100
0010
0011
0110
0010
,
2002
0000
0000
3003
1100
0010
0101
0011
,
1000
1010
0100
0110
0001
1100
0110
0010
,
1001
0000
0100
0000
1100
0000
0001
0000
1100
0000
0010
1000
0010
1000
0001
0000
,
0100
0000
0000
0001
0000
0000
0100
0000
0000
0001
0000
0000
1000
0000
0000
0100
0000
0000
0010
0000
0000
0100
0000
0000
1000
0000
0000
0000
0000
0000
0001
0000
0010
0000
0100
0000
1000
0000
0000
0010
0000
0000
0100
0000
0000
0001
0000
0000
,
1100
0000
0000
0000
0101
0000
1001
0000
0110
0001
0100
0010
1000
0100
1000
0001
,
0100
0010
0100
0001
1000
0100
1000
0001
0100
0010
1000
0001
0010
0100
1000
0100
,
0010
0100
1000
0010
0100
0001
0010
0001
0100
0010
1000
0100
0010
0001
1000
0001
,
0010
0100
1000
0100
0010
0100
1000
0001
0100
0010
0100
0001
0010
0001
1000
0010
,
1000
0100
1000
0001
0100
0001
1000
0010
1000
0100
0010
0001
0100
0010
1000
0100
,
0010
0001
0100
0010
0100
0001
0010
0100
1000
0001
0100
0010
0100
0001
1000
0010
,
0100
0001
1000
0100
1000
0010
0100
0010
1000
0001
1000
0100
0010
0001
0010
0100
,
1000
0001
0100
0010
0100
0001
1000
0100
0010
0100
1000
0001
0110
0000
0000
0000
,
1100
0000
0000
0000
1010
0000
0110
0000
1001
0010
0100
1000
0001
0100
0010
0100
,
0001
1000
0100
0010
0100
1000
0010
0100
0001
0010
0100
0010
0100
1000
0001
0100
,
0010
0100
0001
1000
0010
0100
0001
1000
0010
1000
0001
0100
0010
1000
0100
0010
,
0100
1000
0001
0100
0010
0100
0001
0010
0001
0010
0100
0010
0001
1000
0100
0010
,
0100
0010
0100
1000
0001
0100
0010
1000
0100
0010
0100
1000
0001
0100
0010
0100
,
0001
1000
0010
0100
0010
1000
0001
0010
0100
1000
0010
1000
0100
0010
0001
0010
,
0100
0010
0001
1000
0010
0100
0010
1000
0001
1000
0010
0100
0001
0010
0001
0100
,
0010
1000
0100
0010
0001
0100
0010
1000
0100
0010
0001
0100
0011
0000
0000
0000
,
1100
0000
0000
0000
0110
0000
1010
0000
0101
0010
0001
0100
0010
1000
0100
1000
,
0001
0100
0001
1000
0010
1000
0100
0010
0100
1000
0001
0100
0010
1000
0010
0100
,
0001
1000
0100
0010
0001
1000
0100
0010
0001
0100
0001
0010
0100
0010
0001
1000
,
0010
0100
0010
1000
0001
0100
0001
1000
0100
1000
0100
0010
0100
1000
0010
0100
,
0001
0010
0001
0100
0010
1000
0100
0010
0100
1000
0001
0100
0010
0100
0001
0010
,
0100
1000
0100
0010
0001
0100
0010
1000
0100
0010
0100
1000
0001
0100
0010
0100
,
0001
1000
0010
0100
0001
1000
0100
1000
0010
0100
0010
1000
0001
0100
0010
1000
,
0100
1000
0001
0100
0010
0100
0001
0010
0100
1000
0100
0010
0101
0000
0000
0000
,
0110
0000
0000
0000
1100
0000
1010
0000
0101
0010
0100
0010
0001
1000
0100
0010
,
0100
1000
0001
0100
0010
1000
0001
0010
0100
1000
0001
0100
0010
0100
0001
1000
,
0100
0010
0100
1000
0010
0100
0010
1000
0001
1000
0010
0100
0010
1000
0001
0010
,
0100
0010
0001
1000
0010
0100
0001
0010
0001
1000
0001
0100
0010
1000
0100
1000
,
0001
0010
0001
1000
0010
1000
0100
0010
0001
0100
0010
1000
0100
0010
0001
0010
,
0100
1000
0010
0100
0001
0010
0100
1000
0001
0100
0010
0100
0001
1000
0100
0010
,
0100
1000
0010
0100
0001
0010
0001
1000
0010
0100
0001
0100
0010
1000
0010
0100
,
0001
0010
0100
1000
0010
0100
0010
1000
0100
0010
0001
1000
0001
0010
0100
0010
,
0001
1000
0010
0100
0010
0100
0010
1000
0101
0000
0010
0000
1100
0000
0110
0000
,
0001
1100
0010
0110
0001
1100
1001
0010
,
0011
1000
0110
0001
1100
0010
0110
1001
,
0010
0011
0100
1100
0010
0110
1001
0010
,
0022
0000
0000
0000
0000
0000
0000
0033
1010
0100
0010
0001
0100
0010
1000
0100
,
0010
0100
1000
0001
0100
0010
0100
0001
1000
0100
0010
0100
1000
0001
0010
0100
,
1000
0010
0100
0001
0010
0100
0010
0001
1000
0100
0010
0100
1000
0001
0100
0010
,
0100
0001
1000
0010
1000
0001
1100
0000
0010
0000
0101
0000
1001
0000
0010
0000
,
2002
0000
0000
0000
0000
0000
0000
3003
0110
0000
1000
0000
0101
0000
0100
0000
,
1010
1000
0110
0001
1100
0010
0101
0001
,
1100
0010
1001
0100
0011
0100
1010
0001
,
1100
0100
0011
0001
0110
1000
0101
0100
,
2002
0000
0000
0000
0000
0000
0000
3003
1100
0000
0010
0000
0101
0000
0001
0000
,
0110
0100
1010
0010
1001
0100
0011
1000
,
0110
0001
1010
1000
0110
1001
0110
0101
,
0010
1100
0001
0220
0000
0000
0330
0000
;
