#TITLE:ViennaCore;
#SUBTITLE:;
#ARTIST:JAKAZiD;
#TITLETRANSLIT:;
#SUBTITLETRANSLIT:;
#ARTISTTRANSLIT:;
#CREDIT:;
#BANNER:ViennaCore BN.png;
#BACKGROUND:ViennaCore BG.png;
#LYRICSPATH:;
#CDTITLE:;
#MUSIC:ViennaCore.mp3;
#OFFSET:-1.440;
#SAMPLESTART:33.373;
#SAMPLELENGTH:10.740;
#SELECTABLE:YES;
#BPMS:0.000=180.000,32.000=90.000,48.000=180.000;
#STOPS:248.000=0.111
,248.333=0.111
,248.667=0.111
,249.000=0.111
,249.333=0.111
,249.667=0.111
;
#BGCHANGES:;
// cache tags:
#FIRSTBEAT:0.000;
#LASTBEAT:250.000;
#SONGFILENAME:Songs/keyboard/ViennaCore/ViennaCore.sm;
#HASMUSIC:1;
#HASBANNER:1;
#MUSICLENGTH:93.472;
// end cache tags

//---------------dance-single - Go get the other dif----------------
#NOTES:
     dance-single:
     Go get the other dif:
     Challenge:
     12:
     1.000,1.000,1.000,0.374,1.000,613.000,102.000,35.000,63.000,12.000:

0010
0000
0100
0000
0010
0001
1000
0010
0100
0010
1000
0001
0110
0000
1100
0000
,
0001
0000
1000
0000
0001
0100
0010
0001
1000
0001
0010
0100
1001
0000
1010
0000
,
0100
0000
0010
0000
0100
1000
0001
0100
0010
0100
0001
1000
0110
0000
0011
0000
,
1000
0000
0001
0000
1000
0010
0100
1000
0001
1000
0100
0010
1001
0000
0101
0000
,
0100
0000
1000
0000
0100
0010
0001
0100
1000
0100
0001
0010
1100
0000
0011
0000
,
0001
0000
0100
0000
0001
1000
0010
0001
0100
0001
0010
1000
0101
0000
1010
0000
,
0010
0000
0001
0000
0010
0100
1000
0010
0001
0010
1000
0100
0011
0000
1100
0000
,
0000
2MM2
0000
0000
0000
0000
0000
0000
0000
0000
0000
0000
0000
0000
0000
0000
,
3113
0001
1000
0001
1000
0001
0110
0010
,
0101
0001
1010
0001
1100
0001
0101
0010
,
1010
0001
1000
0001
1000
0001
0110
0010
,
0101
0001
1010
0001
1100
0001
0101
0010
,
0100
0000
0100
0010
0001
0000
0001
0000
0100
0000
0100
0010
0001
0000
0001
0000
,
1000
0100
0010
0100
1000
0100
0010
0100
0001
0000
0000
1000
0001
0000
0001
0000
,
1000
0000
0001
0010
0100
0000
0010
0000
0001
0000
0010
0100
1000
0000
0000
0000
,
0010
0100
0010
0100
0010
0000
1001
0000
0110
0000
0000
0000
MMMM
0000
0000
0000
,
0001
0000
0001
1000
0010
0000
0010
0000
0001
0000
0001
1000
0010
0000
0010
0000
,
0100
0001
1000
0001
0100
0001
1000
0001
0010
0000
0000
0100
0010
0000
0010
0000
,
0100
0000
0010
1000
0001
0000
1000
0000
0010
0000
1000
0001
0100
0000
0000
0000
,
1000
0001
1000
0001
1000
0000
0011
0000
1100
0000
0000
0000
MMMM
0000
0000
0000
,
1010
0000
1000
0001
0110
0000
0100
0000
1010
0000
1000
0001
0110
0000
0100
0000
,
0011
1000
0001
1000
0011
1000
0001
1000
0101
0000
0000
0010
0101
0000
0100
0000
,
0011
0000
0100
0001
1001
0000
0001
0000
0101
0000
0001
1000
0011
0000
0000
0000
,
0101
1000
0001
1000
0101
0000
0110
0000
1001
0000
0000
0000
0110
0000
0000
0000
,
1100
0000
0100
0010
1001
0000
0001
0000
1100
0000
0100
0010
1001
0000
0001
0000
,
1010
0100
0010
0100
1010
0100
0010
0100
0011
0000
0000
1000
0011
0000
0001
0000
,
1010
0000
0001
0010
0110
0000
0010
0000
0011
0000
0010
0100
1010
0000
0000
0000
,
0011
0100
0010
0100
0011
0000
0101
0000
1010
0000
0000
0000
1001
0000
0000
0000
,
0010
0100
1000
0001
0010
0100
1000
0001
0020
0000
0000
0000
1030
00M0
0000
0000
,
0100
1000
0001
0010
0100
1000
0001
0010
0200
0000
0000
0000
0310
0M00
0000
0000
,
0100
0010
0001
1000
0100
0010
0001
1000
0100
0001
0010
0100
1000
0001
0010
0100
,
0020
M10M
0230
M01M
0302
M1M0
2003
0MM1
,
3010
0001
1000
0100
0010
0001
1000
0100
0020
0000
0000
0000
0031
00M0
0000
0000
,
0001
0010
0100
1000
0001
0010
0100
1000
0002
0000
0000
0000
0103
000M
0000
0000
,
2010
0000
0000
0000
3012
MM00
0000
0000
2013
0M0M
0000
0000
3120
M00M
0000
0000
,
0130
0010
0100
0010
0100
0010
0100
0010
0100
0010
0100
0010
0100
0010
0100
0010
,
1001
1000
0001
1000
0001
1000
0001
1000
0001
1000
0001
1000
0001
1000
0001
1000
,
0101
0100
0001
0100
0001
0100
0001
0100
0001
0100
0001
0100
0001
0100
0001
0100
,
1010
0010
1000
0010
1000
0010
1000
0010
0220
0000
0000
0000
0000
0000
0000
0000
,
0331
0010
0100
1000
0001
0010
0100
1000
0001
0010
0100
1000
0001
0010
0100
1000
,
0010
0100
0001
1000
0010
0100
0001
1000
0010
0100
1000
0001
1000
0010
0100
0010
,
0001
1000
0100
0010
1000
0100
0010
0001
0100
0010
0001
1000
0010
0001
1000
0100
,
0010
0100
1000
0001
0010
0100
1000
0001
0020
0000
0000
0000
0000
0000
0000
0000
,
0130
1000
0100
0010
0001
0010
0001
1000
0010
0100
0010
0001
1000
0100
0010
1000
,
0010
0100
1000
0001
0100
1000
0001
0010
0200
0000
0000
0000
0000
0000
0000
0000
,
1300
0100
0010
0001
0010
0100
1000
0001
0010
0100
0010
1000
0010
1000
0010
0100
,
0010
0001
0010
0100
0010
0100
1000
0001
0200
0000
0000
0000
0000
0000
0000
0000
,
1300
0001
1000
0001
1000
0001
1000
0001
2000
0000
0000
0000
3101
M000
0000
0000
,
0010
0100
0001
0100
0010
0100
0001
0100
0020
0000
0000
0000
1130
00M0
0000
0000
,
0100
1000
0001
1000
0100
1000
0001
1000
0001
0100
0001
1000
0001
0100
0001
1000
,
0002
1MM0
0023
MM01
0230
M01M
2300
01MM
,
3010
0100
0001
0100
0010
0100
0001
0100
0020
0000
0000
0000
0131
00M0
0000
0000
,
0001
1000
0100
1000
0001
1000
0100
1000
0002
0000
0000
0000
0113
000M
0000
0000
,
0200
0000
0000
0000
2300
0M00
0000
0000
3200
M000
0000
0000
0302
0M00
0000
0000
,
0023
000M
0000
0000
M20M
0000
0000
0000
230M
0000
0000
0000
3M02
0000
0000
0000
,
M133
0001
0100
0010
0000
0000
0000
0000
1001
0000
0000
0000
0000
0000
0000
0000
,
1001
0000
0000
0000
0000
0000
0000
0000
1001
0000
0000
0000
0000
0000
0000
0010
,
0110
0000
0110
0000
,
0110
0000
0000
0000
0000
0000
0000
0000
0110
0000
0000
0000
0000
0000
0000
0010
,
0100
1000
0100
0001
0110
0000
0000
0001
1010
0000
0000
0000
0110
0000
0000
0000
,
1010
0000
0000
0000
0110
0000
0000
0001
1010
0000
0000
0000
0110
0000
0000
0000
,
0101
0000
0000
0000
0011
0000
0000
1000
0101
0000
0000
0000
0011
0000
0000
0000
,
M11M
M1M1
1M1M
11MM
MM11
1MM1
M11M
0000
0000
0000
0000
0000
;
