#TITLE:The Torment Of Triton;
#SUBTITLE:;
#ARTIST:Masters Of Hardcore;
#TITLETRANSLIT:;
#SUBTITLETRANSLIT:;
#ARTISTTRANSLIT:;
#CREDIT:;
#BANNER:BN.PNG;
#BACKGROUND:BG.PNG;
#LYRICSPATH:;
#CDTITLE:ov1_title.png;
#MUSIC:The Torment Of Triton.mp3;
#OFFSET:-5.340;
#SAMPLESTART:71.850;
#SAMPLELENGTH:29.999;
#SELECTABLE:YES;
#BPMS:0.000=173.500,524.000=179.000,584.000=185.000;
#STOPS:458.000=0.100
,458.333=0.020
,458.500=0.100
,590.500=0.220
,590.625=0.060
;
#BGCHANGES:;
// cache tags:
#FIRSTBEAT:0.000;
#LASTBEAT:654.500;
#SONGFILENAME:Songs/Owenviau1 Simfiles 4/The Torment Of Triton/The Torment Of Triton.sm;
#HASMUSIC:1;
#HASBANNER:1;
#MUSICLENGTH:230.373;
// end cache tags

//---------------dance-single - ----------------
#NOTES:
     dance-single:
     :
     Challenge:
     11:
     1.000,1.000,1.000,0.434,0.473,1107.000,546.000,100.000,429.000,4.000:

MMMM
2000
0000
0000
,
3200
0320
0000
0000
,
0032
0000
2003
0000
0000
0000
3020
0230
,
0000
0000
0302
2003
0000
0000
3020
0230
,
0000
0000
0302
0023
0000
0000
0230
2300
,
0000
0000
3002
0203
0000
0000
0320
2030
,
0000
0000
3200
0320
0000
0000
0032
0203
,
0000
2300
3200
0320
,
0032
0000
0000
0000
0000
0000
0000
0000
2003
0000
0000
0000
0000
0000
0000
0000
0000
0000
0000
0000
0000
0000
0000
0000
0MMM
0MMM
0MMM
0MMM
0MMM
0000
0000
0000
,
3200
0320
0000
0000
,
0032
0000
0000
0000
0000
0000
0000
0000
2MM3
0MM0
0MM0
0000
0000
0000
0000
0000
0000
0000
0000
0000
0000
0000
0000
0000
3200
0000
0000
0000
0320
0000
0000
0000
,
MM00
MM00
MM00
0000
0000
0000
0000
0000
0032
0000
0000
0000
2003
0000
0000
0000
0000
0000
0000
0000
0000
0000
0000
0000
3020
0000
0000
0000
0230
0000
0000
0000
,
0000
0000
0302
0023
0000
0000
0230
2300
,
0000
0000
3002
0203
0000
0000
0320
2030
,
0000
0000
3002
0203
0000
0000
0320
2030
,
0000
0000
3200
0320
,
0032
1013
0110
1001
,
0110
1100
0110
0011
,
0101
0110
1001
0110
,
1100
0011
0101
0110
,
1001
1100
0011
0101
,
0110
1001
1010
1001
,
0110
0101
1001
0110
,
1010
0000
0000
0000
0101
0000
0010
0000
1100
0000
0000
0000
1001
0000
1000
0001
,
0110
1000
0101
0000
0110
0000
1001
0000
,
1010
1100
0011
1100
,
0110
1001
0110
0101
,
0110
1010
1100
0110
,
0011
1000
0101
0001
0110
0100
1010
0100
,
1001
0110
0101
0011
,
1001
1000
0110
0001
1100
0001
0011
1000
,
0101
0000
0000
0000
1001
0000
0100
0000
1100
0000
0000
0000
1001
0000
1000
0010
,
0101
1000
0110
0001
1001
1000
0110
0001
,
1010
0000
0110
0001
1010
0001
0110
0100
,
1001
0000
0101
1000
0110
0001
1100
0010
,
1001
0000
0110
0010
1001
1000
0101
0010
,
1001
0000
0011
0100
1001
0010
1100
0001
,
0110
0000
0011
0001
1100
1000
0011
1000
,
0101
0000
1010
0001
0110
1000
1001
0010
,
1100
0000
0011
0100
1001
1000
0011
0100
,
1001
0000
0110
1100
1001
0110
1001
0110
,
0011
0101
1010
0101
0110
1001
1100
0110
,
0011
0110
1100
1001
0110
1001
1100
0011
,
0101
1100
0011
0110
1100
0110
0011
0101
,
1001
0000
0110
0000
1000
0100
0010
0001
1000
0010
1000
0100
0010
0001
0100
0001
,
0010
0100
1000
0001
0100
0010
1000
0001
0010
0001
0100
0010
1000
0100
1000
0010
,
0100
0001
0010
0100
1000
0010
0100
0001
0010
0001
0100
0010
1000
0100
0010
0001
,
0100
0001
0010
0100
2002
0000
3003
0000
0220
0000
0330
0000
2200
0000
3300
0000
,
0220
0330
1001
0010
1100
1000
0011
1000
,
0101
0010
1001
0100
0110
0001
0011
1000
,
1100
0010
0110
0001
1001
0100
1010
0010
,
0101
1000
0011
0100
1100
0001
0110
1000
,
1001
0110
1100
0010
0101
1000
1010
0100
,
1001
1000
0110
0001
1100
0001
0011
0100
,
0101
1000
0110
0001
1001
0100
0110
0001
,
1001
0000
0100
0000
2010
3100
0010
0001
2000
3100
0010
0001
2000
3100
0010
0001
,
2020
0000
3131
0010
1001
0100
0011
1000
,
1100
0010
1001
0010
0101
1000
1010
0001
,
0110
0001
1001
0100
0011
1000
0110
0001
,
1100
0000
0100
0000
1001
0000
0110
0000
1001
0000
0010
0000
1000
0100
1000
0000
,
0010
0100
0001
0000
0110
0000
1000
0000
0101
0000
1000
0000
0110
0000
0100
0000
,
1001
0010
0011
1000
0101
0010
1001
0010
,
1100
0001
0110
1000
0101
1000
0110
1000
,
0011
0100
2002
3003
0220
0330
0022
0033
,
2200
3300
1001
0010
0110
0001
1100
1000
,
0011
1000
0101
0100
1001
0010
1100
0001
,
1100
0110
0011
0100
1001
0010
0110
1000
,
0011
0100
1001
0110
1001
0010
1100
0011
,
1100
0110
1001
0001
0110
1000
0011
0100
,
1001
0001
1010
1000
0110
1000
0011
0100
,
1001
0101
0021
0130
1001
0100
0011
1000
,
1001
0000
0000
0010
0000
0000
1010
0000
0001
0000
0010
0000
0101
0000
1000
0000
0001
0000
1200
0000
0000
0000
0000
0000
,
0320
0000
1031
1100
0011
1000
1010
0001
,
0110
1000
0011
0100
1010
0001
1001
0100
,
1010
0101
0011
0100
1010
1000
0011
0100
,
1001
0000
0100
0000
0011
0000
1000
0000
1010
0000
0001
0000
0110
0000
1000
0010
,
0101
1000
0100
0010
0001
1000
0010
1000
0001
0100
0001
1000
0100
1000
0010
0100
,
0001
0100
0010
0100
0001
0010
0100
1000
0100
0010
0100
1000
0001
1000
0001
0100
,
0010
1000
0001
0100
0020
0000
1000
0000
0001
0000
1000
0000
0001
0000
1000
0000
,
0031
0000
0000
1000
0000
0000
0100
0000
0000
0000
0000
0000
0000
0000
0000
0000
0000
0000
0001
1000
0001
1000
0001
1000
,
0001
1000
0001
1000
0001
1000
0002
0000
0000
0000
0000
0000
0000
0000
0000
0000
0000
0000
0000
0000
0000
0000
0000
0000
,
0000
0000
0003
0000
,
0000
MMMM
0000
0000
,
0000
0000
0000
0000
,
0000
0000
1000
0101
1000
0001
0110
1000
,
0010
1001
0100
0010
1100
0001
0010
0101
,
1000
1010
0001
0110
1000
0001
1001
0100
,
0010
1100
0001
0010
1001
0100
1000
0110
,
0001
1100
0010
1001
0100
0010
0101
1000
,
0001
0110
1000
0010
1001
0100
0010
1100
,
0001
0011
1000
1100
0001
0100
1001
0010
,
1000
0110
1001
1010
0100
1001
0010
0100
,
1010
0001
1000
0101
1000
0001
0110
1000
,
0010
1001
0100
0010
1100
0001
0010
0101
,
1000
1010
0001
0110
1000
0001
1001
0100
,
0010
1100
0001
0010
1001
0100
1000
0110
,
0001
1100
0010
1001
0100
0010
0101
1000
,
0001
0110
1000
0010
1001
0100
0010
1100
,
0001
0011
0100
1010
0002
0000
0000
0000
,
0000
0000
0000
0000
,
0003
0000
1001
0100
0110
1001
0010
1100
,
0011
1000
0101
1010
0001
1010
1001
0100
,
0110
0000
0000
0000
0000
0000
0000
0000
0000
0000
0000
0000
0000
0000
0000
0000
0000
0000
0000
0000
0000
0000
0000
0000
1010
0000
0000
0000
0000
0000
0000
0000
0000
0000
0000
0000
0000
0000
0000
0000
0000
0000
0000
0000
0000
0000
0000
0000
M1M1
0000
0000
M0M0
M0M0
0000
M0M0
0000
0000
0000
0000
0000
0000
0000
0000
0000
0000
0000
0000
0000
0000
0000
0000
0000
1000
0000
0000
0000
0000
0000
0000
0000
0000
0000
0000
0000
0000
0000
0000
0000
0000
0000
0000
0000
0000
0000
0000
0000
0110
0000
0000
0000
0000
0000
0000
0000
0000
0000
0000
0000
0000
0000
0000
0000
0000
0000
0000
0000
0000
0000
0000
0000
1MM1
0000
0000
0000
0MM0
0000
0MM0
0000
0000
0000
0000
0000
0000
0000
0000
0000
0000
0000
0000
0000
0000
0000
0000
0000
0010
0000
0000
0000
0000
0000
0000
0000
0000
0000
0000
0000
0000
0000
0000
0000
0000
0000
0000
0000
0000
0000
0000
0000
1100
0000
0000
0000
0000
0000
0000
0000
0000
0000
0000
0000
0000
0000
0000
0000
0000
0000
0000
0000
0000
0000
0000
0000
,
0011
1000
0110
1001
0010
1100
0101
0010
,
1100
0011
1001
0010
1010
0101
1000
0011
,
1100
0010
1100
0101
1000
0011
1100
0001
,
0110
1001
0101
0001
1010
1001
0100
0110
,
1001
0010
1100
0011
1000
0101
1010
0100
,
1001
0101
1001
0100
0110
1001
0010
1100
,
0011
1000
0101
1010
0001
1010
1001
0100
,
0110
1010
1001
1000
0110
1001
0010
1100
,
0011
1000
0110
1001
0010
1100
0011
0100
,
1001
0000
0000
0000
0000
0000
0110
0000
0000
0000
0000
0000
M00M
M00M
M00M
M00M
M00M
M00M
MMMM
MMMM
MMMM
MMMM
MMMM
M00M
M00M
M00M
M00M
M00M
M00M
M00M
M00M
M00M
M00M
M00M
M00M
M00M
M00M
0000
0000
0000
0000
0000
0000
0000
0MM0
0000
0000
0000
,
M00M
M00M
M00M
M00M
M00M
M00M
M00M
M00M
M00M
M00M
M00M
M00M
MMMM
M00M
M00M
M00M
M00M
M00M
M00M
M00M
M00M
M00M
M00M
M00M
M00M
0000
0000
0000
0000
0000
0000
0000
0000
0000
0000
0000
2002
0000
0000
0000
0000
0000
0000
0000
0000
0000
0000
0000
,
0000
0000
0000
0000
,
0000
0000
0000
3113
,
1001
0010
1100
1000
0011
1000
0101
0010
,
1001
0100
0110
0001
0011
1000
1100
0011
,
1001
0100
1010
0010
0101
1000
1010
0100
,
1001
1000
0110
0001
1100
0001
0011
1010
,
0101
1000
0110
0001
1001
0100
0110
1000
,
1001
0010
0110
1000
0011
0001
1100
0110
,
0011
0001
1100
0010
1001
1000
0110
0001
,
1100
0100
0011
0010
1001
1000
0101
1010
,
1001
0001
0110
0001
1100
1000
0011
0010
,
0101
0001
1100
0001
1010
0100
1001
1010
,
0110
0010
1001
0100
0011
1000
1100
0010
,
0101
1000
0110
0100
1001
0010
1100
0011
,
1100
0010
0101
1000
0011
0100
1100
0001
,
0110
0100
1001
0100
1010
0001
0101
1010
,
0110
0000
0001
0000
1001
0000
0010
0000
0110
0000
1000
0000
0101
0000
1000
0010
,
2002
3003
0000
0110
,
1001
0400
1310
1001
0110
0001
1010
1000
,
0101
0010
1001
0100
0110
1000
1001
0110
,
1001
0100
1010
0010
0101
1000
1010
0100
,
1001
1000
0110
0001
1100
0001
0011
1010
,
0101
1000
0110
0001
1001
0100
0110
1000
,
1001
0010
0110
1000
0011
0001
1100
0110
,
0011
0001
1100
0010
1001
1000
0110
0001
,
1100
0100
0011
0010
1001
1000
0101
1010
,
1001
0001
0110
0001
1100
1000
0011
0010
,
0101
0001
1100
0001
1010
0100
1001
1010
,
0110
0010
1001
0100
0011
1000
1100
0010
,
0101
1000
0110
0100
1001
0010
1100
0011
,
1100
0000
0000
0000
0000
0000
0000
0000
0000
0000
0000
0000
0000
0000
0000
0000
0000
0000
0000
0000
0000
0000
0000
0000
0010
0000
0000
0000
0000
0000
0000
0000
0000
0000
0000
0000
0000
0000
0000
0000
0000
0000
0000
0000
0000
0000
0000
0000
0101
0000
0000
0000
0000
0000
0000
0000
0000
0000
0000
0000
0000
0000
0000
0000
0000
0000
0000
0000
0000
0000
0000
0000
1100
0000
0000
0000
0000
0000
0000
0000
0000
0000
0000
0000
0000
0000
0000
0000
0000
0000
0000
0000
0000
0000
0000
0000
MM11
0000
0000
0000
0000
0000
MM00
0000
MM00
0000
0000
0000
0000
0000
0000
0000
0000
0000
0000
0000
0000
0000
0000
0000
0100
0000
0000
0000
0000
0000
0000
0000
0000
0000
0000
0000
0000
0000
0000
0000
0000
0000
0000
0000
0000
0000
0000
0000
1100
0000
0000
0000
0000
0000
0000
0000
0000
0000
0000
0000
0000
0000
0000
0000
0000
0000
0000
0000
0000
0000
0000
0000
0010
0000
0000
0000
0000
0000
0000
0000
0000
0000
0000
0000
0000
0000
0000
0000
0000
0000
0000
0000
0000
0000
0000
0000
,
0101
0000
1000
0000
0011
0000
0100
0000
1001
0000
1000
0000
0220
0330
0001
0000
,
2020
0000
0000
3030
0000
0000
0000
0000
0220
0000
0000
0000
0330
0000
0000
0000
0002
0000
0000
0000
0003
0000
0000
0000
2002
0000
0000
0000
0000
0000
0000
0000
3003
0000
0000
0000
MMMM
0000
0000
0000
0000
0000
0000
0000
0000
0000
0000
0000
,
2200
3300
MMMM
0000
2002
3003
0110
0001
,
1010
0100
1001
1000
0110
0001
0011
1000
,
1100
0010
1010
0001
0110
1000
0101
0100
,
0011
1000
1100
0010
1001
0100
0110
0001
,
1100
0100
0011
1000
0101
0010
1100
0001
,
1010
1000
0101
0010
0110
1000
1001
0010
,
1100
0001
0110
1000
0011
0100
1001
0010
,
0110
1000
1001
0010
0101
0010
1100
1001
,
0110
0000
0000
1000
0100
0010
0002
0000
0000
0000
0000
0000
0000
0000
0000
1003
0000
0000
1010
0000
0000
0100
0000
0000
,
1001
1000
0110
0001
1100
0001
0011
1000
,
0101
0010
0110
1000
1100
0001
1001
0010
,
0110
1000
1100
0001
0011
0100
0101
1000
,
0110
0000
0000
0000
0001
0000
0000
0000
1001
0000
0000
0000
0100
0000
0000
0000
1010
0000
0000
0000
1000
0000
0000
0000
M2M2
M0M0
M0M0
M0M0
M0M0
M0M0
M0M0
M0M0
,
M0M0
M0M0
M0M0
M0M0
M0M0
M0M0
M0M0
M0M0
M0M0
M0M0
M0M0
M0M0
M0M0
M0M0
M0M0
M0M0
M0M0
M0M0
M0M0
M0M0
M0M0
M0M0
M0M0
M0M0
M0M0
M0M0
M0M0
M0M0
M0M0
M0M0
M0M0
M0M0
,
M0M0
M0M0
M0M0
M0M0
M0M0
M0M0
M0M0
M0M0
M0M0
M0M0
M0M0
M0M0
M0M0
M0M0
M0M0
M0M0
M0M0
M0M0
M0M0
M0M0
M0M0
M0M0
M0M0
M0M0
M0M0
M0M0
M0M0
M0M0
M0M0
M0M0
M0M0
M0M0
,
M0M0
M0M0
M0M0
M0M0
M0M0
M0M0
M0M0
M0M0
M0M0
M0M0
M0M0
M0M0
M0M0
M0M0
M0M0
M0M0
M0M0
M0M0
M0M0
M0M0
M0M0
M0M0
M0M0
M0M0
M0M0
M0M0
M0M0
M0M0
M0M0
M0M0
M0M0
M0M0
,
M0M0
M0M0
M0M0
M0M0
M0M0
M0M0
M0M0
M0M0
M0M0
M0M0
M0M0
M0M0
M0M0
M0M0
M0M0
M0M0
M3M3
M0M0
M0M0
M0M0
MMMM
0000
0000
0000
0000
0000
0000
0000
0000
0000
0000
0000
;

//---------------dance-single - ----------------
#NOTES:
     dance-single:
     :
     Hard:
     9:
     0.547,0.603,0.026,0.252,0.015,818.000,6.000,58.000,31.000,0.000:

MMMM
2000
0000
0000
,
3200
0320
0000
0000
,
0032
0000
2003
0000
0000
0000
3020
0230
,
0000
0000
0302
2003
0000
0000
3020
0230
,
0000
0000
0302
0023
0000
0000
0230
2300
,
0000
0000
3002
0203
0000
0000
0320
2030
,
0000
0000
3200
0320
0000
0000
0032
0203
,
0000
2300
3200
0320
,
0032
0000
0000
0000
0000
0000
0000
0000
2003
0000
0000
0000
0000
0000
0000
0000
0000
0000
0000
0000
0000
0000
0000
0000
0MMM
0MMM
0MMM
0MMM
0MMM
0000
0000
0000
,
3200
0320
0000
0000
,
0032
0000
0000
0000
0000
0000
0000
0000
2MM3
0MM0
0MM0
0000
0000
0000
0000
0000
0000
0000
0000
0000
0000
0000
0000
0000
3200
0000
0000
0000
0320
0000
0000
0000
,
MM00
MM00
MM00
0000
0000
0000
0000
0000
0032
0000
0000
0000
2003
0000
0000
0000
0000
0000
0000
0000
0000
0000
0000
0000
3020
0000
0000
0000
0230
0000
0000
0000
,
0000
0000
0302
0023
0000
0000
0230
2300
,
0000
0000
3002
0203
0000
0000
0320
2030
,
0000
0000
3002
0203
0000
0000
0320
2030
,
0000
0000
3200
0320
,
0032
1003
0010
0100
,
0001
1000
0001
0100
,
0010
1000
0010
0100
,
0001
0010
0001
1000
,
0001
0100
0010
1000
,
0100
1000
0001
0100
,
0010
1000
0001
0010
,
0100
1000
0001
0100
,
0010
1000
0001
0010
,
0100
1000
0001
0100
,
0010
1000
0001
1000
0001
0010
0100
1000
,
0001
0100
0010
1000
,
0001
0000
1000
0100
1000
0100
0010
0001
,
1000
0010
0100
0001
,
0010
0000
0100
1000
0001
1000
0001
0100
,
0010
1000
0001
0010
,
0100
1001
0001
0100
,
0010
1000
0001
0000
1000
0000
0010
0000
,
1000
0000
1000
0100
0010
0001
1000
0001
,
1000
0000
1000
0010
0100
0000
0100
0001
,
0010
0000
0010
0001
1000
0001
0100
0001
,
1000
0000
1000
0010
0100
0010
1000
0010
,
0100
0000
0001
1000
0001
0100
0001
0010
,
0100
0000
1000
0001
1000
0000
1000
0010
,
0100
0000
0100
0001
0010
0100
1000
0100
,
0010
0001
1000
0001
1000
0010
0100
0010
,
1000
0010
0100
0001
0010
0100
0010
0001
,
1000
0100
0010
0100
1000
0001
0100
0001
,
1000
0010
1000
0001
1000
0001
0100
0010
,
1000
0100
0001
0010
0100
1000
0100
0001
,
1000
0010
0100
0001
1000
0001
0100
0010
,
1000
0001
0010
0000
0100
0000
1000
0000
,
0010
0000
1001
0000
0001
0100
0010
1000
,
0010
0100
0001
0000
0001
1000
0001
1000
,
0100
0010
0001
0000
0001
1000
0010
0100
,
0010
0000
1000
0000
0001
0010
0100
0000
,
0100
1000
0001
0000
0001
1000
0010
0100
,
0001
0010
0100
0000
0100
1000
0100
1000
,
0001
0100
0010
0000
0010
0100
0001
0010
,
0100
0000
1000
0001
0100
0001
1000
0010
,
0100
0000
0001
0000
1001
0000
0010
0100
,
0001
0010
0100
0000
0100
1000
0001
1000
,
0001
0100
0010
0000
0010
1000
0010
0100
,
0001
0010
0100
0000
1000
0010
0100
0000
,
0010
0000
0010
0000
0001
1000
0001
0010
,
0100
0000
0001
0000
1000
0100
1000
0100
,
0010
0001
1000
0000
1000
0010
0100
0001
,
0010
0100
1000
0000
0001
0000
0100
0000
,
0010
0000
1000
0000
0001
1000
0001
0010
,
0100
0000
1000
0000
0100
0001
0010
0100
,
1000
0000
0001
0000
0100
0010
1000
0010
,
0100
0000
0001
0000
0010
0100
1000
0000
,
1000
0001
0100
0000
0100
0000
0010
1000
,
0001
0010
0100
0000
0001
0000
1000
0001
,
0100
0010
1000
0000
1000
0000
0001
0000
,
0010
0100
1000
0001
,
0010
0000
0001
0000
1000
0010
0100
0000
,
0001
1000
0100
0010
,
0001
0000
1000
0010
0100
0000
0100
0001
,
0010
0000
0010
0001
1000
0000
1000
0001
,
1000
0001
0100
0010
1000
0010
0100
0001
,
0010
0100
1000
0100
0010
0001
1000
0010
,
0100
0010
1000
0001
0100
0001
1000
0100
,
0010
0001
1000
0000
0000
0000
0000
0000
,
0000
1001
0000
0000
,
0000
0000
0000
0000
,
0000
0000
0000
0000
,
0000
0000
0000
0000
,
0000
0000
1000
0001
0100
0010
1000
0000
,
0001
0000
0010
0000
0100
1000
0001
0000
,
0100
0010
1000
0001
0010
0000
0100
1000
,
0001
0000
0100
0010
1000
0000
1000
0001
,
0010
0100
1000
0000
0001
0100
0001
0000
,
0010
0100
0010
0000
0001
1000
0001
0000
,
0100
0010
1000
0010
0100
0001
0000
0001
,
0010
1000
0100
0010
0001
0000
0000
0000
,
1000
0010
0100
0001
,
0010
0001
1000
0100
,
0010
0001
0001
1000
,
1000
0010
0010
0100
,
0001
0010
0001
1000
,
0100
1000
0001
0100
,
0010
1000
0200
0000
,
0000
0000
0000
0000
,
0300
0000
0010
0000
0001
1000
0000
0010
,
0100
0000
0001
0010
0000
0100
1000
0000
,
0001
1000
0100
0000
0010
0001
0000
0001
,
1000
0000
1000
0010
0000
0010
0100
0000
,
0100
0001
0010
0000
1000
0001
0000
0001
,
0100
0000
0100
0010
0000
0010
1000
0000
,
1000
0001
0010
0000
0010
0100
0000
0100
,
1000
0000
1000
0001
0000
0001
0100
0000
,
0100
0010
1000
0000
0001
0100
0000
0100
,
0010
0000
0010
1000
0000
1000
0001
0000
,
0001
1000
0001
0000
0010
0100
0000
0001
,
1000
0000
0010
0100
0000
0001
0010
0000
,
0100
1000
0001
0000
2000
0000
0000
0000
,
0000
0000
0000
0000
,
0000
0000
0000
0000
,
0000
0000
0000
3000
,
0001
0000
0100
0010
1000
0000
1000
0001
,
0010
0000
0010
0001
0100
0000
0100
0010
,
1000
0000
0100
0001
0010
0000
0010
0001
,
1000
0000
1000
0001
0100
0000
0010
1000
,
0001
0000
0001
1000
0010
0000
0010
1000
,
0001
0000
0001
0100
0010
0000
0010
1000
,
0001
0000
0001
0010
0100
0000
0001
1000
,
0001
0000
0001
0100
0010
0000
1000
0001
,
0010
0000
0010
0001
1000
0000
1000
0001
,
0100
0000
0100
0010
1000
0010
0100
0000
,
0001
0000
1000
0001
0010
0000
0010
0000
,
0001
1000
0000
0001
0100
0000
0010
1000
,
0010
0000
0100
0001
0000
0001
1000
0000
,
1000
0010
0000
0010
0100
0000
0001
1000
,
0001
0000
0010
0100
0000
0100
1000
0000
,
1000
0001
0000
0001
0100
0000
0010
0000
,
1000
0000
0001
0000
1000
0001
0010
0000
,
0100
0000
1000
0000
0001
0000
0100
0010
,
1000
0000
0010
0000
0100
0000
0001
1000
,
0001
0000
0010
0000
0100
0000
1000
0001
,
1000
0001
0100
0000
0010
0000
1000
0000
,
0001
0010
0100
1000
0100
0000
0010
0000
,
0001
1000
0001
0100
0010
0000
1000
0000
,
0001
1000
0001
0100
0010
0000
1000
0000
,
0001
0010
0100
1000
0001
0000
0001
0000
,
0100
0010
1000
0010
0100
0000
0001
0000
,
1000
0001
0010
0000
0010
0001
1000
0000
,
1000
0001
0100
0001
1000
0100
0001
0000
,
0100
0010
1000
0000
1000
0001
0010
0000
,
0100
1000
0001
0000
0001
1000
0010
0000
,
0002
0000
0000
0000
,
0000
0000
0000
1003
,
0100
0010
0001
0000
1000
0000
0010
1000
,
0001
0010
0100
0000
0001
0000
1000
0000
,
0010
0100
0001
0000
0001
1000
0100
0010
,
0001
1000
0001
0000
0100
0000
0010
0000
,
1000
0001
0010
0000
0010
0001
1000
0100
,
0010
0001
1000
0000
1000
0000
0100
0000
,
0001
0010
0100
0000
0100
1000
0001
0000
,
0001
1000
0010
0100
0001
0010
0100
0000
,
1001
0001
0100
0000
0100
0010
1000
0000
,
1000
0010
0100
0000
0100
0001
0010
0100
,
1000
0000
1000
0001
0100
0000
0010
1000
,
0001
0000
0100
0010
1000
0000
0202
0000
,
0000
0000
0000
0000
,
0000
0000
0000
0000
,
0000
0000
0000
0000
,
0000
0000
0303
0000
;
