#TITLE:Ometh;
#SUBTITLE:;
#ARTIST:After The Burial;
#TITLETRANSLIT:;
#SUBTITLETRANSLIT:;
#ARTISTTRANSLIT:;
#CREDIT:B. Abear;
#BANNER:;
#BACKGROUND:;
#LYRICSPATH:;
#CDTITLE:;
#MUSIC:After The Burial - 07 - Ometh.ogg;
#OFFSET:0.680;
#SAMPLESTART:99.920;
#SAMPLELENGTH:12.000;
#SELECTABLE:YES;
#BPMS:0.000=215.000;
#STOPS:261.000=0.558
,506.000=0.837
;
#BGCHANGES:;
// cache tags:
#FIRSTBEAT:8.000;
#LASTBEAT:894.000;
#SONGFILENAME:Songs/SSSC Pack 2/Ometh - [Cosmic Pope]/Ometh.sm;
#HASMUSIC:1;
#HASBANNER:0;
#MUSICLENGTH:251.715;
// end cache tags

//---------------dance-single - B. Abear----------------
#NOTES:
     dance-single:
     B. Abear:
     Challenge:
     15:
     1.000,1.000,0.409,0.453,1.000,2241.000,103.000,114.000,167.000,2.000:




0000
0000
0000
0000
,
0000
0000
0000
0000
,
1000
0000
0001
0000
0100
0001
0100
0000
0010
0000
1000
0000
0001
0010
0001
0000
,
0000
0000
0010
0000
0001
1000
0001
0000
1000
0000
0010
0000
0110
0000
0100
0000
,
0101
0000
0001
0000
1000
0100
1000
0000
0001
0000
0010
0000
0001
1000
0001
0000
,
0000
0000
0100
0000
0010
1000
0010
0000
0100
0000
0001
0000
2000
0000
3100
0000
,
0020
0000
0031
0000
1000
0001
1000
0000
0001
0000
0100
0000
0010
1000
0010
0000
,
1010
0000
1000
0000
0100
0010
0100
0000
1000
0000
0001
0000
1000
0010
1000
0000
,
1001
0000
0001
0010
0100
1000
0100
1000
0001
1000
0001
1000
0001
0100
0020
0000
,
0000
0000
0130
0000
0001
0100
0001
0000
1000
0000
0100
0000
0010
0001
0020
0000
,
0000
0000
0130
0000
1000
0001
2000
0000
0000
0000
3010
0000
0100
0001
0100
0000
,
0101
0000
0001
0000
1000
0100
1000
0000
0002
0000
0023
0000
0130
1000
0200
0000
,
2300
0000
3002
0000
0103
0010
0200
0000
0302
0000
2003
0000
3200
0000
0322
0000
,
0003
0000
0031
1000
0001
0000
1000
0010
1000
0000
0010
0100
0010
0000
0100
0001
,
0100
0000
0001
1000
0001
0000
0010
0001
0010
0000
0100
1000
0001
0100
0001
0100
,
0010
0100
0010
0100
0001
1000
0100
0010
0100
0010
0001
0010
0001
1000
0100
0010
,
0001
1000
0001
1000
0010
1000
0010
1000
0010
0100
0010
0100
0001
0100
0001
1000
,
0100
0000
0010
0000
0001
1000
0001
0000
1000
0000
0010
0000
0100
0001
0100
0000
,
0000
0000
0001
0000
1000
0100
1000
0000
0001
0000
0010
0000
0011
0000
0001
0000
,
1001
0000
1000
0000
0010
0100
0010
0000
0100
0000
0001
0000
1000
0001
1000
0000
,
1001
0000
0001
0000
0010
0100
0010
0000
0100
0000
1000
0000
0001
0000
0001
0000
,
1000
0000
0001
0000
0100
0001
0100
0000
0010
0000
0000
0000
1000
0010
1000
0000
,
1001
0000
0001
0000
0010
0100
0010
0000
0100
0000
1000
0000
0001
0100
0001
0000
,
1000
0100
0010
0001
1000
0001
0100
0010
1000
0001
0010
0100
1000
0100
2000
0000
,
0000
0000
3001
0000
0100
0001
0100
0000
0010
0000
1000
0000
0001
0010
0002
0000
,
0000
0000
0013
0000
0100
1000
0200
0000
0000
0000
0310
0000
0001
0000
2200
0000
,
3000
0000
1300
0001
1000
0000
0001
0100
0001
0000
0100
0010
0100
0000
0010
1000
,
0MM1
0000
0010
0001
0010
0000
0100
0010
0200
0000
0000
0000
1300
0000
0202
0000
,
0300
0000
0103
0010
1000
0001
1000
0100
0010
0000
0001
0000
1000
0000
0001
0100
,
0001
0000
1000
0100
M01M
0000
0001
0000
1MM1
0000
1000
0000
0001
0000
2020
0000
,
0030
0000
3010
0100
0001
1000
0001
1000
0001
0010
0001
0010
0100
1000
0001
0100
,
0001
0100
0001
0100
0010
0100
0010
0100
0010
1000
0010
1000
0001
0000
1001
0000
,
0MM0
1000
0100
0100
0100
M02M
0031
0001
,
0001
2MM0
3010
0010
0010
M20M
0301
2000
,
0000
0000
3001
0000
0010
0000
0010
0000
0010
0000
M20M
0000
1300
0001
0100
0010
,
1000
0000
0001
0010
0001
0000
1000
0000
1100
0000
0100
0000
0010
0000
0022
0000
,
0003
0000
0031
1000
0001
0000
0100
0000
0000
0000
0102
0000
1000
0000
1003
0000
,
0000
1200
0010
0310
0000
0012
1000
2003
,
0000
0000
3001
0000
0100
0000
0100
0000
0000
0000
0010
0100
0010
0000
1000
0000
,
1001
0001
0000
1000
1100
0100
0010
0010
,
0000
0000
0001
1000
0001
0000
0100
0000
0000
0000
0210
0000
0001
0000
0301
0000
,
0000
1002
0010
0013
0000
0210
1000
2300
,
0000
0000
3001
0010
0001
0000
1000
0000
0000
0000
0201
0000
0010
0000
0310
0000
,
1010
1000
0000
0001
0011
0010
0100
0100
,
0000
0000
0100
1000
0100
0000
0010
0000
0000
0000
MM21
0000
0100
0000
0130
0000
,
0000
21MM
0001
3001
0000
M1M2
1000
2003
,
0000
0000
3010
0000
0110
0000
0100
0000
0000
0000
0001
1000
0001
0000
0010
0000
,
0110
0100
0000
1000
1100
0100
0010
0010
,
0000
0000
0001
0010
0001
0000
1000
0000
0000
0000
2MM1
0000
0010
0000
3010
0000
,
0000
M21M
0001
0301
0000
1MM2
0010
0023
,
0000
0000
0130
1000
0100
0000
0010
0000
0000
0000
MM12
0000
1000
0000
1003
0000
,
1010
0000
0010
0000
0000
0000
0100
0000
0101
0000
0001
0000
1000
0001
1000
0001
,
0100
0010
0100
0010
0100
0010
0100
0010
0100
0010
0100
0010
0100
0010
0100
0010
,
0100
0010
0100
0010
0100
0010
0100
0010
0100
0010
0100
0010
0100
0010
0100
0010
,
1000
0001
1000
0001
1000
0100
1000
0100
0010
0001
1000
0001
0100
0010
1000
0001
,
0010
0100
0010
0100
1000
0001
1000
0001
0100
0001
0100
0001
0100
0010
2000
0000
,
0000
0000
3001
0010
0001
0000
1000
0000
0001
0000
0021
0000
0100
0000
0130
0000
,
1000
2001
0010
3010
0100
0102
1000
2003
,
0000
0000
3010
0000
0100
0000
0100
0000
0001
0000
1000
0100
1000
0000
0M02
0000
,
00M0
0000
M203
0000
00M0
0000
M320
0000
000M
0000
1030
0000
0100
0010
0100
0010
,
0001
1000
0001
1000
0001
1000
0001
1000
0001
1000
0001
1000
0001
1000
0001
1000
,
0001
1000
0001
1000
0001
1000
0001
1000
0001
1000
0001
1000
0001
1000
0001
1000
,
0010
0100
0001
1000
0001
0000
1000
0100
0010
0001
0010
0000
0100
1000
0100
1000
,
0001
0100
0001
0100
0001
0100
0010
0100
0010
0100
0010
0100
0010
1000
0001
1000
,
0100
0000
0000
0000
1000
0000
1000
0001
0100
0000
0010
0000
0100
0000
1001
0000
,
0000
0000
0000
0000
0001
0000
1000
0000
0MM1
M000
0000
0000
0000
0000
0000
0000
1000
0000
0000
0000
0010
0000
0000
0000
0200
0000
0000
0000
0000
0000
0000
0000
,
0301
1000
0001
0010
0100
0000
1000
0000
0000
0000
0001
0000
0101
0000
0000
0000
,
0100
0000
0100
0000
0001
0010
0200
0000
0000
0000
1300
0000
1100
0000
0000
0000
,
1000
0100
0010
0001
1000
0000
0010
0000
0000
0000
0100
0000
0101
0000
0000
0000
,
0001
0000
1000
0000
0100
0010
0002
0000
0000
0000
1003
0000
1010
0000
0000
0000
,
0010
0100
0001
0100
0010
0000
1000
0000
0000
0000
0001
0000
0011
0000
0000
0000
,
0010
0010
0100
2000
0000
3001
0101
0000
,
0100
0010
1000
0001
0100
0000
0010
0000
0000
0000
1000
0000
1001
0000
0000
0000
,
0001
0010
0001
0010
0100
1000
0100
1000
0001
0000
0100
0000
0101
0000
0000
0000
,
0001
1000
0001
1000
0100
0000
0020
0000
0000
0000
0031
0000
1001
0000
0000
0000
,
1000
1000
0010
0200
0000
0301
0101
0000
,
0001
0100
0001
1000
0100
0000
0010
0000
0000
0000
0001
0000
0011
0000
0000
0000
,
0010
0100
0100
2100
0000
3001
1001
0000
,
1000
0100
0010
0100
1000
0000
0002
0000
0000
0000
0103
0000
0110
0000
0000
0000
,
0010
0010
1000
0200
0000
0310
0110
0000
,
0100
1000
0100
1000
0001
0000
0200
0000
0000
0000
0310
1000
0001
1000
0100
0010
,
0001
1000
0001
1000
0001
0100
0001
0100
0010
0000
1000
0000
0200
0000
0000
0000
,
0310
0001
1000
0001
0100
0000
0010
0000
0000
0000
1000
0000
1002
0000
0000
0000
,
1000
1000
0010
1003
0000
0001
0011
0000
,
0010
0100
1000
0001
1000
0000
0010
0000
0000
0000
0100
0000
0102
0000
0000
0000
,
0100
0100
0010
0113
0000
0100
0101
0000
,
0001
1000
0010
1000
0010
0000
0100
0000
0000
0000
0001
0000
2001
0000
0000
0000
,
0001
0001
0010
3001
0000
0100
0101
0000
,
0001
0010
0100
1000
0001
0000
0010
0000
0000
0000
0001
0000
1001
0000
0000
0000
,
1000
0010
1000
0010
0100
0001
0100
0001
1000
0000
0100
0000
0110
0000
0000
0000
,
0010
0001
1000
0001
0100
0000
0010
0000
0000
0000
1000
0000
1020
0000
0000
0000
,
1000
1000
0001
1030
0000
0001
1001
0000
,
1000
0100
1000
0001
0010
0000
0100
0000
0000
0000
0010
0000
0011
0000
0000
0000
,
0001
0001
1000
0201
0000
0310
1010
0000
,
1000
0001
1000
0001
0010
0000
0100
0000
0000
0000
1000
0000
1200
0000
0000
0000
,
0010
0010
1000
0310
0000
0001
1001
0000
,
1000
0100
1000
0001
1000
0000
0001
0100
0010
1000
0010
1000
0001
1000
0001
1000
,
0001
0010
0001
0010
0100
0010
0100
0010
0001
0000
1000
0000
0001
0100
0001
0000
,
1000
0000
0000
0000
0100
0010
0100
0000
0010
0000
0100
0000
1000
0001
1000
0000
,
0010
0000
0100
0000
0101
0000
0001
0000
1001
0000
1000
0000
0001
0010
0001
0000
,
1000
0000
0100
0000
1000
0010
1000
0000
1001
0000
0000
0000
0001
0100
0001
0000
,
1000
0000
0100
0000
0010
0000
0100
0000
1000
0001
1000
0000
0001
0100
0001
0000
,
1000
0000
0010
0000
0100
0010
0100
0000
0101
0000
0001
0000
1000
0100
1000
0000
,
0100
0000
0010
0000
0001
0010
0001
0000
1001
0000
1000
0100
0010
0001
1000
0010
,
0100
0001
1000
0100
1000
0001
0200
0000
0000
0000
0310
0000
1000
0001
1000
0000
,
0001
0000
0010
0000
0100
1000
0200
0000
0000
0000
0310
0000
0001
1000
0002
0000
,
0000
0000
1003
0000
0010
0100
0010
0000
1010
0000
1000
0000
0001
0010
0001
0000
,
1000
0000
0100
0000
1000
0001
1000
0000
0010
0000
0100
0000
0001
0100
0001
0000
,
1000
0000
0100
0000
1000
0000
0102
0000
0000
0000
1003
0010
1000
0000
0001
1000
,
0001
0000
0010
0001
0010
0000
0100
1000
0100
0000
0010
0100
0010
0000
0001
0010
,
0001
0000
1000
0010
0100
0001
1000
0001
1000
0100
1000
0100
0010
0001
0010
0001
,
0010
0001
1000
0001
1000
0001
0100
0001
1000
0000
0001
0100
0010
1000
0001
1000
,
0100
0010
0100
0010
0001
1000
0010
0100
0001
0000
1000
0000
0001
1000
0001
0000
,
1000
0000
0010
0000
0100
0001
0100
0000
0000
0000
0001
0000
1000
0100
1000
0000
,
0001
0000
0010
0000
0011
0000
0001
0000
1001
0000
1000
0000
0010
0100
0010
0000
,
0100
0000
0001
0000
1000
0001
1000
0000
1001
0000
0001
0000
0010
0100
0010
0000
,
0100
0000
1000
0000
0001
0000
0001
0000
1000
0000
0001
0000
0100
0001
0100
0000
,
0010
0000
0100
0000
0001
0100
0001
0000
1001
0000
1000
0000
0100
0010
0100
0000
,
0010
0000
0001
0000
1000
0010
1000
0000
0001
0010
0100
1000
0001
1000
0010
0100
,
0001
1000
0100
0010
0001
0010
0002
0000
0000
0000
1003
0000
0010
1000
0010
0000
,
0100
0000
0001
0000
1000
0100
2000
0000
0000
0000
3100
0000
0010
0001
0020
0000
,
0000
0000
0130
0000
1000
0000
0022
0000
0003
0000
0031
1000
0001
0000
1000
0010
,
1000
0000
0010
0100
0010
0000
0100
0001
1MM0
0000
0100
1000
0100
0000
0010
0100
,
0020
0000
0000
0000
0031
0000
2020
0000
0030
0000
3001
0100
0001
0100
0010
1000
,
0010
0100
0001
0000
1000
0000
02MM
0000
00MM
0000
1300
0001
1000
0001
0010
0100
,
0010
0001
1000
0000
0010
0000
M20M
0000
M00M
0000
0301
1000
0010
1000
0001
0010
,
0100
0010
0001
0100
0010
0100
0001
1000
0MM1
M000
0000
0000
0000
0000
1000
0100
,
1000
0100
1000
0000
0000
0000
0001
0010
0001
0010
0001
0000
0000
0000
1000
0001
,
1000
0001
1000
0000
0000
0000
0001
0100
0001
0100
0001
0000
0000
0000
1000
0010
,
1000
0010
1000
0000
0000
0000
0M1M
0000
0M1M
0000
0M1M
0000
1000
0010
1000
0000
,
0M1M
0000
0M1M
0000
1000
0001
1000
0000
0M1M
0000
0M1M
0000
0000
0000
0100
0010
,
0100
0010
0100
0000
0000
0000
0001
1000
0001
1000
0001
0000
0000
0000
0010
0001
,
0010
0001
0010
0000
0000
0000
0100
1000
0100
1000
0100
0000
0000
0000
1000
0001
,
1000
0001
1000
0000
0000
0000
0MM1
0000
0MM1
0000
0MM1
0000
1000
0100
1000
0000
,
0MM1
0000
0MM1
0000
1000
0010
1000
0000
0MM1
0000
0MM1
0000
0000
0000
0100
0010
,
0100
0010
0100
0000
0000
0000
0001
0100
0001
0100
0001
0000
0000
0000
1000
0100
,
1000
0100
1000
0000
0000
0000
0001
1000
0001
1000
0001
0000
0000
0000
0100
0010
,
0100
0010
0100
0000
0000
0000
M0M1
0000
M0M1
0000
M0M1
0000
0100
0010
0100
0000
,
M0M1
0000
M0M1
0000
0010
0100
0010
0000
MM01
0000
MM01
0000
0000
0000
1000
0100
,
1000
0100
1000
0000
0000
0000
0100
0010
0100
0010
0100
0000
0000
0000
0010
0001
,
0010
0001
0010
0000
0000
0000
0001
0100
0001
0100
0001
0000
0000
0000
1000
0010
,
1000
0010
1000
0000
0000
0000
01MM
0000
01MM
0000
01MM
0000
0010
0001
0010
0000
,
M10M
0000
M10M
0000
1000
0010
1000
0000
01MM
0000
01MM
0000
0000
0000
1000
0001
,
1000
0001
1000
0000
0000
0000
0001
0100
0010
0100
0001
0000
0000
0000
1000
0100
,
1000
0100
1000
0000
0000
0000
0001
0010
0100
0010
0001
0000
0000
0000
1000
0010
,
1000
0010
1000
0000
0000
0000
0M1M
0000
0M1M
0000
0M1M
0000
0100
0001
0100
0000
,
M01M
0000
M01M
0000
1000
0100
1000
0000
0M1M
0000
0M1M
0000
0000
0000
1000
0100
,
0010
0100
1000
0000
0000
0000
0001
0010
0001
0010
0001
0000
0000
0000
0100
0010
,
1000
0010
0100
0000
0000
0000
0001
1000
0001
1000
0001
0000
0000
0000
0010
0100
,
1000
0100
0010
0000
0000
0000
M10M
0000
M10M
0000
M10M
0000
1000
0001
1000
0000
,
01MM
0000
01MM
0000
0010
0001
0010
0000
M10M
0000
M10M
0000
0000
0000
1000
0010
,
0100
0001
0100
0000
0000
0000
0001
1000
0100
1000
0001
0000
0000
0000
0010
0100
,
1000
0001
1000
0000
0000
0000
0010
0100
0001
1000
0100
0000
0000
0000
0010
0001
,
1000
0010
1000
0000
0000
0000
0MM1
0000
0MM1
0000
0MM1
0000
1000
0010
1000
0000
,
0MM1
0000
0MM1
0000
1000
0100
1000
0000
0MM1
0000
0MM1
0000
0000
0000
1000
0100
,
0010
0001
1000
0000
0000
0000
0010
0100
0001
1000
0100
0000
0000
0000
0010
0001
,
1000
0001
0100
0000
0000
0000
0010
0100
0001
0100
0010
0000
0000
0000
1000
0010
,
1000
0001
0100
0000
0000
0000
M01M
0000
M01M
0000
M01M
0000
0100
0001
0100
0000
,
M01M
0000
M01M
0000
1000
0100
1000
0000
0001
0100
0001
0100
0010
0000
1000
0000
,
0002
0000
0000
0000
1003
0100
0010
0001
1000
0000
0001
0000
0000
0000
1000
0000
,
1010
0000
0000
0000
0010
0000
0010
0000
1000
0100
0020
0000
0000
0000
0031
0000
,
0011
0000
0000
0000
0001
0010
0100
1000
0001
0000
0100
0000
0000
0000
0010
0000
,
1010
0000
0000
0000
1000
0000
0001
0000
0010
0100
2000
0000
0000
0000
3001
0000
,
0101
0000
0000
0000
0100
0010
1000
0010
0100
0000
0001
0000
0000
0000
1000
0000
,
1100
0000
0100
0100
0010
0002
0000
1003
,
1010
0000
0000
0000
0010
0100
0001
1000
0010
0000
0100
0000
0000
0000
0001
0000
,
1001
0000
0000
0000
1000
0100
1000
0100
0010
0001
0010
0001
1000
0000
0010
0000
,
1010
0000
0000
0000
1000
0001
1000
0001
0010
0000
0200
0000
0000
0000
1300
0000
,
1001
0000
0001
0001
0100
0020
0000
1030
,
1010
0000
0000
0000
1000
0010
1000
0001
0010
0000
0100
0000
0000
0000
1000
0000
,
1100
0000
0100
0010
0010
0012
0000
1003
,
1001
0000
0000
0000
0001
0010
0100
0010
0001
0000
2000
0000
0000
0000
3010
0000
,
0110
0000
0100
0100
0001
0020
0000
0130
,
0110
0000
0000
0000
0010
0001
0010
0001
1000
0000
0020
0000
0000
0000
0130
0001
,
1000
0001
0010
0100
1000
0001
1000
0001
1000
0001
1000
0001
2000
0000
0000
0000
,
0000
0000
0000
0000
0000
0000
0000
0000
0000
3000
M002
0000
0000
0000
0000
0000
,
0000
0000
0023
0000
0000
0230
0000
0000
,
0000
0000
0000
0000
0000
0000
0000
0000
0000
0000
0000
0000
0000
0000
0000
0000
0000
0000
0000
0000
0000
0000
0000
0000
0000
0000
0000
0000
0000
0000
1300
0000
0000
0000
0000
0001
0000
0000
0000
0000
2000
0000
0000
0000
0000
0000
0000
0000
,
0000
0000
0000
0000
3001
0100
0010
1000
0001
1000
0100
0010
0100
1000
0001
0100
,
0001
1000
0010
0100
0001
1000
0100
1000
0001
0000
1000
0000
0001
0100
0010
1000
,
0001
0010
0100
1000
0001
1000
0100
0010
0100
0000
1000
0000
0001
1000
0001
0100
,
0010
1000
0001
0100
0001
1000
0100
1000
0001
0010
0100
1000
0001
0000
0200
0000
,
0000
0000
0000
0000
0310
1000
0010
1000
0001
0100
0001
0100
0010
1000
0010
1000
,
0001
1000
0001
1000
0001
0010
0001
0010
0100
0010
0100
0010
0001
1000
0001
1000
,
0100
1000
0100
1000
0100
0010
0100
0010
0001
0010
0001
0010
0100
1000
0001
0100
,
0010
1000
0001
0010
0001
1000
0100
1000
0001
0100
0010
1000
0001
0010
0001
0010
,
0100
0000
0000
0010
0000
0000
0100
0000
0000
0010
0000
0000
0100
0000
0000
1000
0000
0000
0100
0000
0000
1000
0000
0000
0001
0000
0000
0000
0000
0000
MMM0
0000
0000
0000
0000
0000
1000
0000
0000
0000
0010
0000
0000
0000
0100
0000
0000
0000
,
0001
0000
0000
0000
1000
0000
0000
0000
0100
0000
0000
0000
1000
0000
0000
0001
0000
0000
1000
0000
0000
0001
0000
0000
1000
0000
0000
0000
0010
0000
0000
0000
0100
0000
0000
0000
0001
0000
0000
0000
1000
0000
0000
0000
0100
0000
0000
0000
,
1000
0100
0010
0001
1000
0010
0100
0001
1000
0001
0010
0100
,
1000
0000
0000
0000
0001
0000
0000
0000
1000
0000
0000
0000
0010
0000
0000
0100
0000
0000
0010
0000
0000
0100
0000
0000
0010
0000
0000
0000
1000
0000
0000
0000
0001
0000
0000
0000
0010
0000
0000
0000
0100
0000
0000
0000
1000
0000
0000
0000
,
0001
0000
0000
0000
0100
0000
0000
0000
0010
0000
0000
0000
1000
0000
0000
0001
0000
0000
1000
0000
0000
0001
0000
0000
0100
0000
0000
0010
0000
0000
0100
0000
0000
0010
0000
0000
1000
0000
0000
0001
0000
0000
1000
0000
0000
0010
0000
0000
,
1000
0001
1000
0010
1000
0001
1000
0010
1000
0001
1000
0010
1000
0001
1000
0010
,
1000
0001
1000
0010
1000
0001
1000
0010
1000
0001
1000
0010
0100
0001
0100
0001
,
1000
0100
1000
0010
0100
0001
0100
0001
1000
0100
1000
0010
0100
0001
0100
0001
,
1000
0100
1000
0010
0100
0001
0100
0001
1000
0100
2000
0000
0000
0000
3001
0000
,
0100
0010
1000
0100
0001
0100
0010
0001
,
1000
0100
1000
0010
0100
0010
1000
0001
,
0010
0100
1000
0001
0100
0010
1000
0001
,
0020
0000
0000
0000
0130
1000
0100
1000
0001
0100
0001
0100
0020
0000
0000
0030
,
20M0
0000
0000
0000
0000
0000
0000
0000
0000
0000
0000
3000
1000
0000
0100
0000
,
0010
0000
0000
0000
0000
0000
0002
0000
0000
0000
0000
0000
0000
0000
0000
0000
0000
0000
0000
0000
0000
0000
0000
0000
1003
0000
0000
0100
0000
0000
0010
0000
0000
0001
0000
0000
1000
0000
0000
0000
0100
0000
0000
0000
0010
0000
0000
0000
,
0001
0000
0010
0000
0100
0000
1000
0000
0001
0000
0001
0000
1000
0000
0001
0000
0001
0000
0100
0000
0000
0010
0000
0000
,
1000
0000
0002
0000
0000
0000
0000
0000
2003
0000
0000
0000
3001
0100
0001
0100
,
0010
0100
0010
0100
0010
1000
0010
1000
0001
1000
0001
1000
0100
0010
0100
0010
,
0001
0000
0000
0010
0000
0000
0001
0000
0000
0010
0000
0000
0001
0000
0000
1000
0000
0000
0001
0000
0000
1000
0000
0000
0010
0000
0000
1000
0000
0000
0010
0000
0000
1000
0000
0000
0001
0000
0000
0000
0100
0000
0000
0000
0010
0000
0000
0000
,
1000
0000
0000
0000
0001
0000
0000
0000
0001
0000
0000
0000
1000
0000
0000
0000
0001
0000
0000
0000
0001
0000
0000
0000
0010
0000
0000
0000
0100
0000
0000
0000
1000
0000
0000
0000
0001
0000
0000
0100
0000
0000
0001
0000
0000
0100
0000
0000
,
0010
0100
0010
0100
0010
1000
0010
1000
0001
1000
0001
1000
0100
0010
0100
0010
,
0100
0010
0100
0010
0100
0010
0100
0010
0100
0010
0001
0100
0001
0100
0001
0100
,
0001
0100
0001
0100
0010
1000
0010
1000
0010
1000
0001
0010
0001
0010
0001
0010
,
0001
0010
0001
0010
0100
1000
0100
1000
0100
1000
0010
0100
0010
0100
0010
0100
,
0010
0100
0010
0100
0010
0000
1000
0000
0001
0000
0001
0000
1000
0100
1000
0100
,
1000
0100
1000
0100
1000
0100
1000
0100
1000
0100
0010
0100
0010
0100
0010
0100
,
0010
0100
0010
0100
1000
0001
1000
0001
1000
0001
0100
0001
0100
0001
0100
0001
,
0100
0001
0100
0001
1000
0010
1000
0010
1000
0010
1000
0100
1000
0100
1000
0100
,
1000
0100
1000
0100
1000
0001
0100
0010
1000
0001
0100
0010
1000
0010
1000
0010
,
1000
0010
1000
0010
1000
0010
1000
0010
1000
0010
1000
0010
0100
0010
0100
0010
,
0100
0010
0100
0010
0100
0010
1000
0001
1000
0001
1000
0001
0010
0001
0010
0001
,
0010
0001
0010
0001
1000
0100
1000
0100
1000
0100
0010
0100
0010
0100
0010
0100
,
0010
0100
0010
0100
1000
0001
1000
0001
1000
0001
1000
0000
0000
0000
0001
0100
,
0010
0100
0001
0100
0010
0100
0001
0100
0010
0100
0001
0100
0010
1000
0010
0100
,
0010
1000
0010
0100
0010
1000
0010
0100
0010
1000
0010
0100
0001
1000
0100
1000
,
0001
1000
0100
1000
0001
0100
0001
0100
0010
1000
0010
1000
0001
1000
0001
1000
,
0010
0100
0001
1000
0010
0100
0001
1000
0100
0010
0001
1000
0002
0000
0000
0000
,
4000
0000
0000
3003
M00M
0000
0000
0000
;
