#TITLE:Boss Battle RX;
#SUBTITLE:(Lufia II);
#ARTIST:Kommisar;
#TITLETRANSLIT:;
#SUBTITLETRANSLIT:;
#ARTISTTRANSLIT:;
#CREDIT:Mad Matt;
#BANNER:../Tachyon Spectrum-bn.png;
#BACKGROUND:../Tachyon Spectrum-bg.png;
#LYRICSPATH:;
#CDTITLE:;
#MUSIC:Kommisar - Lufia 2 Boss Battle RX.ogg;
#OFFSET:-0.556;
#SAMPLESTART:35.248;
#SAMPLELENGTH:12.000;
#SELECTABLE:YES;
#BPMS:0.000=170.000;
#STOPS:;
#BGCHANGES:;
// cache tags:
#FIRSTBEAT:8.000;
#LASTBEAT:368.000;
#SONGFILENAME:Songs/Tachyon Spectrum/Lufia II Boss Battle RX - [Mad Matt]/Lufia II Boss.sm;
#HASMUSIC:1;
#HASBANNER:1;
#MUSICLENGTH:137.195;
// end cache tags

//---------------dance-single - Mad Matt----------------
#NOTES:
     dance-single:
     Mad Matt:
     Challenge:
     19:
     1.000,1.000,0.241,0.175,1.000,1185.000,33.000,24.000,4.000,0.000:



0000
0000
0000
0000
,
0000
0000
0000
0000
,
1000
0000
0010
0100
0010
0000
1000
0000
0100
0010
0100
0000
1000
0001
1000
0001
,
0200
0000
0000
0000
0000
0000
0000
0000
0300
0000
0010
1000
0001
0000
0100
0000
,
0101
0001
1000
0010
0200
0000
0301
1000
,
0010
0000
0200
0000
0000
0000
0000
0310
1000
0000
0001
0000
0010
0000
0100
0000
,
2000
0000
0000
3010
0200
0000
0000
0000
,
0301
0010
0001
0000
0100
0000
0010
1000
0010
0000
0100
0000
0001
1000
0001
0000
,
1001
1000
0100
0010
0002
0000
1003
0100
,
0010
0000
0002
0000
0000
0000
0000
0103
0010
0000
1000
0000
0001
0000
0010
0000
,
0200
0000
0000
0000
0000
0000
1300
0010
0200
0000
0000
0000
0000
0000
00MM
0300
,
1100
0001
1100
0010
1100
0001
1100
0010
,
1000
0001
0010
0100
2000
0000
3001
0010
,
0100
0000
2000
0000
0000
0000
0000
3001
0100
0000
0010
0000
1000
0000
0100
0000
,
0020
0000
0000
0031
2000
0000
0000
0000
,
3001
0100
0001
0000
1000
0000
0001
0010
0001
0000
1000
0000
0010
0100
0010
0000
,
1000
0100
1000
0000
0001
0000
1000
0010
1000
0000
0001
0000
0010
0100
1000
0000
,
0001
0010
0001
0000
1000
0000
0001
0100
0001
0000
1000
0000
0010
0100
0010
0000
,
1000
0001
1000
0000
0010
0000
1000
0001
1000
0000
0100
0000
1000
0100
0010
0000
,
0012
0000
0000
0000
0000
0000
0000
0000
1003
0100
0010
0001
1000
0100
0010
0001
,
1000
0010
1000
0000
0001
0000
1000
0100
1000
0000
0001
0000
0100
0010
0100
0000
,
0001
0010
0001
0000
1000
0000
0001
0100
0001
0000
1000
0000
0100
0010
0001
0000
,
1000
0100
1000
0000
0001
0000
1000
0010
1000
0000
0001
0000
0100
0010
0100
0000
,
0001
1000
0001
0000
0100
0000
0001
1000
0001
0000
0010
0000
0001
0010
0100
1000
,
0001
0010
0001
0100
0010
0100
0001
0010
0001
1000
0010
0100
0001
1000
0100
1000
0010
0100
0001
1000
0100
1000
0010
0100
,
0001
1000
0100
0010
0100
1000
0010
0100
0001
1000
0100
0010
0100
1000
0010
0100
0001
1000
0100
0010
0100
1000
0001
1000
,
0010
0100
0001
0100
0010
1000
0010
0100
0001
0010
0100
1000
0100
0010
0001
1000
,
0010
0100
0001
1000
0100
0010
0001
1000
0010
0100
0010
1000
0001
0010
0100
1000
,
0001
0010
0100
1000
0010
0100
0001
1000
0100
0010
0100
1000
0010
0100
0001
1000
0100
1000
0001
0100
0010
1000
0100
1000
,
0001
0010
0001
1000
0010
0100
0001
0010
0001
1000
0010
0100
0001
1000
0100
0010
0100
1000
0010
0100
0001
1000
0100
1000
,
0001
0100
0010
1000
0100
1000
0001
0100
0010
1000
0001
0010
0100
0010
0001
1000
0010
0100
0001
0010
0001
1000
0010
0100
,
0010
1000
0001
0010
0001
0100
0010
0100
0001
1000
0100
1000
0010
0100
0001
1000
0100
1000
0010
0100
0001
1000
0100
1000
,
0001
0010
0001
1000
0001
0100
0001
1000
0010
1000
0001
0100
0001
1000
0100
0010
,
0001
0100
0001
1000
0001
0010
0001
1000
0100
1000
0001
0010
0001
1000
0010
0100
,
0001
1000
0100
1000
0010
0100
0001
0010
0001
1000
0010
1000
0001
0010
0100
1000
,
0001
1000
0100
1000
0010
0100
0001
0010
0001
1000
0010
1000
0001
0010
0100
1000
,
0001
0010
0001
0000
1000
0000
0001
0100
0001
0000
1000
0000
0100
0010
0100
0000
,
1000
0010
1000
0000
0001
0000
1000
0100
1000
0000
0001
0000
0100
0010
1000
0000
,
0001
0100
0001
0000
1000
0000
0001
0010
0001
0000
1000
0000
0100
0010
0100
0000
,
1000
0001
1000
0000
0100
0000
1000
0001
1000
0000
0010
0000
1000
0010
0100
0000
,
0001
0100
0001
0000
1000
0000
0001
0010
0001
0000
1000
0000
0010
0100
0010
0000
,
1000
0100
1000
0000
0001
0000
1000
0010
1000
0000
0001
0000
0010
0100
1000
0000
,
0001
0010
0001
0000
1000
0000
0001
0100
0001
0000
1000
0000
0010
0100
0010
0000
,
1001
0000
0000
0000
1001
0000
0000
0000
1000
0010
0100
0001
1000
0010
0100
0001
,
1000
0010
0100
0010
1000
0001
0010
0100
1000
0010
0100
0001
1000
0001
0010
0100
0010
0001
0100
0010
1000
0001
1000
0100
,
0010
0100
1000
0010
0100
0001
1000
0001
0010
0100
0010
0001
0100
0010
1000
0001
0010
0100
0010
0001
1000
0010
0100
0001
,
0010
0001
0100
0010
0100
0001
1000
0100
0010
0001
1000
0010
0100
0010
1000
0100
0010
0001
0100
0010
0100
0001
1000
0100
,
0010
0001
0100
0001
1000
0100
0010
0100
1000
0010
0100
0001
1000
0100
0010
0100
1000
0010
0100
0001
1000
0100
0010
0100
,
1000
0001
0100
0010
0100
0001
1000
0100
0010
0001
0100
0010
1000
0001
0010
0100
1000
0001
2000
0000
0000
3020
0000
0000
,
1030
0010
0100
0001
0010
0100
1000
0001
1000
0010
0100
0001
0010
0100
1000
0010
0100
0001
1000
0001
0010
0100
1000
0010
,
0100
0001
1000
0100
0010
0100
1000
0010
0100
0001
1000
0100
0010
0001
0100
0010
1000
0001
0010
0100
1000
0010
0100
0010
,
1000
0001
1000
0001
1000
0000
0000
0000
1001
0000
0000
0000
0000
0000
0000
0000
1000
0000
0100
0000
0010
0000
0001
0000
1000
0000
0100
0000
0010
0000
0001
0000
,
1000
0010
0100
0001
2000
0000
3010
0100
,
0001
0000
2000
0000
0000
0000
0000
3001
0100
0000
0010
0000
1000
0000
0100
0000
,
0020
0000
0000
0031
2000
0000
0000
0000
,
3010
0100
0010
0000
1000
0000
0100
0010
0100
0000
1000
0000
0001
0100
0001
0000
,
1000
0100
1000
0000
0001
0000
0010
0000
0200
0000
0000
0000
1300
0000
0001
0000
,
0010
0000
0200
0000
0000
0000
0000
1300
0001
0000
0100
0000
0010
0000
1000
0000
,
0200
0000
0000
0000
0000
0000
0310
0001
2000
0000
0000
0000
0000
0000
0000
0000
,
3001
0100
0001
0010
0001
1000
0010
1000
,
1001
0000
0001
0010
0100
0000
1100
0000
1000
0000
0100
0000
0110
0000
0010
0000
,
0011
0000
0001
0010
0100
0000
1100
0000
1000
0000
0100
0000
0110
0000
0010
0000
,
0011
0000
0001
0100
0010
0000
1010
0000
1000
0000
0010
0000
0110
0000
0100
0000
,
0101
0000
0001
0100
0010
0000
1010
0000
1000
0000
0010
0000
0110
0000
0100
0000
,
0101
0000
0001
0010
0100
0000
1100
0000
1000
0000
0100
0000
0110
0000
0010
0000
,
0011
0000
0001
0010
0100
0000
1100
0000
1000
0000
0100
0000
0110
0000
0010
0000
,
0011
0000
0001
0100
0010
0000
1010
0000
1000
0000
0010
0000
0110
0000
0100
0000
,
0101
0000
0000
0000
0101
0000
0000
0000
0001
0100
0010
1000
0001
0100
0010
1000
,
0001
0010
0001
0000
1000
0000
0001
0100
0001
0000
1000
0000
0100
0010
0100
0000
,
1000
0010
1000
0000
0001
0000
1000
0100
1000
0000
0001
0000
0100
0010
1000
0000
,
0001
0100
0001
0000
1000
0000
0001
0010
0001
0000
1000
0000
0100
0010
0100
0000
,
1000
0001
1000
0000
0100
0000
1000
0001
1000
0000
0010
0000
1000
0010
0100
0001
,
1000
0010
1000
0100
0010
0100
1000
0010
1000
0001
0010
0100
1000
0001
0100
0001
0010
0100
1000
0001
0100
0001
0010
0100
,
1000
0001
0100
0010
0100
0001
0010
0100
1000
0001
0100
0010
0100
0001
0010
0100
1000
0001
0100
0010
0100
0001
1000
0001
,
0010
0100
1000
0100
0010
0001
0010
0100
1000
0010
0100
0001
0100
0010
1000
0001
,
0010
0100
1000
0001
0100
0010
1000
0001
0010
0100
0010
0001
1000
0010
0100
0001
,
1000
0010
0100
0001
0010
0100
1000
0001
0100
0010
0100
0001
0010
0100
1000
0001
0100
0001
1000
0100
0010
0001
0100
0001
,
1000
0010
1000
0001
0010
0100
1000
0010
1000
0001
0010
0100
1000
0001
0100
0010
0100
0001
0010
0100
1000
0001
0100
0001
,
1000
0100
0010
0001
0100
0001
1000
0100
0010
0001
1000
0010
0100
0010
1000
0001
0010
0100
1000
0010
1000
0001
0010
0100
,
0010
0001
1000
0010
1000
0100
0010
0100
1000
0001
0100
0001
0010
0100
1000
0001
0100
0001
0010
0100
1000
0001
0100
0001
,
1000
0010
1000
0001
1000
0100
1000
0001
0010
0001
1000
0100
1000
0001
0100
0010
,
1000
0100
1000
0001
1000
0010
1000
0001
0100
0001
1000
0010
1000
0001
0010
0100
,
1000
0001
0100
0001
0010
0100
1000
0010
1000
0001
0010
0001
1000
0010
0100
0001
,
1000
0001
0100
0001
0010
0100
1000
0010
1000
0001
0010
0001
1000
0010
0100
0001
,
1000
0100
1000
0000
0001
0000
1000
0010
1000
0000
0001
0000
0010
0000
0100
0000
,
1000
0010
1000
0000
0001
0000
1000
0100
1000
0000
0001
0000
0100
0000
0010
0000
,
1000
0010
1000
0000
0001
0000
1000
0100
1000
0000
0001
0000
0010
0000
0100
0000
,
1000
0001
1000
0000
0100
0000
1000
0001
1000
0000
0010
0000
1000
0000
0001
0000
,
1000
0010
1000
0000
0001
0000
1000
0100
1000
0000
0001
0000
0100
0010
0100
0000
,
0001
0010
0001
0000
1000
0000
0001
0100
0001
0000
1000
0000
0100
0000
0010
0000
,
0001
0010
0001
0000
1000
0000
0001
0100
0001
0000
1000
0000
0010
0000
0100
0000
,
0001
0010
0001
0000
1000
0000
0001
0100
0001
0000
1000
0000
0010
0000
0100
0000
,
M00M
0000
0000
0000
;

//---------------dance-single - Tachyon Delta----------------
#NOTES:
     dance-single:
     Tachyon Delta:
     Easy:
     18:
     1.000,1.000,0.241,0.175,1.000,1185.000,33.000,24.000,4.000,0.000:








0000
0000
0000
0000
,
0000
0000
0000
0000
,
1000
0000
0010
0100
0010
0000
1000
0000
0100
0010
0100
0000
1000
0001
1000
0001
,
0200
0000
0000
0000
0000
0000
0000
0000
0300
0000
0010
1000
0001
0000
0100
0000
,
0101
0001
1000
0010
0200
0000
0301
1000
,
0010
0000
0200
0000
0000
0000
0000
0310
1000
0000
0001
0000
0010
0000
0100
0000
,
2000
0000
0000
3010
0200
0000
0000
0000
,
0301
0010
0001
0000
0100
0000
0010
1000
0010
0000
0100
0000
0001
1000
0001
0000
,
1001
1000
0100
0010
0002
0000
1003
0100
,
0010
0000
0002
0000
0000
0000
0000
0103
0010
0000
1000
0000
0001
0000
0010
0000
,
0200
0000
0000
0000
0000
0000
1300
0010
0200
0000
0000
0000
0000
0000
00MM
0300
,
1100
0001
1100
0010
1100
0001
1100
0010
,
1000
0001
0010
0100
2000
0000
3001
0010
,
0100
0000
2000
0000
0000
0000
0000
3001
0100
0000
0010
0000
1000
0000
0100
0000
,
0020
0000
0000
0031
2000
0000
0000
0000
,
3001
0100
0001
0000
1000
0000
0001
0010
0001
0000
1000
0000
0010
0100
0010
0000
,
1000
0100
1000
0000
0001
0000
1000
0010
1000
0000
0001
0000
0010
0100
1000
0000
,
0001
0010
0001
0000
1000
0000
0001
0100
0001
0000
1000
0000
0010
0100
0010
0000
,
1000
0001
1000
0000
0010
0000
1000
0001
1000
0000
0100
0000
1000
0100
0010
0000
,
0012
0000
0000
0000
0000
0000
0000
0000
1003
0100
0010
0001
1000
0100
0010
0001
,
1000
0010
1000
0000
0001
0000
1000
0100
1000
0000
0001
0000
0100
0010
0100
0000
,
0001
0010
0001
0000
1000
0000
0001
0100
0001
0000
1000
0000
0100
0010
0001
0000
,
1000
0100
1000
0000
0001
0000
1000
0010
1000
0000
0001
0000
0100
0010
0100
0000
,
0001
1000
0001
0000
0100
0000
0001
1000
0001
0000
0010
0000
0001
0010
0100
1000
,
0001
0010
0100
1000
0100
0010
0001
1000
0001
1000
0100
0010
0001
1000
0001
1000
0010
0100
0001
0100
0010
1000
0001
1000
,
0100
0010
0001
1000
0001
1000
0100
0010
0001
1000
0001
1000
0010
0100
0001
1000
0001
1000
0010
0100
0001
1000
0001
1000
,
0010
0100
0001
0100
0010
1000
0010
0100
0001
0010
0100
1000
0100
0010
0001
1000
,
0010
0100
0001
1000
0100
0010
0001
1000
0010
0100
0010
1000
0001
0010
0100
1000
,
0001
0010
0100
1000
0100
0010
0001
1000
0010
0100
0010
1000
0001
0010
0100
1000
0100
0010
0001
1000
0010
0100
0001
1000
,
0001
0100
0010
1000
0010
0100
0001
0100
0010
1000
0010
0100
0001
1000
0100
0010
0001
1000
0100
0010
0001
1000
0100
1000
,
0001
0010
0100
1000
0100
0010
0001
1000
0010
0100
0010
1000
0001
0010
0100
1000
0100
0010
0001
1000
0010
0100
0010
1000
,
0001
0100
0001
1000
0010
0100
0001
0100
0001
1000
0010
1000
0001
0010
0001
1000
0100
0010
0001
0010
0001
1000
0100
1000
,
0001
0010
0001
1000
0001
0100
0001
1000
0010
1000
0001
0100
0001
1000
0100
0010
,
0001
0100
0001
1000
0001
0010
0001
1000
0100
1000
0001
0010
0001
1000
0010
0100
,
0001
1000
0100
1000
0010
0100
0001
0010
0001
1000
0010
1000
0001
0010
0100
1000
,
0001
1000
0100
1000
0010
0100
0001
0010
0001
1000
0010
1000
0001
0010
0100
1000
,
0001
0010
0001
0000
1000
0000
0001
0100
0001
0000
1000
0000
0100
0010
0100
0000
,
1000
0010
1000
0000
0001
0000
1000
0100
1000
0000
0001
0000
0100
0010
1000
0000
,
0001
0100
0001
0000
1000
0000
0001
0010
0001
0000
1000
0000
0100
0010
0100
0000
,
1000
0001
1000
0000
0100
0000
1000
0001
1000
0000
0010
0000
1000
0010
0100
0000
,
0001
0100
0001
0000
1000
0000
0001
0010
0001
0000
1000
0000
0010
0100
0010
0000
,
1000
0100
1000
0000
0001
0000
1000
0010
1000
0000
0001
0000
0010
0100
1000
0000
,
0001
0010
0001
0000
1000
0000
0001
0100
0001
0000
1000
0000
0010
0100
0010
0000
,
1001
0000
0000
0000
1001
0000
0000
0000
1000
0010
0100
0001
1000
0010
0100
0001
,
1000
0010
0100
0001
0100
0001
1000
0010
0100
0001
1000
0001
1000
0010
0100
0001
1000
0010
1000
0001
0100
0001
1000
0100
,
0010
0001
0010
0001
1000
0100
0010
0001
1000
0001
1000
0100
0010
0001
1000
0001
0010
0100
1000
0100
0010
0001
1000
0001
,
1000
0010
0100
0001
1000
0010
1000
0001
0100
0001
0100
0010
1000
0001
1000
0001
0010
0100
1000
0001
1000
0001
0010
0100
,
1000
0100
0010
0001
0010
0001
1000
0100
0010
0001
1000
0100
1000
0001
0010
0001
1000
0100
0010
0001
0010
0001
1000
0010
,
0100
0001
1000
0001
0100
0010
1000
0001
0100
0001
0100
0010
1000
0001
0100
0010
1000
0001
2000
0000
0000
3020
0000
0000
,
1030
0010
0100
0001
0100
0001
1000
0010
0100
0001
0100
0001
1000
0100
1000
0001
0010
0001
1000
0100
0010
0001
0010
0001
,
1000
0100
0010
0001
0010
0100
1000
0001
1000
0001
0010
0100
1000
0100
0010
0001
1000
0001
1000
0010
0100
0001
0100
0010
,
1000
0001
1000
0001
1000
0000
0000
0000
1001
0000
0000
0000
0000
0000
0000
0000
1000
0000
0100
0000
0010
0000
0001
0000
1000
0000
0100
0000
0010
0000
0001
0000
,
1000
0010
0100
0001
2000
0000
3010
0100
,
0001
0000
2000
0000
0000
0000
0000
3001
0100
0000
0010
0000
1000
0000
0100
0000
,
0020
0000
0000
0031
2000
0000
0000
0000
,
3010
0100
0010
0000
1000
0000
0100
0010
0100
0000
1000
0000
0001
0100
0001
0000
,
1000
0100
1000
0000
0001
0000
0010
0000
0200
0000
0000
0000
1300
0000
0001
0000
,
0010
0000
0200
0000
0000
0000
0000
1300
0001
0000
0100
0000
0010
0000
1000
0000
,
0200
0000
0000
0000
0000
0000
0310
0001
2000
0000
0000
0000
0000
0000
0000
0000
,
3001
0100
0001
0010
0001
1000
0010
1000
,
1001
0000
0001
0010
0100
0000
1100
0000
1000
0000
0100
0000
0110
0000
0010
0000
,
0011
0000
0001
0010
0100
0000
1100
0000
1000
0000
0100
0000
0110
0000
0010
0000
,
0011
0000
0001
0100
0010
0000
1010
0000
1000
0000
0010
0000
0110
0000
0100
0000
,
0101
0000
0001
0100
0010
0000
1010
0000
1000
0000
0010
0000
0110
0000
0100
0000
,
0101
0000
0001
0010
0100
0000
1100
0000
1000
0000
0100
0000
0110
0000
0010
0000
,
0011
0000
0001
0010
0100
0000
1100
0000
1000
0000
0100
0000
0110
0000
0010
0000
,
0011
0000
0001
0100
0010
0000
1010
0000
1000
0000
0010
0000
0110
0000
0100
0000
,
0101
0000
0000
0000
0101
0000
0000
0000
0001
0100
0010
1000
0001
0100
0010
1000
,
0001
0010
0001
0000
1000
0000
0001
0100
0001
0000
1000
0000
0100
0010
0100
0000
,
1000
0010
1000
0000
0001
0000
1000
0100
1000
0000
0001
0000
0100
0010
1000
0000
,
0001
0100
0001
0000
1000
0000
0001
0010
0001
0000
1000
0000
0100
0010
0100
0000
,
1000
0001
1000
0000
0100
0000
1000
0001
1000
0000
0010
0000
1000
0010
0100
0001
,
1000
0010
0100
0001
0100
0010
1000
0001
1000
0001
0100
0010
1000
0001
1000
0001
0010
0100
1000
0100
0010
0001
1000
0001
,
0100
0010
1000
0001
1000
0001
0100
0010
1000
0001
1000
0001
0010
0100
1000
0001
1000
0001
0010
0100
1000
0001
1000
0001
,
0010
0100
1000
0100
0010
0001
0010
0100
1000
0010
0100
0001
0100
0010
1000
0001
,
0010
0100
1000
0001
0100
0010
1000
0001
0010
0100
0010
0001
1000
0010
0100
0001
,
1000
0010
0100
0001
0100
0010
1000
0001
0010
0100
0010
0001
1000
0010
0100
0001
0100
0010
1000
0001
0010
0100
1000
0001
,
1000
0100
0010
0001
0010
0100
1000
0100
0010
0001
0010
0100
1000
0001
0100
0010
1000
0001
0100
0010
1000
0001
0100
0001
,
1000
0010
0100
0001
0100
0010
1000
0001
0010
0100
0010
0001
1000
0010
0100
0001
0100
0010
1000
0001
0010
0100
0010
0001
,
1000
0100
1000
0001
0010
0100
1000
0100
1000
0001
0010
0001
1000
0010
1000
0001
0100
0010
1000
0010
1000
0001
0100
0001
,
1000
0010
1000
0001
1000
0100
1000
0001
0010
0001
1000
0100
1000
0001
0100
0010
,
1000
0100
1000
0001
1000
0010
1000
0001
0100
0001
1000
0010
1000
0001
0010
0100
,
1000
0001
0100
0001
0010
0100
1000
0010
1000
0001
0010
0001
1000
0010
0100
0001
,
1000
0001
0100
0001
0010
0100
1000
0010
1000
0001
0010
0001
1000
0010
0100
0001
,
1000
0100
1000
0000
0001
0000
1000
0010
1000
0000
0001
0000
0010
0000
0100
0000
,
1000
0010
1000
0000
0001
0000
1000
0100
1000
0000
0001
0000
0100
0000
0010
0000
,
1000
0010
1000
0000
0001
0000
1000
0100
1000
0000
0001
0000
0010
0000
0100
0000
,
1000
0001
1000
0000
0100
0000
1000
0001
1000
0000
0010
0000
1000
0000
0001
0000
,
1000
0010
1000
0000
0001
0000
1000
0100
1000
0000
0001
0000
0100
0010
0100
0000
,
0001
0010
0001
0000
1000
0000
0001
0100
0001
0000
1000
0000
0100
0000
0010
0000
,
0001
0010
0001
0000
1000
0000
0001
0100
0001
0000
1000
0000
0010
0000
0100
0000
,
0001
0010
0001
0000
1000
0000
0001
0100
0001
0000
1000
0000
0010
0000
0100
0000
,
M00M
0000
0000
0000
;

//---------------dance-single - Mad Matt----------------
#NOTES:
     dance-single:
     Mad Matt:
     Medium:
     18:
     1.000,1.000,0.241,0.175,1.000,1185.000,33.000,24.000,4.000,0.000:





0000
0000
0000
0000
,
0000
0000
0000
0000
,
1000
0000
0010
0100
0010
0000
1000
0000
0100
0010
0100
0000
1000
0001
1000
0001
,
0200
0000
0000
0000
0000
0000
0000
0000
0300
0000
0010
1000
0001
0000
0100
0000
,
0101
0001
1000
0010
0200
0000
0301
1000
,
0010
0000
0200
0000
0000
0000
0000
0310
1000
0000
0001
0000
0010
0000
0100
0000
,
2000
0000
0000
3010
0200
0000
0000
0000
,
0301
0010
0001
0000
0100
0000
0010
1000
0010
0000
0100
0000
0001
1000
0001
0000
,
1001
1000
0100
0010
0002
0000
1003
0100
,
0010
0000
0002
0000
0000
0000
0000
0103
0010
0000
1000
0000
0001
0000
0010
0000
,
0200
0000
0000
0000
0000
0000
1300
0010
0200
0000
0000
0000
0000
0000
00MM
0300
,
1100
0001
1100
0010
1100
0001
1100
0010
,
1000
0001
0010
0100
2000
0000
3001
0010
,
0100
0000
2000
0000
0000
0000
0000
3001
0100
0000
0010
0000
1000
0000
0100
0000
,
0020
0000
0000
0031
2000
0000
0000
0000
,
3001
0100
0001
0000
1000
0000
0001
0010
0001
0000
1000
0000
0010
0100
0010
0000
,
1000
0100
1000
0000
0001
0000
1000
0010
1000
0000
0001
0000
0010
0100
1000
0000
,
0001
0010
0001
0000
1000
0000
0001
0100
0001
0000
1000
0000
0010
0100
0010
0000
,
1000
0001
1000
0000
0010
0000
1000
0001
1000
0000
0100
0000
1000
0100
0010
0000
,
0012
0000
0000
0000
0000
0000
0000
0000
1003
0100
0010
0001
1000
0100
0010
0001
,
1000
0010
1000
0000
0001
0000
1000
0100
1000
0000
0001
0000
0100
0010
0100
0000
,
0001
0010
0001
0000
1000
0000
0001
0100
0001
0000
1000
0000
0100
0010
0001
0000
,
1000
0100
1000
0000
0001
0000
1000
0010
1000
0000
0001
0000
0100
0010
0100
0000
,
0001
1000
0001
0000
0100
0000
0001
1000
0001
0000
0010
0000
0001
0010
0100
1000
,
0001
0010
0100
1000
0001
1000
0010
1000
0100
1000
0001
0010
0100
1000
0001
1000
0010
1000
0001
0100
0010
0100
0001
1000
,
0100
1000
0001
0010
0100
1000
0010
1000
0001
1000
0100
1000
0001
0010
0100
1000
0010
1000
0001
1000
0100
1000
0001
0010
,
0001
0100
0001
0100
0010
1000
0010
0100
0001
0010
0100
1000
0100
0010
0001
1000
,
0010
0100
0001
1000
0100
0010
0001
1000
0010
0100
0010
1000
0001
0010
0100
1000
,
0001
0010
0100
0010
0001
1000
0100
1000
0001
1000
0100
1000
0001
0010
0100
1000
0001
0010
0001
0100
0001
1000
0010
1000
,
0001
0100
0010
0100
0001
1000
0001
0010
0001
1000
0100
0010
0001
1000
0100
1000
0001
1000
0010
0100
0001
1000
0100
1000
,
0001
0010
0100
0010
0001
1000
0100
1000
0001
1000
0010
1000
0001
0100
0010
0100
0001
1000
0010
1000
0001
1000
0100
1000
,
0001
0010
0100
0010
0001
1000
0100
1000
0001
1000
0010
0100
0001
1000
0100
1000
0001
0010
0100
1000
0001
0010
0100
1000
,
0001
0010
0001
1000
0001
0100
0001
1000
0010
1000
0001
0100
0001
1000
0100
0010
,
0001
0100
0001
1000
0001
0010
0001
1000
0100
1000
0001
0010
0001
1000
0010
0100
,
0001
1000
0100
1000
0010
0100
0001
0010
0001
1000
0010
1000
0001
0010
0100
1000
,
0001
1000
0100
1000
0010
0100
0001
0010
0001
1000
0010
1000
0001
0010
0100
1000
,
0001
0010
0001
0000
1000
0000
0001
0100
0001
0000
1000
0000
0100
0010
0100
0000
,
1000
0010
1000
0000
0001
0000
1000
0100
1000
0000
0001
0000
0100
0010
1000
0000
,
0001
0100
0001
0000
1000
0000
0001
0010
0001
0000
1000
0000
0100
0010
0100
0000
,
1000
0001
1000
0000
0100
0000
1000
0001
1000
0000
0010
0000
1000
0010
0100
0000
,
0001
0100
0001
0000
1000
0000
0001
0010
0001
0000
1000
0000
0010
0100
0010
0000
,
1000
0100
1000
0000
0001
0000
1000
0010
1000
0000
0001
0000
0010
0100
1000
0000
,
0001
0010
0001
0000
1000
0000
0001
0100
0001
0000
1000
0000
0010
0100
0010
0000
,
1001
0000
0000
0000
1001
0000
0000
0000
1000
0010
0100
0001
1000
0010
0100
0001
,
1000
0001
0100
0010
1000
0001
1000
0100
1000
0001
0100
0010
1000
0001
0100
0010
0100
0001
1000
0010
1000
0001
1000
0100
,
1000
0001
0100
0001
1000
0100
1000
0001
0100
0010
0100
0001
1000
0100
0010
0100
1000
0001
0010
0100
0010
0001
1000
0001
,
0100
0010
1000
0001
1000
0100
1000
0001
0100
0010
0100
0001
1000
0001
0010
0001
1000
0100
0010
0100
1000
0001
0010
0100
,
0010
0001
1000
0001
0010
0100
1000
0001
0010
0100
1000
0001
1000
0010
0100
0001
1000
0010
0100
0001
1000
0001
0100
0001
,
1000
0100
0010
0100
1000
0001
1000
0010
0100
0010
1000
0001
1000
0100
1000
0001
0100
0001
2000
0000
0000
3020
0000
0000
,
1030
0001
0010
0100
1000
0001
1000
0100
0010
0100
1000
0001
0010
0001
1000
0001
0100
0001
1000
0010
0100
0001
1000
0100
,
1000
0001
1000
0010
0100
0010
1000
0001
0100
0001
1000
0100
1000
0001
0010
0100
0010
0001
1000
0100
1000
0001
0010
0100
,
1000
0001
1000
0001
1000
0000
0000
0000
1001
0000
0000
0000
0000
0000
0000
0000
1000
0000
0100
0000
0010
0000
0001
0000
1000
0000
0100
0000
0010
0000
0001
0000
,
1000
0010
0100
0001
2000
0000
3010
0100
,
0001
0000
2000
0000
0000
0000
0000
3001
0100
0000
0010
0000
1000
0000
0100
0000
,
0020
0000
0000
0031
2000
0000
0000
0000
,
3010
0100
0010
0000
1000
0000
0100
0010
0100
0000
1000
0000
0001
0100
0001
0000
,
1000
0100
1000
0000
0001
0000
0010
0000
0200
0000
0000
0000
1300
0000
0001
0000
,
0010
0000
0200
0000
0000
0000
0000
1300
0001
0000
0100
0000
0010
0000
1000
0000
,
0200
0000
0000
0000
0000
0000
0310
0001
2000
0000
0000
0000
0000
0000
0000
0000
,
3001
0100
0001
0010
0001
1000
0010
1000
,
1001
0000
0001
0010
0100
0000
1100
0000
1000
0000
0100
0000
0110
0000
0010
0000
,
0011
0000
0001
0010
0100
0000
1100
0000
1000
0000
0100
0000
0110
0000
0010
0000
,
0011
0000
0001
0100
0010
0000
1010
0000
1000
0000
0010
0000
0110
0000
0100
0000
,
0101
0000
0001
0100
0010
0000
1010
0000
1000
0000
0010
0000
0110
0000
0100
0000
,
0101
0000
0001
0010
0100
0000
1100
0000
1000
0000
0100
0000
0110
0000
0010
0000
,
0011
0000
0001
0010
0100
0000
1100
0000
1000
0000
0100
0000
0110
0000
0010
0000
,
0011
0000
0001
0100
0010
0000
1010
0000
1000
0000
0010
0000
0110
0000
0100
0000
,
0101
0000
0000
0000
0101
0000
0000
0000
0001
0100
0010
1000
0001
0100
0010
1000
,
0001
0010
0001
0000
1000
0000
0001
0100
0001
0000
1000
0000
0100
0010
0100
0000
,
1000
0010
1000
0000
0001
0000
1000
0100
1000
0000
0001
0000
0100
0010
1000
0000
,
0001
0100
0001
0000
1000
0000
0001
0010
0001
0000
1000
0000
0100
0010
0100
0000
,
1000
0001
1000
0000
0100
0000
1000
0001
1000
0000
0010
0000
1000
0010
0100
0001
,
1000
0010
0100
0001
1000
0001
0010
0001
0100
0001
1000
0010
0100
0001
1000
0001
0010
0001
1000
0100
0010
0100
1000
0001
,
0100
0001
1000
0010
0100
0001
0010
0001
1000
0001
0100
0001
1000
0010
0100
0001
0010
0001
1000
0001
0100
0001
1000
0010
,
1000
0100
1000
0100
0010
0001
0010
0100
1000
0010
0100
0001
0100
0010
1000
0001
,
0010
0100
1000
0001
0100
0010
1000
0001
0010
0100
0010
0001
1000
0010
0100
0001
,
1000
0010
0100
0010
1000
0001
0100
0001
1000
0001
0100
0001
1000
0010
0100
0001
1000
0010
1000
0100
1000
0001
0010
0001
,
1000
0100
0010
0100
1000
0001
1000
0010
1000
0001
0100
0010
1000
0001
0100
0001
1000
0001
0010
0100
1000
0001
0100
0001
,
1000
0010
0100
0010
1000
0001
0100
0001
1000
0001
0010
0001
1000
0100
0010
0100
1000
0001
0010
0001
1000
0001
0100
0001
,
1000
0010
0100
0010
1000
0001
0100
0001
1000
0001
0010
0100
1000
0001
0100
0001
1000
0010
0100
0001
1000
0010
0100
0001
,
1000
0010
1000
0001
1000
0100
1000
0001
0010
0001
1000
0100
1000
0001
0100
0010
,
1000
0100
1000
0001
1000
0010
1000
0001
0100
0001
1000
0010
1000
0001
0010
0100
,
1000
0001
0100
0001
0010
0100
1000
0010
1000
0001
0010
0001
1000
0010
0100
0001
,
1000
0001
0100
0001
0010
0100
1000
0010
1000
0001
0010
0001
1000
0010
0100
0001
,
1000
0100
1000
0000
0001
0000
1000
0010
1000
0000
0001
0000
0010
0000
0100
0000
,
1000
0010
1000
0000
0001
0000
1000
0100
1000
0000
0001
0000
0100
0000
0010
0000
,
1000
0010
1000
0000
0001
0000
1000
0100
1000
0000
0001
0000
0010
0000
0100
0000
,
1000
0001
1000
0000
0100
0000
1000
0001
1000
0000
0010
0000
1000
0000
0001
0000
,
1000
0010
1000
0000
0001
0000
1000
0100
1000
0000
0001
0000
0100
0010
0100
0000
,
0001
0010
0001
0000
1000
0000
0001
0100
0001
0000
1000
0000
0100
0000
0010
0000
,
0001
0010
0001
0000
1000
0000
0001
0100
0001
0000
1000
0000
0010
0000
0100
0000
,
0001
0010
0001
0000
1000
0000
0001
0100
0001
0000
1000
0000
0010
0000
0100
0000
,
M00M
0000
0000
0000
;

//---------------dance-single - Mad Matt----------------
#NOTES:
     dance-single:
     Mad Matt:
     Hard:
     18:
     1.000,1.000,0.241,0.175,1.000,1185.000,33.000,24.000,4.000,0.000:

0000
0000
0000
0000
,
0000
0000
0000
0000
,
1000
0000
0010
0100
0010
0000
1000
0000
0100
0010
0100
0000
1000
0001
1000
0001
,
0200
0000
0000
0000
0000
0000
0000
0000
0300
0000
0010
1000
0001
0000
0100
0000
,
0101
0001
1000
0010
0200
0000
0301
1000
,
0010
0000
0200
0000
0000
0000
0000
0310
1000
0000
0001
0000
0010
0000
0100
0000
,
2000
0000
0000
3010
0200
0000
0000
0000
,
0301
0010
0001
0000
0100
0000
0010
1000
0010
0000
0100
0000
0001
1000
0001
0000
,
1001
1000
0100
0010
0002
0000
1003
0100
,
0010
0000
0002
0000
0000
0000
0000
0103
0010
0000
1000
0000
0001
0000
0010
0000
,
0200
0000
0000
0000
0000
0000
1300
0010
0200
0000
0000
0000
0000
0000
00MM
0300
,
1100
0001
1100
0010
1100
0001
1100
0010
,
1000
0001
0010
0100
2000
0000
3001
0010
,
0100
0000
2000
0000
0000
0000
0000
3001
0100
0000
0010
0000
1000
0000
0100
0000
,
0020
0000
0000
0031
2000
0000
0000
0000
,
3001
0100
0001
0000
1000
0000
0001
0010
0001
0000
1000
0000
0010
0100
0010
0000
,
1000
0100
1000
0000
0001
0000
1000
0010
1000
0000
0001
0000
0010
0100
1000
0000
,
0001
0010
0001
0000
1000
0000
0001
0100
0001
0000
1000
0000
0010
0100
0010
0000
,
1000
0001
1000
0000
0010
0000
1000
0001
1000
0000
0100
0000
1000
0100
0010
0000
,
0012
0000
0000
0000
0000
0000
0000
0000
1003
0100
0010
0001
1000
0100
0010
0001
,
1000
0010
1000
0000
0001
0000
1000
0100
1000
0000
0001
0000
0100
0010
0100
0000
,
0001
0010
0001
0000
1000
0000
0001
0100
0001
0000
1000
0000
0100
0010
0001
0000
,
1000
0100
1000
0000
0001
0000
1000
0010
1000
0000
0001
0000
0100
0010
0100
0000
,
0001
1000
0001
0000
0100
0000
0001
1000
0001
0000
0010
0000
0001
0010
0100
1000
,
0001
0010
0100
1000
0010
0100
0001
0100
0001
1000
0010
1000
0100
1000
0001
0100
0001
0010
0100
1000
0001
1000
0010
1000
,
0001
0100
0001
0100
0010
1000
0100
1000
0001
0100
0010
1000
0001
0100
0001
0100
0010
1000
0100
1000
0001
0100
0010
1000
,
0001
0100
0001
0100
0010
1000
0010
0100
0001
0010
0100
1000
0100
0010
0001
1000
,
0010
0100
0001
1000
0100
0010
0001
1000
0010
0100
0010
1000
0001
0010
0100
1000
,
0001
0010
0100
1000
0100
1000
0001
0100
0010
0100
0001
1000
0001
0010
0100
1000
0100
1000
0001
0100
0010
0100
0001
1000
,
0001
0010
0001
0100
0001
1000
0010
1000
0100
1000
0001
0010
0001
0100
0001
1000
0010
0100
0001
1000
0010
0100
0001
1000
,
0001
0010
0100
1000
0100
1000
0001
0100
0010
0100
0001
1000
0001
0010
0100
1000
0100
1000
0001
0100
0010
0100
0001
1000
,
0010
0100
0001
0100
0001
1000
0100
0010
0100
1000
0001
1000
0010
0100
0001
0100
0001
1000
0100
0010
0100
1000
0001
0100
,
0001
0010
0001
1000
0001
0100
0001
1000
0010
1000
0001
0100
0001
1000
0100
0010
,
0001
0100
0001
1000
0001
0010
0001
1000
0100
1000
0001
0010
0001
1000
0010
0100
,
0001
1000
0100
1000
0010
0100
0001
0010
0001
1000
0010
1000
0001
0010
0100
1000
,
0001
1000
0100
1000
0010
0100
0001
0010
0001
1000
0010
1000
0001
0010
0100
1000
,
0001
0010
0001
0000
1000
0000
0001
0100
0001
0000
1000
0000
0100
0010
0100
0000
,
1000
0010
1000
0000
0001
0000
1000
0100
1000
0000
0001
0000
0100
0010
1000
0000
,
0001
0100
0001
0000
1000
0000
0001
0010
0001
0000
1000
0000
0100
0010
0100
0000
,
1000
0001
1000
0000
0100
0000
1000
0001
1000
0000
0010
0000
1000
0010
0100
0000
,
0001
0100
0001
0000
1000
0000
0001
0010
0001
0000
1000
0000
0010
0100
0010
0000
,
1000
0100
1000
0000
0001
0000
1000
0010
1000
0000
0001
0000
0010
0100
1000
0000
,
0001
0010
0001
0000
1000
0000
0001
0100
0001
0000
1000
0000
0010
0100
0010
0000
,
1001
0000
0000
0000
1001
0000
0000
0000
1000
0010
0100
0001
1000
0010
0100
0001
,
1000
0001
0100
0010
1000
0001
1000
0100
1000
0001
0100
0010
1000
0001
0010
0001
0100
0001
1000
0010
1000
0100
1000
0001
,
0100
0010
1000
0001
1000
0100
1000
0001
0100
0010
0100
0001
1000
0001
0010
0100
1000
0001
0010
0001
0100
0001
1000
0010
,
0100
0001
1000
0010
1000
0100
1000
0001
0010
0100
1000
0010
1000
0001
0100
0010
1000
0001
1000
0100
0010
0100
1000
0001
,
0100
0001
1000
0001
0010
0100
1000
0001
0010
0001
0100
0001
1000
0010
0100
0001
1000
0010
0100
0010
1000
0001
1000
0100
,
0010
0100
1000
0001
0010
0001
0100
0001
1000
0010
0100
0001
1000
0100
1000
0001
0100
0001
2000
0000
0000
3020
0000
0000
,
1030
0001
0010
0100
1000
0001
1000
0010
0100
0010
1000
0001
0010
0001
0100
0001
1000
0100
1000
0001
0010
0100
1000
0001
,
1000
0010
0100
0010
1000
0001
0100
0001
0010
0001
1000
0010
1000
0001
0100
0010
0100
0001
1000
0100
1000
0001
0010
0100
,
1000
0001
1000
0001
1000
0000
0000
0000
1001
0000
0000
0000
0000
0000
0000
0000
1000
0000
0100
0000
0010
0000
0001
0000
1000
0000
0100
0000
0010
0000
0001
0000
,
1000
0010
0100
0001
2000
0000
3010
0100
,
0001
0000
2000
0000
0000
0000
0000
3001
0100
0000
0010
0000
1000
0000
0100
0000
,
0020
0000
0000
0031
2000
0000
0000
0000
,
3010
0100
0010
0000
1000
0000
0100
0010
0100
0000
1000
0000
0001
0100
0001
0000
,
1000
0100
1000
0000
0001
0000
0010
0000
0200
0000
0000
0000
1300
0000
0001
0000
,
0010
0000
0200
0000
0000
0000
0000
1300
0001
0000
0100
0000
0010
0000
1000
0000
,
0200
0000
0000
0000
0000
0000
0310
0001
2000
0000
0000
0000
0000
0000
0000
0000
,
3001
0100
0001
0010
0001
1000
0010
1000
,
1001
0000
0001
0010
0100
0000
1100
0000
1000
0000
0100
0000
0110
0000
0010
0000
,
0011
0000
0001
0010
0100
0000
1100
0000
1000
0000
0100
0000
0110
0000
0010
0000
,
0011
0000
0001
0100
0010
0000
1010
0000
1000
0000
0010
0000
0110
0000
0100
0000
,
0101
0000
0001
0100
0010
0000
1010
0000
1000
0000
0010
0000
0110
0000
0100
0000
,
0101
0000
0001
0010
0100
0000
1100
0000
1000
0000
0100
0000
0110
0000
0010
0000
,
0011
0000
0001
0010
0100
0000
1100
0000
1000
0000
0100
0000
0110
0000
0010
0000
,
0011
0000
0001
0100
0010
0000
1010
0000
1000
0000
0010
0000
0110
0000
0100
0000
,
0101
0000
0000
0000
0101
0000
0000
0000
0001
0100
0010
1000
0001
0100
0010
1000
,
0001
0010
0001
0000
1000
0000
0001
0100
0001
0000
1000
0000
0100
0010
0100
0000
,
1000
0010
1000
0000
0001
0000
1000
0100
1000
0000
0001
0000
0100
0010
1000
0000
,
0001
0100
0001
0000
1000
0000
0001
0010
0001
0000
1000
0000
0100
0010
0100
0000
,
1000
0001
1000
0000
0100
0000
1000
0001
1000
0000
0010
0000
1000
0010
0100
0001
,
1000
0010
0100
0001
0010
0100
1000
0100
1000
0001
0010
0001
0100
0001
1000
0100
1000
0010
0100
0001
1000
0001
0010
0001
,
1000
0100
1000
0100
0010
0001
0100
0001
1000
0100
0010
0001
1000
0100
1000
0100
0010
0001
0100
0001
1000
0100
0010
0001
,
1000
0100
1000
0100
0010
0001
0010
0100
1000
0010
0100
0001
0100
0010
1000
0001
,
0010
0100
1000
0001
0100
0010
1000
0001
0010
0100
0010
0001
1000
0010
0100
0001
,
1000
0010
0100
0001
0100
0001
1000
0100
0010
0100
1000
0001
1000
0010
0100
0001
0100
0001
1000
0100
0010
0100
1000
0001
,
1000
0010
1000
0100
1000
0001
0010
0001
0100
0001
1000
0010
1000
0100
1000
0001
0010
0100
1000
0001
0010
0100
1000
0001
,
1000
0010
0100
0001
0100
0001
1000
0100
0010
0100
1000
0001
1000
0010
0100
0001
0100
0001
1000
0100
0010
0100
1000
0001
,
0010
0100
1000
0100
1000
0001
0100
0010
0100
0001
1000
0001
0010
0100
1000
0100
1000
0001
0100
0010
0100
0001
1000
0100
,
1000
0010
1000
0001
1000
0100
1000
0001
0010
0001
1000
0100
1000
0001
0100
0010
,
1000
0100
1000
0001
1000
0010
1000
0001
0100
0001
1000
0010
1000
0001
0010
0100
,
1000
0001
0100
0001
0010
0100
1000
0010
1000
0001
0010
0001
1000
0010
0100
0001
,
1000
0001
0100
0001
0010
0100
1000
0010
1000
0001
0010
0001
1000
0010
0100
0001
,
1000
0100
1000
0000
0001
0000
1000
0010
1000
0000
0001
0000
0010
0000
0100
0000
,
1000
0010
1000
0000
0001
0000
1000
0100
1000
0000
0001
0000
0100
0000
0010
0000
,
1000
0010
1000
0000
0001
0000
1000
0100
1000
0000
0001
0000
0010
0000
0100
0000
,
1000
0001
1000
0000
0100
0000
1000
0001
1000
0000
0010
0000
1000
0000
0001
0000
,
1000
0010
1000
0000
0001
0000
1000
0100
1000
0000
0001
0000
0100
0010
0100
0000
,
0001
0010
0001
0000
1000
0000
0001
0100
0001
0000
1000
0000
0100
0000
0010
0000
,
0001
0010
0001
0000
1000
0000
0001
0100
0001
0000
1000
0000
0010
0000
0100
0000
,
0001
0010
0001
0000
1000
0000
0001
0100
0001
0000
1000
0000
0010
0000
0100
0000
,
M00M
0000
0000
0000
;
