#TITLE:I Will Pick You Up;
#SUBTITLE:Kurwastyle Project Remix;
#ARTIST:S3RL feat. Tamika;
#TITLETRANSLIT:;
#SUBTITLETRANSLIT:;
#ARTISTTRANSLIT:;
#CREDIT:;
#BANNER:up-bn.png;
#BACKGROUND:up-bg.png;
#LYRICSPATH:;
#CDTITLE:;
#MUSIC:12. S3RL feat. Tamika - I Will Pick You Up (Kurwastyle Project Remix).ogg;
#OFFSET:-3.041;
#SAMPLESTART:64.208;
#SAMPLELENGTH:27.420;
#SELECTABLE:YES;
#BPMS:0.000=240.000;
#STOPS:;
#BGCHANGES:;
// cache tags:
#FIRSTBEAT:20.000;
#LASTBEAT:633.000;
#SONGFILENAME:Songs/SPEEEDCOOOORE 4/I Will Pick You Up - [Rynker & Aoreo]/i will pick you up.sm;
#HASMUSIC:1;
#HASBANNER:1;
#MUSICLENGTH:166.022;
// end cache tags

//---------------dance-single - Rynker----------------
#NOTES:
     dance-single:
     Rynker:
     Hard:
     13:
     0.942,1.000,0.205,0.861,0.572,914.000,34.000,143.000,0.000,1.000:

0000
0000
0000
0000
,
0000
0000
0000
0000
,
0000
0000
0000
0000
,
0000
0000
0000
0000
,
0000
0000
0000
0000
,
2000
0000
0000
0000
,
0000
0000
0000
0000
,
3200
0000
0000
0000
,
0000
0300
0000
0000
,
2000
0000
0000
0000
,
0000
0000
0000
0000
,
3020
0000
0000
0000
,
0000
0030
0000
0000
0000
0000
0000
0000
,
1000
0001
0100
0000
0010
0100
0000
0001
,
1000
0000
0100
0010
0000
0001
1000
0000
,
0001
0100
0010
0100
0001
1000
0100
0010
,
0100
1000
0001
0010
0100
1000
0010
1000
,
0100
0010
0001
1000
0010
0100
0001
1000
,
0100
0010
0001
0100
0010
1000
0001
0010
,
0100
1000
0100
0010
0001
0010
0100
1000
,
0001
0100
0010
0100
0001
1000
0100
0010
,
0001
0000
1000
0000
0100
0000
1000
0001
0100
0001
1000
0000
0100
0000
0010
0001
,
1000
0001
1000
0000
0001
0000
0100
0001
0100
0000
0010
0000
1000
0001
1000
0000
,
0001
0000
0010
0000
0100
0000
1000
0100
1000
0100
0010
0000
0000
0000
0001
1000
,
0001
0000
0100
0000
0010
0000
1000
0001
0100
0000
0010
0000
1000
0001
0010
0001
,
1000
0000
0100
0000
0010
0000
0001
1000
0001
0000
1000
0000
0001
0010
0001
0010
,
0100
0000
1000
0000
0010
0000
0100
0001
1000
0000
0010
0000
1000
0100
1000
0100
,
0010
0000
0001
0000
1000
0000
0010
0100
0001
0000
0010
0000
0100
1000
0001
1000
,
0010
0000
0100
0000
0001
0000
1000
0100
0010
0100
1000
0000
0001
0000
0100
0001
,
1000
0000
0001
0000
0100
0000
0010
0100
0001
0100
0001
0000
0010
0000
0100
1000
,
0001
0100
0001
0000
1000
0000
0001
0100
0001
0000
0010
0000
0100
1000
0100
1000
,
0001
0000
1000
0000
0001
0000
0100
0001
1000
0100
1000
0000
0001
0100
0001
0000
,
0010
0000
0001
0000
1000
0000
0100
0010
0001
0000
1000
0000
0010
0000
0100
0001
,
0100
0001
1000
0001
1000
0001
1000
0001
,
0100
0000
0010
0000
0100
0000
0010
0000
0100
0000
0001
0000
1000
0100
1000
0001
,
1000
0000
0001
0000
0100
0000
0001
0000
1000
0000
0100
0000
1000
0001
0100
0000
,
0001
1000
0100
0010
0001
1000
0100
1000
0001
0100
0001
1000
0010
0100
0001
1000
,
0001
0000
1000
0000
0100
0000
1000
0001
,
0000
0100
0000
0001
0000
1000
0010
0000
,
0100
0000
0001
0000
1000
0000
0100
1000
,
0000
0001
0000
0100
0000
0010
1000
0000
,
0001
0000
0010
0000
0100
0000
1000
0001
,
0100
0000
0010
0000
1000
0000
0001
0010
,
0100
1000
0001
0100
0010
1000
0001
1000
,
0100
0010
0001
0000
1000
0100
0010
0001
1000
0001
0100
0010
1000
0001
0100
0001
,
2000
3000
0100
0000
0020
0030
0001
0000
0020
0030
0100
0000
2000
3000
0020
0030
,
0100
0000
0002
0003
0100
0000
0020
0030
1000
0000
0002
0003
0020
0030
0100
0000
,
2000
3000
0001
0000
0200
0300
0010
0000
2000
3000
0010
0000
0200
0300
0002
0003
,
0010
0000
0200
0300
1000
0000
0002
0003
0100
0010
0100
0001
1000
0100
0010
0001
,
2000
3000
0000
0000
0002
0003
0000
0000
0200
0300
0000
0000
0020
0030
2000
3000
,
0000
0000
0200
0300
0000
0000
0020
0030
0000
0000
0002
0003
2000
3000
0000
0000
,
0001
0100
0010
1000
0001
0010
0100
0010
0001
1000
0001
1000
0100
0010
0001
1000
,
0001
0100
0010
0100
0001
1000
0010
0100
0001
1000
0100
0010
0001
0010
0100
1000
,
0002
0003
0100
0000
0020
0030
1000
0000
0200
0300
1000
0000
0020
0030
0200
0300
,
0001
0000
0200
0300
0010
0000
2000
3000
0004
0003
0040
0030
0400
0300
4000
3000
,
0002
0003
0100
0000
0020
0030
0100
0000
0002
0003
1000
0000
0200
0300
2000
3000
,
0001
0000
0020
0030
0100
0000
2000
3000
0001
0000
0000
0000
0000
0000
0000
0000
,
2000
3000
0100
0000
0020
0030
0001
0000
0020
0030
0100
0000
2000
3000
0020
0030
,
0100
0000
0002
0003
0100
0000
0020
0030
1000
0000
0200
0300
2000
3000
0001
0000
,
1000
0001
0101
0100
,
0001
0000
0000
0000
,
0100
0001
1000
0001
0100
0010
1000
0001
,
0100
0001
1000
0100
1000
0001
0100
0010
,
0100
0001
1000
0001
0100
0001
0010
0001
,
0100
0010
1000
0100
1000
0010
0100
0001
,
0100
0010
1000
0010
0100
0001
0010
0001
,
0100
0001
1000
0100
1000
0001
0100
0010
,
0100
0001
1000
0001
0100
0010
1000
0010
,
0100
0001
0010
0100
1000
0001
0100
0010
,
0100
0001
1000
0001
0100
0010
1000
0010
,
0100
0001
0010
0100
1000
0010
0100
0010
,
0100
0001
1000
0001
0100
0010
1000
0010
,
0100
0001
0010
0100
1000
0001
0100
0001
,
0100
0001
1000
0100
0010
0001
0010
0100
1000
0000
0000
0000
0001
0000
0000
0000
,
1000
0001
0100
0010
0100
0001
1000
0100
0010
0000
0001
0000
1000
0000
0010
0000
,
0100
0001
1000
0100
0010
0001
0100
0010
1000
0010
0100
0001
1000
0010
1000
0100
,
0010
0002
0203
0302
,
0203
0000
0000
0301
2000
0000
3000
0000
,
0002
2003
3200
0320
,
0032
0000
0000
1003
0200
0000
0300
0000
,
2000
3002
2003
3002
,
0013
0000
0000
0001
,
1000
0010
0000
0100
0000
0001
0000
0000
,
0010
0000
0000
0100
,
1000
0001
0100
0010
,
2000
0000
0000
3001
0200
0000
0300
0000
,
0002
2003
3200
0320
,
0032
0000
0000
1003
0020
0000
0030
0000
,
0200
0302
2003
3200
,
0310
0000
0000
0001
,
1000
0010
0000
0100
0000
0001
0000
0000
,
0010
0000
0000
0100
,
1000
0001
0100
0001
,
0010
0000
0000
0001
0000
0000
1000
0000
0000
0001
0000
0100
,
0000
0000
0010
0000
0000
1000
0000
0000
0001
0100
0000
0000
,
0001
0000
0000
1000
0000
0000
0100
0000
0000
0010
0000
0100
,
0000
0000
1000
0000
0000
0001
0000
0000
0100
0010
0000
0000
,
0100
0000
0000
0001
0000
0000
1000
0000
0000
0100
0000
1000
,
0000
0000
0001
0000
0000
0010
0000
0000
0001
1000
0000
0000
,
0001
0000
0000
0100
0000
0000
0010
0000
0000
1000
0000
0001
,
0000
0000
0100
0000
0000
0001
0000
0000
1000
0100
0000
0000
,
2200
3300
0000
0000
2200
3300
0000
0000
,
2200
3300
0000
0000
2200
3300
0000
0000
,
0202
0303
0202
0303
,
0202
0303
0202
1303
,
2200
3300
0000
0000
2200
3300
0000
0000
,
2200
3300
0000
0000
2200
3300
0000
0000
,
0202
0303
0202
0303
,
0202
0000
0303
0000
0001
1000
0100
1000
,
0200
0300
0000
0000
2200
3300
0000
0000
,
2200
3300
0000
0000
2200
3300
0000
0000
,
0202
0303
0202
0303
,
0202
0000
0303
0000
0202
0000
0303
1000
,
2200
3300
0000
0000
2200
3300
0000
0000
,
2200
3300
0000
0000
2200
3300
0000
0000
,
0202
0303
0202
0303
,
0202
0000
0303
0000
0202
0000
0303
1000
,
0100
0000
0000
1000
0000
0000
0010
0000
0000
0100
0000
0001
,
0000
0000
0100
0000
0000
0010
0000
0000
1000
0001
0000
0000
,
0010
0000
0000
0100
0000
0000
1000
0000
0000
0001
0000
0100
,
0000
0000
0001
0000
0000
1000
0000
0000
0010
0100
0000
0000
,
0001
0000
0000
1000
0000
0000
0100
0000
0000
0010
0000
0100
,
0000
0000
1000
0000
0000
0001
0000
0000
0100
0010
0000
0000
,
1000
0000
0000
0001
0000
0000
0010
0000
0000
0100
0000
1000
,
0000
0000
0001
0000
0000
0100
0000
0000
0010
1000
0000
0000
,
0001
0000
0000
0100
0000
0000
0001
0000
0000
1000
0000
0100
,
0000
0000
1000
0000
0000
0100
0000
0000
0010
0100
0000
0000
,
1000
0000
0000
0001
0000
0000
0100
0000
0000
0010
0000
1000
,
0000
0000
0001
0000
0000
0100
0000
0000
0001
1000
0000
0000
,
0100
0000
0000
0010
0000
0000
0100
0000
0000
1000
0000
0001
,
0000
0000
0100
0000
0000
0010
0000
0000
1000
0001
0000
0000
,
0100
0000
0000
0001
0000
0000
1000
0000
0000
0100
0000
1000
,
0000
0000
0001
0000
0000
0100
0000
0000
0010
1000
0000
0000
,
0001
0000
0000
0100
0000
0000
0001
0000
,
0000
0000
1000
0000
0000
0100
0000
0000
,
0010
0000
0000
0100
0000
0000
1000
0000
,
0000
0000
0001
0000
0000
0100
0000
0000
,
0010
0000
0000
1000
0000
0000
0001
0000
,
0000
0000
0100
0000
0000
0001
0000
0000
,
1000
0000
0000
0100
0000
0000
0010
0000
,
0000
0000
0001
0000
0000
1000
0000
0000
,
0001
0100
0010
1000
0010
0100
0001
1000
0100
1000
0001
0010
0100
1000
0001
0100
,
0001
0000
1000
0000
0100
1000
0001
1000
0001
0000
0000
0000
1000
0000
0000
0000
,
0001
0100
0010
1000
0010
0100
0001
0010
0100
1000
0100
0010
0001
1000
0001
0100
,
0010
1000
0010
0100
0001
1000
0100
1000
0001
0000
0000
0000
4000
0000
0000
0000
,
3001
0100
0010
1000
0010
0100
0001
1000
,
0100
1000
0001
1000
0001
0100
0010
1000
0001
0000
0000
0000
4000
0000
0000
0000
,
3001
0000
0100
0000
0010
0000
1000
0000
0001
0100
0001
1000
0100
0010
0001
1000
,
0001
0000
1000
0000
0100
0000
0010
0000
0001
1000
0010
0100
0001
0000
1000
0000
,
0001
0000
0000
0000
1000
0000
0100
1000
0100
0000
0000
0000
1000
0001
1000
0001
,
0100
0000
0001
0000
1000
0100
1000
0001
1000
0000
0000
0000
0001
0000
0100
0000
,
0001
0000
1000
0000
0010
0000
0100
0001
1000
0000
0001
0000
0010
0100
1000
0001
,
2000
0000
0000
0000
3001
0000
0000
0000
0100
0000
0001
0000
1000
0001
0010
0100
,
1000
0000
0001
0000
0100
0000
0000
0000
0001
0000
1000
0000
0010
0100
0001
0100
,
0001
0000
0000
0000
1000
0000
0100
0000
1000
0001
0010
0100
1000
0001
1000
0001
,
1000
0000
0000
0000
,
0000
0000
0000
0000
,
2002
0000
0000
0000
,
0000
3003
0000
0000
;

//---------------dance-single - Rynker & Aoreo----------------
#NOTES:
     dance-single:
     Rynker & Aoreo:
     Challenge:
     16:
     0.996,1.000,0.199,0.626,0.873,1020.000,33.000,104.000,0.000,1.000:


0000
0000
0000
0000
,
0000
0000
0000
0000
,
0000
0000
0000
0000
,
0000
0000
0000
0000
,
0000
0000
0000
0000
,
2000
0000
0000
0000
,
0000
0000
0000
0000
,
3200
0000
0000
0000
,
0000
0300
0000
0000
,
2000
0000
0000
0000
,
0000
0000
0000
0000
,
3020
0000
0000
0000
,
0000
0030
0000
0000
0000
0000
0000
0000
,
1000
0001
0100
0000
0010
0100
0000
0001
,
1000
0000
0100
0010
0000
0001
1000
0000
,
0001
0100
0010
0100
0001
1000
0100
0010
,
0100
1000
0001
0010
0100
1000
0010
1000
,
0100
0010
0001
1000
0010
0100
0001
1000
,
0100
0010
0001
0100
0010
1000
0001
0010
,
0100
1000
0100
0010
0001
0010
0100
1000
,
0001
0100
0010
0100
0001
1000
0100
0010
,
0001
0000
1000
0000
0100
0000
1000
0001
0100
0001
1000
0000
0100
0000
0010
0001
,
1000
0001
1000
0000
0001
0000
0100
0001
0100
0000
0010
0000
1000
0001
1000
0000
,
0001
0000
0010
0000
0100
0000
1000
0100
1000
0100
0010
0000
0000
0000
0001
1000
,
0001
0000
0100
0000
0010
0000
1000
0001
0100
0000
0010
0000
1000
0001
0010
0001
,
1000
0000
0100
0000
0010
0000
0001
1000
0001
0000
1000
0000
0001
0010
0001
0010
,
0100
0000
1000
0000
0010
0000
0100
0001
1000
0000
0010
0000
1000
0100
1000
0100
,
0010
0000
0001
0000
1000
0000
0010
0100
0001
0000
0010
0000
0100
1000
0001
1000
,
0010
0000
0100
0000
0001
0000
1000
0100
0010
0100
1000
0000
0001
0000
0100
0001
,
1000
0000
0001
0000
0100
0000
0010
0100
0001
0100
0001
0000
0010
0000
0100
1000
,
0001
0100
0001
0000
1000
0000
0001
0100
0001
0000
0010
0000
0100
1000
0100
1000
,
0001
0000
1000
0000
0001
0000
0100
0001
1000
0100
1000
0000
0001
0100
0001
0000
,
0010
0000
0001
0000
1000
0000
0100
0010
0001
0000
1000
0000
0010
0000
0100
0001
,
0100
0001
1000
0001
1000
0001
1000
0001
,
0100
0000
0010
0000
0100
0000
0010
0000
0100
0000
0001
0000
1000
0100
1000
0001
,
1000
0000
0001
0000
0100
0000
0001
0000
1000
0000
0100
0000
1000
0001
0100
0000
,
0001
1000
0100
0010
0001
1000
0100
1000
0001
0100
0001
1000
0100
0010
0001
1000
,
0001
0000
1000
0000
0100
0000
1000
0001
,
0000
0100
0000
0001
0000
1000
0010
0000
,
0100
0000
0001
0000
1000
0000
0100
1000
,
0000
0001
0000
0100
0000
0010
1000
0000
,
0001
0000
0010
0000
0100
0000
1000
0001
,
0100
0000
0010
0000
1000
0000
0001
0010
,
0100
1000
0001
0100
0010
1000
0001
1000
,
0100
0010
0001
1000
0001
0100
0010
0100
0001
1000
0001
0010
0100
1000
0001
0100
,
0010
1000
0010
0100
0001
1000
0001
0100
0010
0100
0001
1000
0001
0010
0100
1000
,
0001
0010
0001
1000
0010
0100
0010
1000
0001
1000
0100
0010
0001
1000
0010
0100
,
0010
1000
0001
0100
0001
1000
0100
0010
0100
1000
0001
0100
0001
1000
0010
0100
,
0010
1000
0001
1000
0100
0010
0001
1000
0010
0100
0010
1000
0001
0010
0100
1000
,
0002
0003
0000
0000
2000
3000
0000
0000
0020
0030
0000
0000
0200
0300
0002
0003
,
0000
0000
0020
0030
0000
0000
0200
0300
0000
0000
2000
3000
0002
0003
0000
0000
,
1000
0010
0100
0001
1000
0100
0010
0100
1000
0001
1000
0001
0010
0100
1000
0001
,
1000
0010
0100
0010
1000
0001
0100
0010
1000
0100
0010
0001
0100
0010
1000
0100
,
0010
0100
1000
0001
1000
0001
0100
0010
1000
0001
1000
0010
0100
0001
1000
0001
,
0010
0100
1000
0010
1000
0001
0100
0001
1000
0100
0010
0100
1000
0001
0100
0001
,
1000
0010
0100
0010
1000
0001
0100
0001
1000
0100
0010
0001
1000
0010
1000
0001
,
0100
0001
1000
0100
0010
0001
1000
0001
0100
0000
0000
0000
0000
0000
0000
0000
,
0001
0100
0001
1000
0100
0010
0001
1000
0001
0100
0010
0100
0001
1000
0010
0100
,
0010
1000
0001
0010
0100
1000
0001
0100
0001
1000
0100
0010
0001
1000
0001
0100
,
0010
1000
0010
0100
,
0001
0000
0000
0000
,
0100
0001
1000
0001
0100
0010
1000
0001
,
0100
0001
1000
0100
1000
0001
0100
0010
,
0100
0001
1000
0001
0100
0001
0010
0001
,
0100
0010
1000
0100
1000
0010
0100
0001
,
0100
0010
1000
0010
0100
0001
0010
0001
,
0100
0001
1000
0100
1000
0001
0100
0010
,
0100
0001
1000
0001
0100
0010
1000
0100
,
0010
0001
1000
0000
0100
0000
0010
0000
0001
0000
0100
0000
0010
0000
1000
0000
,
0001
0100
0001
1000
0010
0100
0001
1000
0001
0010
0100
1000
0001
0100
0001
1000
,
0010
0100
0010
1000
0001
0100
0001
1000
0100
0010
0001
1000
0001
0100
0010
0100
,
0001
1000
0001
0100
0010
0100
0001
1000
0001
0010
0100
1000
0001
0100
0001
1000
,
0100
0010
0001
1000
0010
1000
0001
0100
0001
0010
0100
1000
0004
0000
0003
0000
,
0100
0001
1000
0100
0010
0001
0010
0100
1000
0000
0000
0000
0001
0000
0000
0000
,
1000
0001
0100
0010
0100
0001
1000
0100
0010
0000
0001
0000
1000
0000
0010
0000
,
0100
0001
1000
0100
0010
0001
0100
0010
1000
0010
0100
0001
1000
0010
1000
0100
,
0010
0002
0203
0302
,
0203
0000
0000
0301
2000
0000
3000
0000
,
0002
2003
3200
0320
,
0032
0000
0000
1003
0200
0000
0300
0000
,
2000
3002
2003
3002
,
0013
0000
0000
0001
,
1000
0010
0000
0100
0000
0001
0000
0000
,
0010
0000
0000
0100
,
1000
0001
0100
0010
,
2000
0000
0000
3001
0200
0000
0300
0000
,
0002
2003
3200
0320
,
0032
0000
0000
1003
0020
0000
0030
0000
,
0200
0302
2003
3200
,
0310
0000
0000
0001
,
1000
0010
0000
0100
0000
0001
0000
0000
,
0010
0000
0000
0100
,
1000
0001
0100
0001
,
0010
0000
0000
0001
0000
0000
1000
0000
0000
0001
0000
0100
,
0000
0000
0010
0000
0000
1000
0000
0000
0001
0100
0000
0000
,
0001
0000
0000
1000
0000
0000
0100
0000
0000
0010
0000
0100
,
0000
0000
1000
0000
0000
0001
0000
0000
0100
0010
0000
0000
,
0100
0000
0000
0001
0000
0000
1000
0000
0000
0100
0000
1000
,
0000
0000
0001
0000
0000
0010
0000
0000
0001
1000
0000
0000
,
0001
0000
0000
0100
0000
0000
0010
0000
0000
1000
0000
0001
,
0000
0000
0100
0000
0000
0001
0000
0000
1000
0100
0000
0000
,
2200
3300
0000
0000
2200
3300
0000
0000
,
2200
3300
0000
0000
2200
3300
0000
0000
,
0202
0303
0202
0303
,
0202
0303
0202
1303
,
2200
3300
0000
0000
2200
3300
0000
0000
,
2200
3300
0000
0000
2200
3300
0000
0000
,
0202
0303
0202
0303
,
0202
0000
0303
0000
0001
1000
0100
1000
,
0200
0300
0000
0000
2200
3300
0000
0000
,
2200
3300
0000
0000
2200
3300
0000
0000
,
0202
0303
0202
0303
,
0202
0000
0303
0000
0202
0000
0303
1000
,
2200
3300
0000
0000
2200
3300
0000
0000
,
2200
3300
0000
0000
2200
3300
0000
0000
,
0202
0303
0202
0303
,
0202
0000
0303
0000
0202
0000
0303
1000
,
0100
0000
0000
1000
0000
0000
0010
0000
0000
0100
0000
0001
,
0000
0000
0100
0000
0000
0010
0000
0000
1000
0001
0000
0000
,
0010
0000
0000
0100
0000
0000
1000
0000
0000
0001
0000
0100
,
0000
0000
0001
0000
0000
1000
0000
0000
0010
0100
0000
0000
,
0001
0000
0000
1000
0000
0000
0100
0000
0000
0010
0000
0100
,
0000
0000
1000
0000
0000
0001
0000
0000
0100
0010
0000
0000
,
1000
0000
0000
0001
0000
0000
0010
0000
0000
0100
0000
1000
,
0000
0000
0001
0000
0000
0100
0000
0000
0010
1000
0000
0000
,
0001
0000
0000
0100
0000
0000
0001
0000
0000
1000
0000
0100
,
0000
0000
1000
0000
0000
0100
0000
0000
0010
0100
0000
0000
,
1000
0000
0000
0001
0000
0000
0100
0000
0000
0010
0000
1000
,
0000
0000
0001
0000
0000
0100
0000
0000
0001
1000
0000
0000
,
0100
0000
0000
0010
0000
0000
0100
0000
0000
1000
0000
0001
,
0000
0000
0100
0000
0000
0010
0000
0000
1000
0001
0000
0000
,
0100
0000
0000
0001
0000
0000
1000
0000
0000
0100
0000
1000
,
0000
0000
0001
0000
0000
0100
0000
0000
0010
1000
0000
0000
,
0001
0000
0000
0100
0000
0000
0001
0000
,
0000
0000
1000
0000
0000
0100
0000
0000
,
0010
0000
0000
0100
0000
0000
1000
0000
,
0000
0000
0001
0000
0000
0100
0000
0000
,
0010
0000
0000
1000
0000
0000
0001
0000
,
0000
0000
0100
0000
0000
0001
0000
0000
,
1000
0000
0000
0100
0000
0000
0010
0000
,
0000
0000
0001
0000
0000
1000
0000
0000
,
0001
0100
0010
1000
0010
0100
0001
1000
0100
1000
0001
0010
0100
1000
0001
0100
,
0001
0000
1000
0000
0100
1000
0001
1000
0001
0000
0000
0000
1000
0000
0000
0000
,
0001
0100
0010
1000
0010
0100
0001
0010
0100
1000
0100
0010
0001
1000
0001
0100
,
0010
1000
0010
0100
0001
1000
0100
1000
0001
0000
0000
0000
4000
0000
0000
0000
,
3001
0100
0010
1000
0010
0100
0001
1000
,
0100
1000
0001
1000
0001
0100
0010
1000
0001
0000
0000
0000
4000
0000
0000
0000
,
3001
0000
0100
0000
0010
0000
1000
0000
0010
1000
0100
0010
0001
0100
0001
1000
,
0100
0000
1000
0000
0100
0000
0010
0000
0001
1000
0010
0100
0001
0000
1000
0000
,
0001
0000
0000
0000
1000
0000
0100
1000
0100
0000
0000
0000
1000
0001
1000
0001
,
0100
0000
0001
0000
1000
0100
1000
0001
1000
0000
0000
0000
0001
0000
0100
0000
,
0001
0000
1000
0000
0010
0000
0100
0001
1000
0000
0001
0000
0010
0100
1000
0001
,
2000
0000
0000
0000
3001
0000
0000
0000
0100
0000
0001
0000
1000
0001
0010
0100
,
1000
0000
0001
0000
0100
0000
0000
0000
0001
0000
1000
0000
0010
0100
0001
0100
,
0001
0000
0000
0000
1000
0000
0100
0000
1000
0001
0010
0100
1000
0001
1000
0001
,
1000
0000
0000
0000
,
0000
0000
0000
0000
,
2002
0000
0000
0000
,
0000
3003
0000
0000
;
