#TITLE:PSYCHO FARM;
#SUBTITLE:;
#ARTIST:M1DY;
#TITLETRANSLIT:;
#SUBTITLETRANSLIT:;
#ARTISTTRANSLIT:;
#CREDIT:;
#BANNER:psychofarm.png;
#BACKGROUND:psychofarm-bg.png;
#LYRICSPATH:;
#CDTITLE:;
#MUSIC:psychofarm.mp3;
#OFFSET:-4.300;
#SAMPLESTART:38.300;
#SAMPLELENGTH:14.000;
#SELECTABLE:YES;
#BPMS:0.000=450.000,48.000=225.000,52.000=450.000,236.000=225.000,240.000=450.000;
#STOPS:180.000=0.933
,240.000=2.133
,241.000=0.933
,354.000=2.000
,403.000=0.933
;
#BGCHANGES:;
// cache tags:
#FIRSTBEAT:0.000;
#LASTBEAT:668.000;
#SONGFILENAME:Songs/new again/Psycho Farm/psychofarm.sm;
#HASMUSIC:1;
#HASBANNER:1;
#MUSICLENGTH:104.202;
// end cache tags

//---------------dance-single - ----------------
#NOTES:
     dance-single:
     :
     Hard:
     13:
     1.000,1.000,0.816,0.250,0.010,698.000,85.000,26.000,0.000,0.000:  // measure 1
1000
0100
1000
0100
,  // measure 2
0010
0001
0010
0001
,  // measure 3
1000
0100
1000
0100
,  // measure 4
0010
0001
1001
1001
,  // measure 5
0100
0010
0100
0010
,  // measure 6
1000
0001
1000
0001
,  // measure 7
0010
0100
0010
0100
,  // measure 8
1000
0001
0110
0110
,  // measure 9
1000
1000
0001
0001
,  // measure 10
0010
0010
0100
0100
,  // measure 11
0010
0010
1000
1000
,  // measure 12
0001
0001
0100
0110
,  // measure 13
1001
0110
0110
1001
1001
0110
0110
1001
,  // measure 14
0100
0100
0100
0100
,  // measure 15
0010
0010
0020
0130
,  // measure 16
0100
0001
0100
0001
,  // measure 17
0100
0010
0100
0010
,  // measure 18
1000
0010
1000
0010
,  // measure 19
0100
0001
1000
0001
,  // measure 20
0010
0100
0010
0100
,  // measure 21
0010
1000
0010
1000
,  // measure 22
0010
0100
0001
0100
,  // measure 23
0001
0010
0100
1000
,  // measure 24
0110
0001
0010
0100
,  // measure 25
0010
1000
1100
0110
,  // measure 26
1001
0010
0001
0100
,  // measure 27
0010
0001
0010
0100
,  // measure 28
0110
1000
0100
1000
,  // measure 29
0010
0100
0001
0010
,  // measure 30
0011
0010
0100
0010
,  // measure 31
1100
0010
0100
1001
,  // measure 32
1000
0001
1000
0001
,  // measure 33
1000
0001
1000
0002
,  // measure 34
0013
0100
0010
0100
,  // measure 35
0010
0100
0110
0110
,  // measure 36
0001
1000
0001
1000
,  // measure 37
0001
1000
0001
0001
,  // measure 38
0100
0010
0100
0010
,  // measure 39
0200
0320
0230
0010
,  // measure 40
0310
0100
0010
1000
,  // measure 41
0100
0001
0010
0001
,  // measure 42
0100
0010
1000
0100
,  // measure 43
1000
0010
0100
0001
,  // measure 44
0010
0010
0010
0010
,  // measure 45
0010
0010
0010
0010
,  // measure 46
0020
0030
0000
0000
0000
0000
0000
0000
0000
0000
0000
0000
0000
0000
0000
0000
0100
0000
0000
0000
0000
0000
0000
0000
0000
0000
0000
0000
0000
0000
0000
0000
0010
0000
0000
0000
0000
0000
0000
0000
0000
0000
0000
0000
0000
0000
0000
0000
0100
0000
0000
0000
0000
0000
0000
0000
0000
0000
0000
0000
0000
0000
0000
0000
,  // measure 47
1000
0001
0100
0010
,  // measure 48
1000
0101
1010
0101
,  // measure 49
1010
1001
1001
1001
,  // measure 50
1001
0100
0010
1000
,  // measure 51
0100
1000
0010
0100
,  // measure 52
0001
0010
0010
0010
,  // measure 53
0010
0100
0100
0100
,  // measure 54
0100
0001
0001
0001
,  // measure 55
0001
1000
1000
0010
,  // measure 56
0100
0001
0010
0001
,  // measure 57
0010
0100
0100
1000
,  // measure 58
1000
0100
1000
0100
,  // measure 59
1000
0010
0010
0001
,  // measure 60
0001
0100
0000
0100
0000
0100
0000
0200
,  // measure 61
0000
0300
0000
0000
0000
0000
0000
0000
0000
0000
0000
0000
0000
0000
0000
0000
0220
0330
0000
0000
0000
0000
0000
0000
0000
0000
0000
0000
0000
0000
0000
0000
0010
0000
0000
0000
0000
0000
0000
0000
0000
0000
0000
0000
0000
0000
0000
0000
0100
0000
0000
0000
0000
0000
0000
0000
0000
0000
0000
0000
0000
0000
0000
0000
,  // measure 62
0010
1000
0010
0100
,  // measure 63
0010
0001
0010
0100
,  // measure 64
0010
1000
0010
0100
,  // measure 65
0010
0001
1000
0010
,  // measure 66
1000
0001
0100
0001
,  // measure 67
0100
1000
0010
0100
,  // measure 68
0001
1000
0010
0010
,  // measure 69
0100
0100
0010
0100
,  // measure 70
0010
1000
0010
0100
,  // measure 71
0010
0001
0010
0100
,  // measure 72
1000
0001
0010
0100
,  // measure 73
1000
0110
0011
0011
,  // measure 74
1100
1100
0010
0100
,  // measure 75
0001
1000
0010
0010
,  // measure 76
0100
0100
0001
0010
,  // measure 77
0100
1000
0100
1000
,  // measure 78
0010
1000
0001
1000
,  // measure 79
0010
1000
0100
1000
,  // measure 80
0010
1000
0001
0001
,  // measure 81
0010
0010
0100
0010
,  // measure 82
0001
0010
0100
1000
,  // measure 83
0100
1000
0010
0100
,  // measure 84
0001
0010
0001
0010
,  // measure 85
0100
0000
1000
0000
0010
0100
0010
0100
,  // measure 86
0010
0100
0010
0100
0010
0100
0010
0100
,  // measure 87
0010
0100
0010
0100
0010
0100
0010
0100
,  // measure 88
0010
0100
0010
0100
0010
0100
0010
0100
,  // measure 89
0001
0000
0000
0000
0000
0000
0000
0000
1000
0000
0000
0000
0000
0000
0000
0000
0001
0000
0000
0000
0000
0000
0000
0000
1000
0000
0000
0000
0000
0000
0000
0000
0002
0003
0000
0000
0000
0000
0000
0000
0000
0000
0000
0000
0000
0000
0000
0000
1000
0000
0000
0000
0000
0000
0000
0000
0000
0000
0000
0000
0000
0000
0000
0000
,  // measure 90
0001
1000
0001
0010
,  // measure 91
0100
0010
0100
0001
,  // measure 92
1000
0001
1000
0010
,  // measure 93
0100
0010
0100
0001
,  // measure 94
1000
0001
1000
0010
,  // measure 95
0100
0010
0100
0011
,  // measure 96
1100
0110
0101
0110
,  // measure 97
1010
1001
1001
2000
,  // measure 98
3100
2000
3100
2000
,  // measure 99
3100
2000
3100
0020
,  // measure 100
0031
0020
0031
0020
,  // measure 101
0031
0000
0000
0000
0000
0000
0000
0000
0000
0000
0000
0000
0000
0000
0000
0000
0020
0000
0000
0000
0000
0000
0000
0000
0000
0000
0000
0000
0000
0000
0000
0000
0031
0000
0000
0000
0000
0000
0000
0000
0000
0000
0000
0000
0000
0000
0000
0000
0220
0330
0000
0000
0000
0000
0000
0000
0000
0000
0000
0000
0000
0000
0000
0000
,  // measure 102
0010
0010
0010
0010
,  // measure 103
0010
0010
0010
0010
,  // measure 104
0100
0100
0100
0100
,  // measure 105
0010
0010
0010
0010
,  // measure 106
0100
0100
0100
0100
,  // measure 107
1001
1001
1001
1001
,  // measure 108
0010
0010
0010
0010
,  // measure 109
0100
0100
0100
0100
,  // measure 110
0010
0010
0010
0010
,  // measure 111
0110
0110
0110
0110
,  // measure 112
0001
0001
0001
0001
,  // measure 113
1000
1000
1000
1000
,  // measure 114
0001
0001
0001
0001
,  // measure 115
1000
1000
1000
1000
,  // measure 116
0010
0010
0010
0010
,  // measure 117
0100
0100
0100
0100
,  // measure 118
0010
0010
0010
0010
,  // measure 119
0100
0100
0100
0100
,  // measure 120
0001
0010
0001
0010
,  // measure 121
0001
0010
0001
0010
,  // measure 122
0100
1000
0100
1000
,  // measure 123
0100
1000
0100
1000
,  // measure 124
0001
0010
0001
0010
,  // measure 125
0001
0010
0001
0010
,  // measure 126
0100
1000
0100
1000
,  // measure 127
0100
1000
0100
1000
,  // measure 128
0010
0100
0010
0100
,  // measure 129
0001
1000
0001
1000
,  // measure 130
0010
0100
0010
0100
,  // measure 131
1000
0001
1000
0001
,  // measure 132
0002
0013
0010
0010
,  // measure 133
0002
0013
0010
0010
,  // measure 134
0100
0010
0100
0010
0100
0010
0100
0000
,  // measure 135
0000
0110
0000
1001
,  // measure 136
0010
0100
0010
1000
,  // measure 137
0010
0100
0010
0001
,  // measure 138
0010
0100
0010
1000
,  // measure 139
0010
0100
0010
0001
,  // measure 140
1000
0010
1000
0001
,  // measure 141
1000
0010
1000
0100
,  // measure 142
1000
0010
1000
0001
,  // measure 143
1000
0001
1001
1001
,  // measure 144
0100
0100
0010
0010
,  // measure 145
1000
1000
0001
0001
,  // measure 146
0010
0001
0100
0010
,  // measure 147
1000
0100
0001
0001
,  // measure 148
0020
0100
0100
0100
,  // measure 149
0230
0010
0010
0010
,  // measure 150
0320
1000
1000
1000
,  // measure 151
2030
0001
0001
0001
,  // measure 152
3001
0110
0110
0110
,  // measure 153
0110
0110
0110
0110
,  // measure 154
0110
0110
0110
0110
,  // measure 155
0110
0110
0110
0110
,  // measure 156
1001
1001
1001
1001
,  // measure 157
1001
1001
1001
1001
,  // measure 158
1001
1001
1001
1001
,  // measure 159
1000
0001
1000
0001
1000
0001
1000
0001
,  // measure 160
0100
0100
0100
0100
,  // measure 161
0100
0100
0100
0100
,  // measure 162
0010
0010
0010
0010
,  // measure 163
0010
0010
0010
0010
,  // measure 164
0100
0100
0100
0100
,  // measure 165
0100
0100
0100
0100
,  // measure 166
0010
0100
0010
0100
0010
0000
0010
0000
,  // measure 167
0010
0100
0010
0100
0010
0000
0000
0000
0010
0000
0000
0000
0000
0000
0000
0000
,  // measure 168
0010
0000
0000
0000
;
