#TITLE:#est;
#SUBTITLE:;
#ARTIST:NTW;
#TITLETRANSLIT:Sharpest;
#SUBTITLETRANSLIT:;
#ARTISTTRANSLIT:;
#CREDIT:;
#BANNER:../bn.png;
#BACKGROUND:../veyron.png;
#LYRICSPATH:;
#CDTITLE:NTW-Title.png;
#MUSIC:Sharpest.ogg;
#OFFSET:1.080;
#SAMPLESTART:85.320;
#SAMPLELENGTH:18.060;
#SELECTABLE:YES;
#BPMS:0.000=215.000;
#STOPS:;
#BGCHANGES:;
// cache tags:
#FIRSTBEAT:4.000;
#LASTBEAT:460.000;
#SONGFILENAME:Songs/Cirque du Veyron/Zaia - #est/Sharpest.sm;
#HASMUSIC:1;
#HASBANNER:1;
#MUSICLENGTH:135.984;
// end cache tags

//---------------dance-single - Zaia----------------
#NOTES:
     dance-single:
     Zaia:
     Challenge:
     15:
     1.000,1.000,0.103,0.110,1.000,1013.000,14.000,15.000,0.000,0.000:
0000
0000
0000
0000
,
1000
0010
0100
0001
1000
0001
0010
0100
0010
0000
0000
0000
0001
0000
0000
0000
,
1000
0010
0100
0001
,
1000
0100
1000
0010
,
0100
0001
1000
0100
,
0010
0100
1000
0001
,
0010
0001
1000
0010
,
0100
0001
1000
0010
1000
0100
1000
0001
,
0010
0100
1000
0000
0001
0100
0010
0000
1000
0010
0100
0000
0001
0010
0100
0000
,
1000
0100
1000
0010
0100
0001
0010
0001
,
1000
0001
0100
0010
1000
0100
0010
0010
,
0100
1000
0001
0100
0010
0100
0001
1000
,
0020
0000
0230
0000
,
0302
0000
2003
0000
,
3100
0010
0001
1000
0001
0000
0100
0000
0010
0000
0100
0001
0100
0010
1000
0000
,
0001
0100
0001
0010
0001
1000
0100
0010
,
0100
1000
0010
1000
0001
0000
1000
0000
0010
0000
0000
0000
0100
0000
0000
0000
,
0001
1000
0100
0010
,
0011
1001
0101
1010
,
1000
0010
1000
0001
1000
0000
0000
0000
0010
0000
0000
0000
0100
0000
0000
0000
,
0101
1001
1100
0011
,
0001
0010
0100
1000
,
0001
0100
0001
0000
1000
0100
1000
0000
0001
0010
0001
0000
1000
0010
0100
0000
,
0001
0100
0010
1000
0001
1000
0100
0010
0001
1000
0010
0000
0100
0001
0100
0000
,
0010
1000
0100
0010
,
0100
1000
1001
0001
,
0100
0010
1000
0000
0100
0000
0010
0000
0100
0000
1000
0000
0010
0000
0100
0000
,
0001
0000
0100
0000
0010
0000
0100
0000
0001
1000
0010
0000
0100
0000
0000
0000
,
0001
1000
0100
1000
,
0001
0100
0100
0100
,
0100
0100
0100
0100
,
0100
0001
1000
0010
,
0100
0001
0010
0100
,
1000
0001
0100
0001
,
0010
0100
1000
0001
0100
0010
0100
0001
1000
0010
1000
0001
0010
0100
0010
0001
,
0100
0010
1000
0100
1000
0001
0010
0001
1000
0001
0100
0010
0100
0001
0010
0100
,
1000
0010
0100
0001
1000
0001
0100
0010
1000
0100
0010
0100
1000
0001
0010
0001
,
1000
0010
0100
0010
1000
0001
0010
0100
,
1000
0001
1000
0000
0100
0000
0010
0000
0001
0000
0010
0000
0100
0000
1000
0000
,
0001
1000
0010
1000
0001
0100
0010
1000
,
0001
0010
0001
0000
0010
0000
0100
0000
1000
0000
0010
0000
1000
0000
0001
0000
,
0200
0000
0000
0000
,
0302
0000
0000
0000
,
2003
0000
0000
0000
,
3002
0100
1000
0010
,
2003
0010
0001
0100
,
3002
0010
0100
1000
,
2003
0100
0010
0001
,
3001
0100
0010
1000
,
0001
0010
0100
0010
,
0011
0001
1000
0010
,
0110
0100
0001
0010
,
0011
0001
1001
1000
,
1010
0010
1000
0001
0100
0001
0010
0001
,
1000
0000
0100
0000
0010
0000
0100
0000
1000
0000
0001
0000
1000
0000
0010
0100
,
0001
0000
1000
0100
0010
0000
0001
1000
0001
0000
0100
0000
0010
0000
1000
0010
,
0100
0000
0001
0010
0100
0000
1000
0100
1000
0000
0001
0000
0010
0100
1000
0000
,
0001
0000
1000
0000
0100
0000
1000
0001
0100
0000
0010
0000
0100
0000
0001
0100
,
0001
0000
0000
0000
0000
0000
0000
0000
0000
0000
0000
0000
0000
0000
1000
0100
,
1000
0000
0000
0000
0000
0000
0000
0000
0000
0000
0000
0000
0000
0000
0001
1000
,
0001
0000
0000
0000
0000
0000
0100
0010
0100
0000
0000
0000
0000
0000
0001
1000
,
0001
0000
0000
0000
0000
0000
0010
0100
0010
0000
0100
0000
1000
0000
0001
0100
,
0001
0000
0100
0000
0010
0000
1000
0010
1000
0000
0001
0000
1000
0000
0001
0010
,
0001
0000
1000
0000
0001
0000
0100
0010
0100
0000
0001
0000
1000
0000
0100
0010
,
0100
0000
0000
0000
,
0000
0000
0000
0000
,
0000
0000
0000
0000
,
1000
0100
0010
0100
1000
0001
0010
0001
1000
0001
0100
0010
0100
0001
0010
0100
,
0010
0001
0100
0010
1000
0001
1000
0001
0100
0010
1000
0100
1000
0001
0010
0100
,
1000
0001
0100
0010
0100
0001
1000
0010
1000
0001
0010
0001
1000
0100
0010
0100
,
1000
0010
0100
0001
0100
0010
0100
0010
1000
0001
0010
0100
0010
0100
1000
0001
,
0100
0010
0100
0001
0010
0100
1000
0100
0010
0001
1000
0010
1000
0001
1000
0100
,
0010
0100
1000
0001
1000
0010
1000
0001
0010
0001
1000
0010
0100
0001
1000
0100
,
0010
0100
1000
0010
0100
0001
1000
0001
0010
0001
0100
0010
1000
0010
0100
0001
,
0010
0100
1000
0001
0010
0001
1000
0010
0100
0010
1000
0001
0010
0001
1000
0010
,
0200
0000
0000
0000
,
0000
0000
0000
0000
,
0301
0100
0010
0100
0001
1000
0010
1000
0001
1000
0100
0010
0100
1000
0010
0100
,
0010
1000
0100
0010
0001
1000
0001
1000
0100
0010
0001
0100
0001
1000
0010
0100
,
0001
1000
0100
0010
0100
1000
0001
0010
0001
1000
0010
1000
0001
0100
0010
0100
,
0001
0010
0100
1000
0100
0010
0100
0010
0001
1000
0010
0100
0010
0100
0001
1000
,
0100
0010
0100
1000
0010
0100
0001
0100
0010
1000
0001
0010
0001
1000
0001
0100
,
0020
0000
0000
0000
,
0000
0000
0000
0000
,
1030
0001
1000
0001
0100
0001
1000
0100
0010
0100
1000
0001
0100
0001
1000
0100
,
0010
0001
0100
0010
1000
0010
0100
0001
1000
0100
0010
0100
1000
0001
1000
0001
,
0100
0010
1000
0001
0010
0100
0010
0001
1000
0100
1000
0001
0100
0010
1000
0001
,
1000
0100
1000
0010
0100
0001
0010
0001
0010
0100
1000
0001
0100
0010
1000
0001
,
0100
0010
1000
0001
0010
0001
1000
0100
1000
0001
0100
0001
0010
0100
1000
0001
,
2000
0000
0000
0000
,
0000
0000
0000
0000
,
3001
0100
0010
1000
0001
0010
0001
1000
0100
1000
0001
0100
0001
0100
0010
1000
,
0001
0010
0100
0010
0001
0100
0010
1000
0001
1000
0100
1000
0010
0100
0001
1000
,
0100
0010
0001
0100
0010
1000
0001
0100
0001
0010
0100
1000
0001
0100
0001
1000
,
0100
1000
0001
0010
0100
0010
0001
1000
0001
1000
0010
0100
0010
1000
0100
0010
,
0001
1000
0100
0010
0100
1000
0001
0100
0010
0100
0010
1000
0001
0010
0001
0100
,
0001
1000
0100
1000
0001
1000
0010
0100
0001
1000
0001
0010
0001
0100
0010
1000
,
0001
0100
0010
1000
0001
0010
0100
0010
0001
1000
0010
1000
0010
0100
0001
1000
,
0100
0010
0100
1000
0001
0010
0001
1000
0010
1000
0001
0100
0010
1000
0100
0010
,
0001
0100
0010
1000
0001
0010
0001
1000
0100
1000
0001
0100
0010
1000
0001
1000
,
0010
0100
0010
1000
0100
0010
0001
1000
0100
1000
0001
0100
0001
0100
0010
1000
,
0001
0010
0100
0010
0001
1000
0010
0100
0001
1000
0100
1000
0001
0010
0001
0100
,
0010
1000
0001
0100
0001
0010
0100
1000
0001
0100
0010
0100
0001
1000
0001
0010
,
0100
0010
0001
0100
0010
1000
0001
1000
0010
0100
0001
1000
0100
0010
0100
1000
,
0001
0010
0001
1000
0100
1000
0001
0100
0010
1000
0010
0100
0001
1000
0100
0010
,
0001
1000
0001
1000
0100
0010
0001
1000
0010
0100
0001
0100
0001
1000
0010
0100
,
0001
1000
0100
1000
0001
0010
0001
1000
0010
0100
0010
1000
0001
1000
0100
0010
,
0001
0010
0100
1000
,
0001
0100
0010
1000
,
0001
1000
0100
1000
,
0001
0100
0010
1000
0100
1000
0001
1000
,
0001
0010
0001
0100
0010
1000
0001
0100
,
0001
1000
0100
0010
0001
0000
1000
0000
0010
0000
1000
0000
0100
1000
0001
0100
,
0010
0000
1000
0000
0010
0000
0100
0000
0001
0000
1000
0000
0010
1000
0001
1000
,
0200
0000
0000
0000
,
0300
0000
0000
0000
;
