#TITLE:Tokyo Style Speedcore;
#SUBTITLE:;
#ARTIST:M1DY;
#TITLETRANSLIT:;
#SUBTITLETRANSLIT:;
#ARTISTTRANSLIT:;
#CREDIT:;
#BANNER:tssBN.png;
#BACKGROUND:tssBG.png;
#LYRICSPATH:;
#CDTITLE:!othnapCD.png;
#MUSIC:m1dy - Tokyo Style Speedcore.mp3;
#OFFSET:0.246;
#SAMPLESTART:13.920;
#SAMPLELENGTH:21.220;
#SELECTABLE:YES;
#BPMS:0.000=198.000,45.000=99.000,45.500=100.000,46.000=395.999,50.000=99.000,54.000=198.000,88.000=197.999,115.000=98.998,116.000=197.999,130.000=252.559,131.000=234.119,132.000=165.739,133.000=119.599,134.000=109.498,135.000=114.298,136.000=104.618,137.000=32.998,138.000=197.999,248.000=98.999,266.000=197.999,376.000=98.999;
#STOPS:82.000=0.100
,82.250=0.100
,82.500=0.100
,312.000=0.020
,312.125=0.020
,312.250=0.020
,312.500=0.240
,373.000=0.040
,373.125=0.040
,373.250=0.100
,373.500=0.100
;
#BGCHANGES:;
// cache tags:
#FIRSTBEAT:1.000;
#LASTBEAT:382.563;
#SONGFILENAME:Songs/new/[OT!] Tokyo Style Speedcore/tokyostylespeedcore.sm;
#HASMUSIC:1;
#HASBANNER:1;
#MUSICLENGTH:129.503;
// end cache tags

//---------------dance-single - ----------------
#NOTES:
     dance-single:
     :
     Hard:
     11:
     1.000,1.000,1.000,0.564,0.649,818.000,209.000,73.000,0.000,2.000:
0000
2020
3030
0000
,
0000
0000
0000
0000
,
0000
1001
2002
0000
3003
0000
0000
0000
,
0000
0000
0000
0000
0001
0010
0100
1000
,
0001
0010
0101
0000
0010
0000
1000
1000
,
0100
0000
0100
0000
0010
0001
0100
0000
1001
0000
0000
0000
1001
0000
0000
0000
,
1001
0110
1001
0000
0100
0000
0001
0001
,
0010
0000
0010
0000
0100
1000
0010
0000
0101
0000
0000
0000
0101
0000
0000
0000
,
0101
0110
0101
0000
1000
0000
0100
0100
,
0010
0000
0010
0000
0001
1000
0100
0000
1001
0000
0000
0000
1001
0000
0000
0000
,
1001
1010
1100
0000
0001
0000
0010
0010
,
0100
0000
0000
0000
0100
0000
0000
0000
0001
1000
0001
0000
1001
0000
0000
0000
1000
0000
0000
0000
0100
0000
0000
0000
0010
0000
0000
0000
0001
0000
0000
0000
,
0010
0100
1000
0100
0012
0000
0000
2000
,
0000
0000
0000
3003
1001
0100
0001
0010
,
0100
0000
1000
0000
0010
0000
1000
0000
0100
0000
0010
0000
0100
0000
0001
1000
,
0010
0010
1000
1000
0001
0100
0001
0010
,
0100
0000
1000
0000
0001
0000
0100
0000
0001
0000
0010
0100
1000
0100
0010
0000
,
1001
0000
0000
0000
0100
0000
0001
0000
0010
0000
0100
0000
1000
0000
0100
0000
0010
0000
0000
0000
1000
0100
0010
0001
1000
0100
0010
0001
1000
0000
0000
0000
,
0100
0000
0010
0000
0100
0000
1000
0000
0010
0000
1000
0000
0001
0000
1000
0100
,
0010
0000
0000
0000
0000
0000
0000
0000
0001
0000
0000
0000
0000
0000
0000
0000
0020
0030
0000
0000
0000
0000
0000
0000
0001
0000
0000
0000
0000
0000
0000
0000
1000
0000
0000
0000
0000
0000
0000
0000
0010
0000
0000
0000
0000
0000
0000
0000
1000
0000
0000
0000
0000
0000
0000
0000
0100
0000
0000
0000
0000
0000
0000
0000
,
0010
0100
1000
0000
0001
0000
1000
0100
0011
0011
0011
0011
1001
0100
0001
0010
,
0100
1000
0010
0100
1001
0000
0100
0000
0001
0000
0010
0000
0100
0000
1000
0000
,
0010
0000
1000
0000
0010
0000
0100
0000
0001
0000
0010
1000
0010
0000
0100
0000
,
0001
0010
0100
0000
0001
0000
0100
0000
0010
0000
1000
0000
0100
0000
0010
0000
,
0001
0000
0100
0000
0001
0000
1000
0100
0010
0001
0100
0000
0010
0000
1000
0100
,
0010
0001
0010
0100
1000
0000
0010
0000
0100
0000
0000
0000
1000
0000
0100
0000
0010
0001
0010
0100
1000
0000
0010
0000
0100
0000
0000
0000
0001
0000
0000
0000
,
0100
0000
0010
0000
1000
0000
0001
0000
0100
0000
0001
0010
0100
0000
1000
0000
,
0010
0000
0100
0000
1001
0000
0101
0000
0011
0000
0101
0000
1001
0010
0100
0000
,
1010
1100
0010
0100
1000
0100
1001
0000
,
1010
0100
0001
0010
0100
1000
0010
0100
,
0001
0000
0100
0000
0001
0000
1000
0100
0010
0000
0001
0000
0010
0000
0100
0000
,
1000
0010
0100
0001
1000
0010
0100
0001
,
1000
0000
0100
0000
0010
0000
0100
0010
1001
0000
0000
0000
0101
0000
0000
0000
,
0110
1100
1001
1010
,
0101
0000
0000
0000
1001
0000
0000
0000
0001
0010
0100
1000
0100
0010
0001
0100
,
0010
0000
1000
0100
0010
0000
0100
0000
0001
1000
0010
0100
0001
0000
1000
0100
,
0010
0000
0010
0100
1000
0000
0010
0000
1000
0010
0100
0001
0010
0000
0100
1000
,
0010
0000
0010
0100
0001
0000
0001
0000
0001
1000
0010
1000
0100
0000
0010
0001
,
0010
0001
0010
0100
1000
0100
1000
0010
0100
0010
0000
1001
0000
0001
0100
0000
,
1001
0100
0001
0010
0100
1000
0010
0100
,
0001
1000
0100
0010
0001
0100
0001
0010
,
0100
0010
0001
1000
0010
0100
0010
1000
,
0100
0000
0010
0000
0001
0000
0010
0000
0100
0000
0010
1000
0010
0100
0001
0100
,
0010
1000
0100
0010
0001
1000
0010
0100
,
0001
0010
0100
1000
0010
0100
0001
0010
,
0100
0010
0001
1000
0001
0100
1000
0100
,
0010
0000
0000
0000
0001
0000
1000
0000
0000
0000
1000
0000
0001
0000
0000
0000
1000
0100
0010
0000
0001
0000
0100
0000
0010
0000
1000
0000
0100
0010
0001
0100
,
0010
1000
0010
0101
0010
1000
0101
0010
,
1000
0100
0010
1001
0100
0010
1001
0100
,
0001
0010
0100
1010
0100
0001
1010
0100
,
0001
0000
0010
0000
0100
0000
1001
0000
0100
0001
1000
0010
0100
0001
0010
0100
,
1010
0100
0001
1010
0100
0100
1010
0100
,
0001
0010
0100
1001
0010
0010
1001
0100
,
0001
1000
0100
0011
1000
1000
0011
1000
,
0010
0000
0100
0000
0010
0000
1100
0000
1010
0100
0001
0010
0100
0010
0001
1000
,
0020
0000
0000
0000
0230
0000
0000
0000
0302
0003
0002
0003
0020
0030
0020
0030
,
0200
2300
3200
0300
0002
0003
0000
0000
0220
0330
0000
0000
0220
0330
0000
0000
,
2000
3000
0000
0000
0002
0003
0000
0000
0200
0300
0200
0300
0020
0030
0020
0030
,
2000
3200
2300
3000
0020
0030
0000
0000
0202
0303
0000
0000
0202
0303
0000
0000
,
0002
0003
0000
0000
0020
0030
0000
0000
0200
0300
0200
0300
0002
0003
0002
0003
,
0020
0230
0320
0030
2000
3000
0000
0000
2002
3003
0000
0000
2002
3003
0000
0000
,
0200
0300
0000
0000
0002
0003
0000
0000
0020
0030
0020
0030
0200
0300
0200
0300
,
2000
3002
2003
3000
0020
0030
0000
0000
0020
1030
0001
0100
0020
0031
0100
0000
1001
0000
0000
0000
0101
0000
0000
0000
1001
0000
0000
0000
1010
0000
0000
0000
,
1100
0000
0110
0000
0011
0000
0110
0001
1100
0000
0101
0000
1010
0000
1100
0000
,
0110
0001
1100
0010
1001
0000
1001
1001
0110
0000
0011
0000
1001
0000
1010
0000
,
1100
0000
0110
0000
0011
0000
1001
0100
0011
0000
0110
0000
1100
0000
1010
0000
,
1001
0200
0310
0001
0210
0010
0020
0000
1331
0000
0101
0000
1010
0000
1100
0000
,
0110
0011
1010
1001
0101
1001
0101
0011
,
0110
1100
1010
1100
0110
0011
1010
1001
,
0101
0110
1100
1010
1001
0101
1010
0101
,
0011
0100
1000
0010
0100
0001
0010
0100
1000
0000
0000
0001
1000
0000
0000
0010
,
1000
0000
0000
0100
0001
0000
0000
0001
0010
0000
0000
0010
0100
0000
0000
0100
,
1000
0000
0000
0100
0010
0000
0001
0000
0100
0000
0000
0010
1000
0000
0000
0100
,
0001
0000
0000
0010
1000
0000
0000
0100
0010
0000
0000
0001
0100
0000
0000
1000
,
0100
0000
0010
0001
0100
0000
0000
1000
0100
0000
0000
0001
0100
0000
0000
0010
,
0100
0000
0000
0001
0010
0000
0000
0100
1000
0000
0000
1000
0001
0000
0000
0100
,
0001
0000
0000
0010
0100
0000
1000
0000
0100
0000
0000
0010
0100
0000
0000
0001
,
1000
0000
0000
0100
0001
0000
0000
1000
0100
0000
0000
0010
0100
0000
0001
0000
,
1000
0100
0010
0000
0101
0000
0000
0000
1001
0000
0000
0000
1001
0000
0000
0000
0101
0000
0000
0000
0101
0000
0000
0000
0011
0000
0000
0000
0011
0000
0000
0000
,
0110
0110
1100
1100
1010
1010
0110
0101
,
1001
1010
0110
0101
1010
1100
0110
0011
,
1010
0000
0011
0000
0110
0000
1100
0000
1010
0000
1001
0000
0101
0000
0011
0100
,
1000
0010
0100
0000
1001
0000
0101
0000
0011
0000
0110
0000
1100
0000
1010
0000
,
1001
0000
0000
0000
0101
0000
0000
0000
0011
0000
0000
0000
0110
0000
0000
0000
1100
0000
0000
0000
0101
0000
0000
0000
0110
0000
0000
0000
0201
0300
0000
0000
,
0011
0110
1010
1001
0101
1010
1100
0110
,
0011
0000
1010
0000
1100
0001
0100
0001
0010
0100
0010
0001
1000
0010
1000
0100
,
0010
0100
1000
0010
0201
0000
0000
0000
0310
0000
0000
0000
1000
0000
0100
0000
,
0010
0001
0110
1000
0110
0001
0110
1010
,
0101
0011
2010
0000
3001
0000
1000
0100
,
0010
0000
0001
0010
1100
0000
1010
0000
1010
0100
0010
0100
0011
0000
0011
0000
,
0010
0100
1000
0100
0021
0000
0000
0000
1030
0000
0000
0000
1000
0000
0100
0000
,
0010
0001
1010
0100
1001
0100
0011
1001
,
1010
0000
0011
0000
1001
0100
0010
0001
0010
0100
1000
0100
0010
0001
0010
0100
,
1000
0000
0010
0000
0100
0000
0010
0000
1000
0100
0010
0000
0101
0000
0000
0000
1001
0000
0100
0000
0001
0000
0010
0000
0100
0000
1000
0000
0100
0000
0010
0000
,
0002
0000
0000
0020
0000
0030
0200
0000
,
0300
0000
0000
0000
0020
0000
0000
0000
0000
0000
0000
0000
0000
0000
0000
0000
0000
0000
0000
0000
0000
0000
0000
0000
0000
0000
0000
0000
0000
0000
0000
0000
0000
0000
0000
0000
0000
0000
0000
0000
0233
0300
0000
0000
0000
0000
0000
0000
0000
0000
0000
0000
0000
0000
0000
0000
0000
0000
0000
0000
0000
0000
0000
0000
;

//---------------dance-single - ----------------
#NOTES:
     dance-single:
     :
     Challenge:
     12:
     1.000,1.000,1.000,0.386,1.000,966.000,383.000,50.000,0.000,2.000:
0000
0000
0000
0000
1100
0000
0000
0100
0000
0000
0100
0000
0001
0000
0000
0001
,
0000
0000
0010
0000
0100
0000
0000
0100
0000
0000
0010
0000
0001
0000
0000
1000
,
0000
0000
0011
0000
1100
0000
0000
0010
0000
0000
0100
0000
0001
0000
0000
0001
,
0000
0000
0010
0000
1000
0000
0000
0100
0000
0000
0011
0000
1100
0000
1010
0000
,
1001
0101
1001
0000
1001
0000
0101
0011
,
0110
0000
1100
0000
1010
0100
0011
0000
1100
0000
0000
0000
1001
0000
0000
0000
,
0101
0110
1001
0000
1010
0000
1100
0110
,
0011
0000
0110
0000
1100
0010
1001
0000
0101
0000
0110
0000
1001
0000
0110
0000
,
1001
0110
1001
0000
0101
0000
1010
0110
,
0101
0000
0011
0000
0110
1000
0110
0000
1001
0000
0000
0000
1001
0100
0001
0010
,
1100
0001
1000
0100
0010
0001
0010
0100
1000
0010
0100
0001
0100
0001
0010
0100
,
1000
0000
0000
0000
0000
0000
0000
0000
0000
0000
0000
0000
0010
0000
0000
0000
0000
0000
0000
0000
0000
0000
0000
0000
0100
0000
0000
0000
0000
0000
0000
0000
0000
0000
0000
0000
0001
0000
0000
0000
0000
0000
0000
0000
0000
0000
0000
0000
0010
0000
0000
0000
0000
0000
0100
0000
0000
0000
0000
0000
0010
0000
0000
0000
0000
0000
0000
0000
0000
0000
0000
0000
1001
0000
0000
0000
0000
0000
0000
0000
0000
0000
0000
0000
0000
0000
0000
0000
0000
0000
0001
0000
0000
0000
0000
0000
1000
0000
0000
0000
0000
0000
0000
0000
0000
0000
0000
0000
0000
0000
0000
0000
0100
0000
0000
0000
0000
0000
0000
0000
0000
0000
0000
0000
0000
0000
0000
0000
0010
0000
0000
0000
0000
0000
0000
0000
0000
0000
0000
0000
0000
0000
0000
0000
0001
0000
0000
0000
0000
0000
0000
0000
0000
0000
0000
0000
0000
0000
0000
0000
1000
0000
0000
0000
0000
0000
0000
0000
0000
0000
0000
0000
0000
0000
0000
0000
0100
0000
0000
0000
0000
0000
0000
0000
0000
0000
0000
0000
0000
0000
0000
0000
,
0010
0000
0001
0000
1000
0000
0100
0000
0010
0000
0001
0000
2000
0000
0000
0000
0000
0000
3000
0000
0000
2000
0000
0000
,
0000
0000
0000
0000
3011
0100
1001
0010
,
1100
0000
0010
0000
1001
0000
0100
0000
0011
0000
1000
0000
0101
0000
0010
0100
,
1001
0100
0011
0110
1100
0010
1001
0100
,
0011
0000
1000
0000
0101
0000
0010
0000
1001
0000
0100
0010
0100
1000
0010
0000
,
1001
0000
0000
0000
0000
0000
0000
0000
0000
0000
0000
0000
0000
0000
0000
0000
0000
0000
0000
0000
0000
0000
0000
0000
0100
0000
0000
0000
0000
0000
0000
0000
0000
0000
0000
0000
0001
0000
0000
0000
0000
0000
0000
0000
0000
0000
0000
0000
0010
0000
0000
0000
0000
0000
0100
0000
0000
0000
0000
0000
1000
0000
0000
0000
0000
0000
0010
0000
0000
0000
0000
0000
0100
0000
0000
0000
0000
0000
0000
0000
0000
0000
0000
0000
0001
0000
0000
0000
0000
0000
0000
0000
0000
0000
0000
0000
1010
0000
0000
0000
0000
0000
0000
0000
0000
0000
0000
0000
0000
0000
0000
0000
0000
0000
0000
0000
0000
0000
0000
0000
0100
0000
0000
0000
0000
0000
0000
0000
0010
0000
0000
0000
0001
0000
0000
0000
1000
0000
0000
0000
0100
0000
0000
0000
0010
0000
0000
0000
0000
0000
0000
0000
0000
0000
0000
0000
0000
0000
0000
0000
0000
0000
0000
0000
0000
0000
0000
0000
0100
0000
0000
0000
0000
0000
0000
0000
0000
0000
0000
0000
0000
0000
0000
0000
0000
0000
0000
0000
0000
0000
0000
0000
,
0011
0000
1000
0000
0101
0000
0010
0000
1100
0000
0001
0000
0110
0000
1000
0100
,
0011
1000
0101
0010
1001
0100
0011
1000
,
0101
0010
0001
0000
1100
0000
0001
0000
1010
1010
1010
1010
0101
0010
2200
3301
,
0010
0100
1000
0010
0101
0000
1000
0000
0011
0000
1000
0000
0101
0000
0010
0000
,
1100
0000
0010
0000
1001
0000
0100
0000
0011
0000
1000
0100
1010
0000
0100
0000
,
0011
0100
0001
0000
1010
0000
0100
0000
1001
0000
0010
0000
1100
0000
0010
0000
,
1001
0000
0100
0000
0011
0000
1000
0010
1001
0000
0100
0000
0011
0000
1000
0100
,
0010
0000
0001
0000
0100
0000
0001
0000
0110
0000
0000
0000
1000
0100
0010
0001
1000
0100
0010
0001
1000
0000
0000
0000
0110
0000
0000
0000
0001
0000
0000
0000
,
1010
0000
0100
0000
1001
0000
0100
0000
0011
0000
1000
0100
0011
0000
1000
0000
,
0101
0000
0010
0000
1100
0000
0011
0000
0110
0000
1001
0000
1010
0100
0011
0000
,
1001
0000
0000
0000
0000
0000
0000
0000
1010
0000
0000
0000
0000
0000
0000
0000
1100
0000
0000
0000
0000
0000
0000
0000
1001
0000
0000
0000
0000
0000
0000
0000
1001
0000
0000
0000
0000
0000
0000
0000
1001
0000
0000
0000
0000
0000
0000
0000
1001
0100
0010
0001
1000
0100
0010
0001
1000
0100
0010
0001
1000
0100
0010
0001
,
1010
0101
0011
0110
1100
1010
1001
0101
,
0011
0000
0110
0000
1010
0000
1100
0001
0110
0000
1001
0000
0101
0000
1010
0000
,
1100
0110
0011
0110
0011
0110
1100
1010
,
1001
0000
0101
0000
0011
0000
1010
0100
1001
0000
0000
0000
0101
0000
0000
0000
,
0011
0110
1010
1100
,
1001
0000
0000
0000
0000
0000
0000
0000
0022
0000
0000
0000
0000
0000
0033
0000
1000
0100
0010
0001
1000
0010
0100
0001
1000
0100
0010
0001
0100
0010
1000
0001
,
0100
0001
0010
0100
1000
0010
1000
0100
0010
0001
0010
0100
1000
0010
0100
0001
,
0010
0100
1000
0010
1000
0100
0010
0001
0100
0001
1000
0010
1000
0010
0100
0001
,
0100
0001
0010
0100
1000
0010
1000
0010
0100
0001
0100
0001
0010
0100
0010
0001
,
0100
0010
0100
0010
0100
0010
0100
0010
0101
0010
0000
1000
0000
0001
0100
0000
,
1010
0100
0011
1000
0101
0010
1100
0010
,
1100
0001
0110
1000
0110
0001
1010
0100
,
1001
0100
0011
1000
0101
0010
1001
0100
,
0011
0000
1000
0000
0110
0000
0001
0000
1010
0000
0100
0010
0001
0010
0100
0010
,
1001
0100
0011
1000
0110
0001
1100
0001
,
0110
1000
0011
1000
0101
0010
1001
0100
,
0011
1000
0110
0001
0110
1000
0101
0010
,
0001
0000
0000
0000
0100
0000
0001
0000
0000
0000
0100
0000
0001
0000
0000
0000
0010
0000
0100
0000
1000
0000
0100
0000
0010
1000
0100
0010
0001
0000
0100
0000
,
0011
1000
0001
1010
0010
0100
1010
0100
,
0001
0010
0100
0101
0010
0001
0101
0010
,
1000
0100
0001
0110
0010
1000
0110
0001
,
0010
0000
0100
0000
0010
0000
0101
0000
0101
0010
1000
0100
0010
0001
1000
0010
,
1001
0100
0001
1100
0100
0001
1100
0010
,
0001
0010
0100
1001
0001
0100
1001
0100
,
0001
1000
0100
0011
0001
0100
0011
1000
,
0001
0000
1000
0000
0100
0000
1001
0000
1001
0100
0010
0001
1000
0100
0010
0100
,
1001
0000
0101
0000
0110
1100
1010
1001
,
0101
1010
1100
0000
1001
0000
0202
0303
,
1001
0000
0110
0000
1100
0110
0011
1010
,
1001
0000
0101
0000
0110
0001
0010
0100
1001
0000
0000
0000
1001
0000
0000
0000
,
2020
3030
0110
0000
0101
0110
1001
0101
,
0220
0330
1001
0000
0101
0000
0000
0000
1100
0000
0000
0000
0110
0000
0100
1000
,
0022
0033
1001
0000
1001
0101
0110
1100
,
1010
0000
1010
0000
1010
0000
0000
0000
0010
0100
0010
0100
0010
0100
0010
0000
1010
0000
0100
0000
0011
0000
1000
0000
0101
0000
0010
0000
1100
0000
0010
0000
,
1001
0100
0011
1000
0110
0001
1010
0101
0011
1000
0110
0001
1010
0100
1001
0100
,
0011
0000
1000
0000
0110
0000
0001
0000
1010
0100
0001
0000
0110
0000
0110
0000
0110
0000
1000
0000
0101
0000
0010
0000
1100
0000
0001
0000
0110
0000
1000
0000
,
0011
1000
0110
0001
1010
0100
1001
1001
1001
0100
0011
1000
0110
0001
1010
0100
,
1001
0000
0000
0000
0010
0000
0000
0000
1100
0000
0001
0000
0100
0000
0000
0000
0010
0000
0000
0000
0100
0000
0000
0000
0001
0010
0100
1000
0001
0010
0100
1000
0001
0000
0000
0000
0100
0000
0000
0000
0001
0000
0000
0000
0010
0000
0000
0000
0100
0000
0000
0000
1000
0000
0000
0000
0010
0000
0000
0000
1000
0000
0000
0000
,
0100
0010
0001
0100
0010
1000
0001
0010
0100
1000
0100
0010
0001
1000
0001
1000
,
0010
1000
0100
0010
0001
0010
0100
0010
0001
0100
0001
0010
0100
1000
0010
1000
,
0010
0100
0001
0100
0010
1000
0100
0010
0001
1000
0001
1000
0010
0100
0001
0010
,
0100
0001
0100
0001
0100
0001
0100
0001
0210
0000
0301
0000
2010
0000
3100
0000
,
0012
1003
0210
0301
2010
3100
2001
3010
,
0201
0000
0310
0000
2100
3000
0110
0000
0102
0000
1003
0000
0120
0000
0031
0000
,
2010
3001
0210
1300
1200
0310
0201
0301
,
2010
3000
0110
0001
0210
0300
0101
0000
0210
0000
0301
0000
2010
0000
3100
0000
,
0012
1003
0120
0031
2010
3100
0012
0103
,
2001
0000
3010
0000
0102
0003
1010
0000
0210
0000
0301
0000
2010
0000
3100
0000
,
0021
0000
0130
0000
2010
0000
3100
0000
0012
0000
1003
0100
1020
0000
0130
0000
,
1001
0110
1001
0000
2002
3003
0000
0000
1001
0000
0000
0000
0101
0000
0000
0000
0011
0000
0000
0000
0110
0000
0000
0000
1010
0000
0000
0000
1100
0000
0000
0000
,
1010
0000
0101
0000
0011
0000
1010
0000
1100
0000
1010
0000
1001
0000
0101
1000
,
0011
0110
1100
1001
0101
1001
1010
1100
,
0110
0000
0011
0000
1010
0000
1100
0000
1001
0000
0101
0000
1001
0000
1010
0001
,
1100
0010
1100
0000
1010
0000
1001
0000
0101
0000
0011
0000
1100
0000
1010
0000
,
1001
0000
0101
0000
0011
0000
1100
0000
1010
0000
0110
0000
0101
0000
1001
0010
,
0101
1010
1100
0011
1010
1100
0101
1010
,
0101
0000
0011
0000
0110
0001
0010
0100
1000
0100
0010
0001
0100
0001
0010
0100
,
1000
0010
1000
0100
0011
0000
0000
0000
0001
0000
0000
0000
0001
0000
1000
0000
,
0100
0010
1001
0101
1010
1100
0110
0101
,
1001
0000
1010
0100
1001
0000
0000
0000
1000
0000
0000
0000
0100
0000
0010
0000
,
0001
0000
1000
0010
0101
0000
0010
0000
1000
0100
0010
0001
0100
0000
0001
0000
,
0010
0100
1000
0010
0101
0000
0000
0000
0001
0000
0000
0000
0001
0000
0010
0000
,
0100
0000
1000
0000
0101
0000
1010
0000
1100
0000
0110
0000
1000
0010
0100
0001
,
0010
0000
0100
0000
1000
0000
0001
0000
0010
0000
0100
0000
1001
0000
0000
0100
0000
0000
0001
0000
0000
0010
0000
0000
0100
0000
0000
1000
0000
0000
0010
0000
0000
1000
0000
0000
0100
0000
0000
0010
0000
0000
0001
0000
0000
0010
0000
0000
,
0100
0000
0010
0000
0001
0000
1000
0000
0010
0100
0001
0000
1001
0000
0000
0000
1000
0100
0010
0001
1000
0100
0010
0001
1000
0100
0010
0001
1000
0100
0010
0001
,
2000
0000
3000
2000
0000
0000
3020
0000
,
0030
2000
0000
0000
0000
0000
0000
0000
0000
0000
3001
0000
0000
0000
0000
0000
;

//---------------dance-single - Pad Steps----------------
#NOTES:
     dance-single:
     Pad Steps:
     Medium:
     10:
     0.838,0.960,0.116,0.517,0.239,678.000,15.000,67.000,0.000,2.000:
0000
0110
0000
0000
,
0000
0000
0000
0000
,
0000
0100
0110
0000
0000
0000
0000
0000
,
0000
0000
0000
0000
0000
0010
1000
0010
,
1000
0010
1000
0000
0100
0000
0001
0010
,
0100
1000
0010
0100
0002
0000
0203
0000
,
0320
0100
0130
0000
0001
0000
1000
0100
,
0010
0001
0100
0001
0100
0001
0001
0001
,
0001
0001
0100
0000
0010
0000
1000
0100
,
0010
0100
1000
0010
0200
0000
0320
0000
,
0032
0010
0013
0000
0100
0000
0010
1000
,
0100
0000
0010
0000
0001
0010
0100
0000
1000
0000
0000
0000
0010
0000
0000
0000
,
0100
0000
0010
0000
0200
0000
0000
0300
,
0000
0000
0000
0000
1000
0100
1000
0100
,
1000
0010
1000
0010
1000
0001
1000
0001
,
1000
0100
1010
0000
0100
0001
0010
0100
,
1000
0010
1000
0001
0100
0001
0001
0001
,
0010
0100
0100
0100
0001
1000
1000
1000
,
0001
1000
0010
0100
0001
0010
0100
0010
,
0001
0010
0001
1000
0010
1000
0100
0010
,
0100
0000
0000
0000
1000
0000
0000
0000
0010
0000
0000
0000
0100
0000
0000
0000
0002
0003
0020
0030
0200
0300
0010
0000
0100
0000
0001
0000
0100
0000
0001
0000
,
0100
0001
0100
0001
0100
0000
0010
0000
1000
0000
0100
0000
0010
0000
0001
0000
,
0100
0010
1000
0001
1000
0010
0100
0010
,
2002
3003
0010
1000
0010
0100
0001
0010
,
0100
1000
0010
0010
0010
1000
0001
0100
,
0100
0100
0001
0010
0010
0010
0001
1000
,
0001
1000
0010
1000
0100
0010
0001
1000
,
0010
1000
0010
0100
0001
0010
0100
0010
,
0100
0001
0100
0100
0001
0001
0020
2000
,
3031
0001
0010
0010
0100
1000
0010
0100
,
0001
0001
1000
1000
0010
0100
0001
0010
,
0100
0100
1000
1000
0010
1000
0100
0100
,
0010
0000
0010
0000
0001
0000
0100
0000
0020
0000
0000
0030
0020
0000
0000
0030
,
0020
0000
0000
0030
0020
0000
0000
0030
0020
0000
0000
0030
0020
0000
0000
0030
,
0020
0000
0000
0030
0020
0000
0000
0000
2000
0000
0000
0000
0000
0000
0000
3030
,
0100
0001
0000
0001
0100
0010
1000
0000
,
0001
0010
0000
1000
0100
0010
0001
0000
,
1000
0100
0000
1000
0010
0100
0010
0000
,
0001
0000
0010
0000
0000
0000
1000
0000
0001
0000
0000
0001
0000
0010
0100
0000
,
0010
1000
0010
1000
0010
0100
0010
0100
,
0010
0001
0010
0001
0010
0100
0010
0100
,
0010
1000
0100
0010
0001
1000
0001
0010
,
0100
0010
0001
1000
0100
0010
0001
1000
,
0010
0100
0001
0100
0001
0010
0100
1000
,
0010
1000
0010
1000
0100
0010
0001
1000
,
0001
0100
0010
1000
0010
1000
0100
1000
,
0100
0000
0001
0100
0000
0001
0100
0000
0010
1000
0000
0010
1000
0000
0200
0020
,
0330
0010
0100
0010
0001
0100
0110
0000
,
1000
0100
0010
0100
1000
0010
0110
0000
,
0001
1000
0010
1000
0100
0010
0011
0000
,
1000
0000
0100
0000
1000
0000
0010
0000
0100
0001
0100
0001
0100
0001
0100
0001
,
0100
0010
1000
0100
0010
0100
1100
0000
,
0010
0100
0010
0001
1000
0100
0110
0000
,
0001
0010
0100
1000
0100
0010
1010
0000
,
0001
0000
0100
0000
0001
0000
0100
0000
0010
1000
0010
0000
1000
0010
1000
0000
,
0100
0000
0001
0000
1000
0010
0100
0010
,
1000
0010
0100
0000
0001
0000
0011
0000
,
1100
0000
0001
0000
1000
0010
0100
0001
,
0010
0100
1000
0000
0010
0000
0100
0000
,
1001
0000
0001
0000
1000
0100
0010
0001
,
1000
0010
0100
0000
0001
0000
1000
0000
,
0010
0000
0100
0000
1000
0100
0010
0001
,
0100
0000
0001
0000
0100
0000
0000
0000
0010
1000
0010
0000
0100
0000
0001
0000
0010
0000
0000
0000
0010
0000
0000
0000
0010
0000
0000
0000
0010
0000
0000
0000
,
0010
0000
0010
0000
0010
0000
0010
0100
1000
0000
1000
0000
1000
0000
1000
0000
,
1000
0100
1000
0100
1000
0010
1000
0010
0100
0000
0100
0000
0100
0000
0100
0000
,
0100
0000
0100
0000
0100
0000
0100
0010
0001
0000
0001
0000
0001
0000
0001
0000
,
0001
0010
0100
0001
0020
0100
2000
3000
0130
0001
0100
0000
0010
0000
1000
0000
,
0010
0100
0010
0000
1000
0000
0100
0000
0001
0010
0001
0000
1000
0000
0001
0000
,
1000
0010
1000
0000
0100
0000
0001
0000
1000
0100
1000
0000
0010
0000
0100
0000
,
0001
1000
0001
0000
1000
0000
0010
0000
0100
0001
0100
0000
0010
0000
1000
0000
,
0010
0100
0010
0100
0010
0100
0010
0100
0020
0000
0000
0000
0032
0000
0000
0000
,
2003
3020
0230
0302
,
0203
0000
0302
0010
0023
0000
0230
0000
,
2300
3200
2300
3002
,
2003
0100
3010
0100
0020
0000
0230
0000
,
0302
2003
3020
0230
,
0302
0000
0023
0100
0230
0000
0320
0000
,
2030
3020
0230
1301
,
0010
0100
0010
0000
0002
0000
0000
0000
1003
0000
0000
0000
0010
0000
0000
0000
0100
0000
0000
0000
0010
0000
0000
0000
1000
0000
0000
0000
0010
0000
0000
0000
,
0100
0000
0010
0000
1000
0000
0100
0000
0010
0000
0001
0000
0100
0000
0001
0100
,
0001
0010
0100
1000
0010
1000
0010
1000
,
0100
0000
1000
0000
0100
0000
0010
0000
0001
0000
0010
0000
0001
0000
1000
0001
,
1000
0010
1000
0100
0010
0100
1000
0010
,
0100
0000
0001
0000
0100
0000
0001
0000
0010
0000
0100
0000
1000
0000
0100
0010
,
0100
0010
0001
0100
0010
1000
0100
0010
,
0001
0000
1000
0000
0100
0001
0100
0001
0100
0010
0100
0010
0100
0001
0100
0001
,
0100
0010
0100
0010
0200
0000
0000
0000
0310
0000
0000
0000
1000
0000
0000
0000
,
0010
0000
0100
0010
0100
0001
0100
0010
,
0100
0001
1001
0000
0010
0000
1000
0000
,
0100
0000
0000
0000
0001
0000
1000
0000
0010
0100
0010
0000
1000
0000
0100
0000
,
0010
1000
0010
0000
0100
0000
0000
0000
0001
0000
0000
0000
1000
0000
0000
0000
,
0010
0000
0000
0000
0000
0000
0000
0000
1000
0000
0000
0000
0100
0000
0000
0000
0010
0000
0000
0000
0100
0000
0000
0000
2000
3000
0000
0000
0020
0030
0000
0000
,
0200
0300
0000
0000
0002
0003
0000
0000
0020
0000
0000
0000
0000
0000
0000
0000
0100
0000
0000
0000
0000
0000
0000
0000
0100
0000
0000
0000
1000
0000
0000
0000
,
0100
0000
0000
0000
1000
0000
0000
0000
0130
0001
0100
0000
0010
0000
0000
0000
0200
0000
0000
0000
0000
0000
0000
0000
0000
0000
0000
0000
0000
0000
0000
0000
,
0302
0000
0000
0023
0000
0000
0230
0000
,
0000
2300
0000
0000
0000
0000
0000
0000
0000
0000
3010
0000
0000
0000
0000
0000
;
