#TITLE:Orange;
#SUBTITLE:Toradora! ED theme;
#ARTIST:Kugimiya&Kitamura&Horie;
#TITLETRANSLIT:;
#SUBTITLETRANSLIT:;
#ARTISTTRANSLIT:;
#CREDIT:ALICE_;
#BANNER:Orange.png;
#BACKGROUND:Orange.jpg;
#LYRICSPATH:;
#CDTITLE:cdtitle.png;
#MUSIC:Orange.MP3;
#OFFSET:1.230;
#SAMPLESTART:45.400;
#SAMPLELENGTH:12.000;
#SELECTABLE:YES;
#BPMS:0.000=140.000;
#STOPS:;
#BGCHANGES:4.250=Orange.avi=1.000=0=0=1,
99999=-nosongbg-=1.000=0=0=0 // don't automatically add -songbackground-
;
// cache tags:
#FIRSTBEAT:3.000;
#LASTBEAT:206.500;
#SONGFILENAME:Songs/alice 4th complete step/Orange/Orange.sm;
#HASMUSIC:1;
#HASBANNER:1;
#MUSICLENGTH:89.248;
// end cache tags

//---------------dance-single - ----------------
#NOTES:
     dance-single:
     :
     Hard:
     6:
     0.458,0.492,0.280,0.303,0.000,234.000,25.000,27.000,0.000,0.000:
0000
0000
0000
0000
,
2001
0000
0100
0000
0010
3000
0001
0100
,
0000
1100
0000
0101
0000
1010
0001
0100
,
0020
0000
0130
0000
1000
0001
0100
0010
,
0000
0101
0000
1100
0000
0011
0000
1000
,
0002
0000
0100
0000
0010
0003
1000
0100
,
0000
0101
0000
1100
0000
0011
1000
0100
,
0020
0000
0130
0000
0001
1000
0010
0100
,
0000
0001
0000
1000
0000
0020
0000
0000
,
0130
0000
0001
1000
0100
0010
0000
0000
,
1000
0001
0100
0020
0000
0000
0030
0000
,
0000
0000
1000
0010
0100
0001
0000
0001
,
0010
0100
1000
0020
0000
0000
0030
0000
,
0000
0000
1000
0100
0001
0100
0000
0000
,
1000
0010
0100
0020
0000
0000
0030
0000
,
0000
0000
0001
0100
1000
0200
0000
0300
,
0001
0010
0100
1000
,
1000
1000
0001
0001
,
0100
0000
0010
0000
1000
0100
1000
0000
,
0001
0001
1000
1000
,
0100
0000
0010
0000
0001
0100
0001
0000
,
1000
1000
0010
0100
,
0001
0000
0010
0000
0100
1000
0010
0000
,
0100
0101
1000
1001
,
0100
1100
0001
1001
,
0210
1000
0010
0301
,
2100
0010
0001
3010
,
1001
1001
0200
0300
0020
0030
0200
0000
,
0301
0000
1000
0010
0000
0010
1000
0100
,
0000
0100
1000
0010
0100
0001
0010
0100
,
0010
0010
0001
0100
0000
0010
1000
0100
,
0000
0010
0001
2000
0000
0100
3100
0000
,
1000
1000
0010
0100
0000
0001
0010
0100
,
0000
1000
0010
0001
0010
1000
0100
0010
,
0001
0001
0100
0010
0000
0110
0000
2002
,
0000
0000
0000
3003
,
1100
0100
0010
0001
0000
1000
0100
0010
,
0000
0001
0100
0010
1000
0010
0100
0001
,
1000
1000
0010
0100
0000
0001
0010
0100
,
0000
1000
0001
2000
0000
0010
3010
0000
,
0100
0001
1000
0001
0000
0010
1000
0001
,
0000
0100
1000
0100
0001
0010
0100
1000
,
0010
0000
0100
0010
0000
0110
0000
2002
,
0000
0000
3003
0000
0100
0010
0100
1000
,
0020
0000
0100
0000
0000
0000
0100
0030
,
2000
0000
0010
0000
0000
0000
0010
3000
,
0200
0001
0000
0301
,
0002
0010
0000
1003
,
0200
0000
0000
0000
0000
0000
0000
0300
,
0020
0000
0000
0000
0000
0000
0000
0030
,
2000
0000
0000
0000
0000
0000
0000
3000
,
0001
0100
0000
0101
0000
1001
0000
0000
;

//---------------dance-single - Copied from----------------
#NOTES:
     dance-single:
     Copied from:
     Challenge:
     12:
     0.973,1.000,1.000,0.482,0.504,419.000,146.000,43.000,0.000,13.000:
0000
0000
0000
0000
0000
0000
0000
0000
0000
0000
0000
0000
1000
0100
0010
0001
,
0101
0100
1001
0010
1100
0100
1001
0010
,
0101
1000
0011
0100
1010
0001
1001
0010
,
1100
0001
0101
0010
1010
0001
1001
0010
,
0100
0001
1010
0001
1000
0010
0101
1000
,
2010
0000
0100
0000
0011
0000
0100
0000
0001
0000
3010
0000
1002
0003
0120
0030
,
1000
0000
0202
0303
1000
0000
0022
0033
0100
0000
1020
0030
1002
0003
0020
0030
,
0102
0000
1000
0000
0110
0000
1003
0000
0201
0300
0020
0030
2001
3000
0200
0300
,
2010
3002
0113
1000
1001
0210
0302
2003
,
3011
0000
1000
0010
0000
0100
1000
0000
,
1001
0000
0100
0000
0010
0000
0001
0000
0000
0000
0000
0000
0100
0010
0100
0010
,
1000
0000
0100
0001
0000
0010
0001
0000
,
1001
0010
0100
1000
0000
0000
0000
0000
,
1001
0100
0001
0010
0000
1000
0100
0000
,
1001
0000
0100
0000
1000
0000
0010
0000
0000
0000
0000
0000
1000
0001
1000
0001
,
0110
0000
1000
0001
0000
0100
0010
0000
,
1002
0023
0230
2300
,
3011
0010
1001
0010
0101
0100
1001
0010
,
1100
0100
1001
0000
0110
0110
1001
0010
,
1100
0100
1001
0100
1010
0010
1001
0100
,
0011
1000
0101
0110
0000
1010
0100
0011
,
1001
0100
1100
0010
0101
1010
0100
1001
,
0000
0101
0010
1001
0110
0100
0011
1000
,
0100
0010
0001
0010
0101
0000
0000
0000
0010
0100
1000
0100
1010
0000
0000
0000
,
1000
0100
0001
0100
1010
0000
0000
0000
0001
0010
1000
0010
0101
0000
0010
0000
,
0100
1000
0100
1000
0011
0000
0000
0000
0100
0001
0100
0001
1010
0000
0000
0000
,
0010
0001
0010
0001
1100
0000
0010
0000
1000
0001
1000
0001
0110
0000
0000
0000
,
2002
3003
0000
0000
0000
0000
0000
0000
2002
0000
0000
0000
0000
0000
0000
0000
0000
0000
0000
0000
0000
0000
0000
0000
0000
0000
0000
0000
0000
0000
0000
0000
0000
0000
0000
0000
0000
0000
0000
0000
0000
0000
0000
0000
0000
0000
0000
0000
3003
0000
0000
0000
0000
0000
0000
0000
0000
0000
0000
0000
0000
0000
0000
0000
,
1001
0010
0001
0010
0101
0000
0000
0000
1001
0010
1000
0010
1100
0000
0000
0000
,
1001
0100
0001
0100
0011
0000
0000
0000
1001
0100
1000
0100
1010
0001
0100
0000
,
1010
0001
0010
0001
0110
0000
0000
0000
1010
0100
1000
0100
1001
0000
0000
0000
,
0101
1000
0100
1000
0110
0000
0000
0000
1001
0010
0001
0010
0101
1000
0010
0000
,
1001
0010
0100
0010
1100
0000
0000
0000
1001
0100
0010
0100
0011
0000
0000
0000
,
1001
0100
1000
0100
0011
0000
0000
0000
1100
0010
0001
0010
1001
0100
0010
0000
,
1000
0010
0001
0100
1010
0000
0000
0000
0001
0100
1000
0010
0101
0000
0010
0000
,
2002
3003
0000
0000
0000
0000
0000
0000
2020
3030
0000
0000
0000
0000
0000
0000
0000
0000
0000
0000
0000
0000
0000
0000
0202
0303
0000
0000
0000
0000
0000
0000
0000
0000
0000
0000
0000
0000
0000
0000
2002
3003
0000
0000
0000
0000
0000
0000
0100
0000
0000
0000
0000
0000
0000
0000
0100
0000
0000
0000
0010
0000
0000
0000
,
1001
0100
1000
0100
0011
0000
0000
0000
1001
0010
0001
0010
1100
0000
0000
0000
,
1010
0001
0100
0001
1010
0000
0000
0000
0101
1000
0010
1000
0101
0010
0100
0000
,
0010
1000
0001
0010
1100
0000
0000
0000
0010
0001
1000
0100
0011
0000
0000
0000
,
1000
0001
0100
0010
1001
0000
0000
0000
0010
0100
0001
1000
1001
0010
0100
0000
,
1001
0010
0001
0100
0011
0000
0000
0000
1001
0100
1000
0010
1100
0000
0000
0000
,
1010
0001
0100
0010
0101
0000
0000
0000
0101
1000
0010
0100
1010
0001
0100
0000
,
0011
1000
0100
1000
0011
0000
0000
0000
1010
0001
0100
0001
1010
0000
0000
0000
,
0110
1000
0001
0010
0101
0000
0010
0000
1000
0100
0011
0000
1000
0100
0010
0001
,
2000
0100
0010
0100
0000
0010
0001
3010
,
0002
0100
0010
0100
0000
0100
1010
0103
,
2001
0010
0100
0010
0000
0100
0001
3100
,
0020
1000
0100
1000
0000
0100
1001
0130
,
1002
0010
0000
1100
0000
1100
0000
0003
,
2001
0010
0000
0101
0000
0101
0000
3000
,
0021
1000
0000
1001
0000
1100
0000
0030
,
1001
0010
0000
1100
0000
0101
0000
0000
;
