#TITLE:AAA;
#SUBTITLE:;
#ARTIST:D.J.Amuro remixed by DM Ashura;
#TITLETRANSLIT:;
#SUBTITLETRANSLIT:;
#ARTISTTRANSLIT:;
#CREDIT:;
#BANNER:AAA-bn.jpg;
#BACKGROUND:AAA-bg.jpg;
#LYRICSPATH:;
#CDTITLE:!PROPELAtitle.png;
#MUSIC:AAA.mp3;
#OFFSET:-0.023;
#SAMPLESTART:144.023;
#SAMPLELENGTH:12.000;
#SELECTABLE:YES;
#BPMS:0.000=160.000,320.000=80.000,336.000=160.000;
#STOPS:;
#BGCHANGES:;
// cache tags:
#FIRSTBEAT:0.000;
#LASTBEAT:500.000;
#SONGFILENAME:Songs/toune 2/PROPELA - AAA/AAA.sm;
#HASMUSIC:1;
#HASBANNER:1;
#MUSICLENGTH:195.061;
// end cache tags

//---------------dance-single - Blank----------------
#NOTES:
     dance-single:
     Blank:
     Hard:
     10:
     1.000,1.000,0.518,0.349,1.000,1441.000,101.000,68.000,0.000,0.000:

0001
0010
0100
0010
0001
0010
0100
0010
0001
0010
0100
0010
0001
0010
0100
0010
,
0100
1000
0100
0010
0100
1000
0100
0010
0100
1000
0100
0010
0100
1000
0100
0010
,
0001
1000
0010
1000
0001
1000
0010
1000
0001
1000
0010
1000
0001
1000
0010
1000
,
0001
0100
0001
1000
0001
0100
0001
1000
0001
0100
0001
1000
0001
0100
0001
1000
,
0010
1000
0100
1000
0010
1000
0100
1000
0010
1000
0100
1000
0010
1000
0100
1000
,
0001
0100
0001
0010
0001
0100
0001
0010
0001
0100
0001
0010
0001
0100
0001
0010
,
0100
1000
0001
1000
0100
1000
0001
1000
0100
1000
0001
1000
0100
1000
0001
1000
,
0001
0010
0001
1000
0001
0010
0001
1000
0001
0010
0001
1000
0001
0010
0001
1000
,
0001
0010
0100
0010
0001
0010
0100
0010
0001
1000
0100
0010
0001
0010
0100
1000
,
0100
1000
0100
0010
0100
1000
0100
0010
0100
1000
0100
0010
0001
0010
0100
1000
,
0001
1000
0010
1000
0001
1000
0010
1000
0001
1000
0100
0010
0001
0010
0100
1000
,
0001
0100
0001
1000
0001
0100
0001
1000
0001
1000
0100
0010
0001
0010
0100
1000
,
0010
1000
0100
1000
0010
1000
0100
1000
0010
1000
0100
0010
0001
0010
0100
1000
,
0001
0100
0001
0010
0001
0100
0001
0010
0001
1000
0100
0010
0001
0010
0100
1000
,
0100
1000
0001
1000
0100
1000
0001
1000
0001
1000
0100
0010
0001
0010
0100
1000
,
0001
0010
0001
1000
0001
0010
0001
1000
0001
1000
0100
0010
0001
0010
0100
1000
,
0001
0010
0100
0010
0001
1000
0100
0010
0100
1000
0100
0010
0001
0010
0100
1000
,
0100
1000
0100
0010
0100
0010
0001
0010
0100
0010
0100
0010
0001
0010
0100
1000
,
0001
1000
0010
1000
0001
1000
0001
0100
0001
1000
0100
0010
0001
0010
0100
1000
,
0001
0100
0001
1000
0001
1000
0010
1000
0001
1000
0100
0010
0001
0010
0100
1000
,
0010
1000
0100
1000
0010
0100
0001
0100
0010
1000
0100
0010
0001
0010
0100
1000
,
0001
0100
0001
0010
0001
1000
0010
1000
0100
1000
0100
0010
0001
0010
0100
1000
,
0100
1000
0001
1000
0100
0010
0001
1000
0001
0010
0100
0010
0001
0010
0100
1000
,
0001
0010
0001
0100
0001
1000
0100
1000
0010
1000
0100
0010
0001
0010
0100
1000
,
0001
0010
0100
0000
0011
0000
0000
0000
1000
0100
0010
0000
1100
0000
0000
0000
,
0100
1000
0100
0000
0110
0000
0000
0000
0010
0001
0010
0000
0110
0000
0000
0000
,
0001
1000
0010
0000
1001
0000
0000
0000
1000
0001
0100
0000
1001
0000
0000
0000
,
0001
0100
0001
0000
1001
0000
0000
0000
1000
0010
1000
0000
1001
0000
0000
0000
,
0010
1000
0100
0000
1010
0000
0000
0000
0100
0001
0010
0000
0101
0000
0000
0000
,
0001
0100
0001
0000
0011
0000
0000
0000
1000
0010
1000
0000
1100
0000
0000
0000
,
0100
1000
0001
0000
1100
0000
0000
0000
0010
0001
1000
0000
0011
0000
0000
0000
,
0001
0010
0001
0000
1001
0000
0000
0000
1000
0100
1000
0000
1001
0000
0000
0000
,
0110
1000
0110
0001
0110
1000
0000
1001
,
0000
0010
1100
0020
0000
0130
0011
0100
,
1001
0100
1001
0010
1001
0100
0000
0110
,
0000
0100
1010
0200
0000
0310
0101
0010
,
0110
0001
0110
1000
0110
0001
0000
1001
,
0000
0100
0011
0200
0000
0310
1100
0010
,
1001
0010
1001
0100
1001
0010
0000
0110
,
0000
0010
0101
0020
0000
0130
1010
0100
,
1100
0010
1001
0100
1010
0001
0000
1010
,
0000
0000
0010
0000
1100
0000
0002
0000
0000
0003
0001
0000
1100
0000
0010
0000
,
0011
0100
1001
0010
0101
1000
0000
0101
,
0000
0000
0100
0000
0011
0000
2000
0000
0000
3000
1000
0000
0011
0000
0100
0000
,
1001
0100
0011
1000
0101
0010
0000
1001
,
0000
0000
0100
0000
0011
0000
2000
0000
0000
3000
1000
0000
0011
0000
1000
0000
,
1001
0010
1100
0001
1010
0100
0000
1001
,
0000
0000
0010
0000
1100
0000
0002
0000
0000
0003
0001
0000
1100
0000
0001
0000
,
2100
0010
0001
0100
0010
0001
0000
0010
,
0000
0000
0010
0000
0100
0000
0002
0000
0000
0003
0001
0000
0100
0000
3010
0000
,
0012
0100
1000
0010
0100
1000
0000
0100
,
0000
0000
0100
0000
0010
0000
2000
0000
0000
3000
1000
0000
0010
0000
0103
0000
,
1002
0100
0010
1000
0100
0010
0000
1000
,
0000
0000
0100
0000
0010
0000
2000
0000
0000
3000
1000
0000
0010
0000
1003
0000
,
2001
0010
0100
0001
0010
0100
0000
0001
,
0000
0000
0010
0000
0100
0000
0002
0000
0000
0003
0001
0000
0100
0000
3001
0000
,
2010
0001
3020
0100
0032
1000
0003
0010
,
0000
0200
0010
0301
0000
0020
0100
1030
,
2000
0001
3020
0100
0032
1000
0003
0010
,
0000
0200
0010
0301
0000
0020
0100
1030
,
0002
1000
0023
1000
0230
1000
0300
0010
,
0000
0020
0001
0130
0000
0200
1000
0310
,
2000
0001
3200
0001
0320
0001
0030
0001
,
1001
0000
0000
0000
0000
0000
0000
0000
1000
0100
0010
0100
0010
0001
1000
0100
,
0010
0000
0000
0000
0000
0000
0000
0000
0001
0010
0100
0010
0100
1000
0001
0010
,
0100
1000
0100
1000
0100
0010
0100
0010
0001
0010
0001
0010
0001
1000
0001
1000
,
0001
0100
0001
0100
0010
1000
0010
1000
0100
0010
0100
0010
0001
0010
0001
1000
,
0100
0010
0001
0010
0100
1000
0001
1000
0100
0010
0100
1000
0001
0010
0100
1000
,
0001
1000
0001
1000
0001
0100
0001
0100
0001
0010
0001
0010
0001
1000
0001
1000
,
0001
0100
0001
0100
0001
0010
0001
0010
0001
1000
0001
1000
0001
0100
0001
0100
,
0001
1000
0100
1000
0100
0010
0001
0010
0001
1000
0100
1000
0100
0010
0001
1000
,
0100
0010
0001
1000
0010
0100
0001
1000
0100
0010
0001
0100
0010
1000
0100
0010
,
0001
0010
0100
1000
0001
1000
0100
0010
0001
0010
0100
1000
0001
1000
0100
0010
,
0001
0010
0100
1000
0001
1000
0100
0010
0001
0010
0100
1000
0001
1000
0100
0010
,
0001
0010
0100
1000
0001
1000
0100
0010
0001
0010
0100
1000
0100
1000
0100
0010
,
0001
0000
0000
0000
0000
0000
0000
0000
0001
0010
0100
1000
0100
1000
0100
0010
,
0100
1000
0100
1000
0010
1000
0010
1000
0001
1000
0001
1000
0001
0100
0001
0100
,
0001
0010
0001
0010
0100
1000
0100
1000
0100
1000
0010
1000
0010
1000
0001
1000
,
0001
0010
0100
1000
0001
0010
0100
1000
0001
0010
0100
1000
0001
0010
0100
1000
,
0001
0100
0010
0100
0001
0010
0001
0100
0001
0010
0100
1000
0001
0010
0100
1000
,
0110
0000
0001
0000
0010
0000
0100
0000
0010
0000
0000
0100
0000
0000
1000
0000
0100
0000
0000
0010
0000
0000
0001
1000
0000
0000
0100
0000
0000
0010
0000
0000
,
0000
0100
0020
0000
0000
0000
0030
0000
0100
0000
0000
0010
0001
0000
0000
0000
0001
0000
0000
1000
0100
0000
0000
0000
0010
0000
0100
0000
0010
0000
0100
0000
,
1000
0100
0010
0000
0100
0010
0001
0000
1000
0100
1000
0000
0100
0010
0100
0000
0010
0001
0010
0000
0001
0100
0010
0000
1000
0010
0100
0000
0001
0010
0001
0000
,
1000
0010
1000
0000
0001
0100
0001
0000
0010
0100
1000
0000
0100
0010
0001
0000
0010
0100
0010
0000
1000
0100
1000
0000
0010
0000
0000
0000
0010
0000
0100
0010
,
1002
0000
0000
0023
,
0230
0000
0000
0310
0002
0000
0000
0000
0000
0000
0000
0000
0023
0000
0130
0010
,
2100
0000
3200
0320
0000
0032
0000
0023
,
0000
0000
0230
0000
0000
0000
2300
0000
0000
0000
3200
0000
0000
0000
1300
0100
,
0021
0000
0000
0000
0000
0000
0230
0000
2300
0000
3200
0000
0320
0000
0032
0003
,
1200
0320
0000
0032
0000
0000
0003
0001
,
0012
0013
0100
1000
0001
0010
0100
1000
0001
0010
0100
1000
0001
0010
0100
1000
,
0001
0010
0001
0010
0100
0010
0001
0010
0100
1000
0010
1000
0100
0010
0001
1000
,
0001
0010
0100
0010
0001
1000
0100
0010
0100
1000
0100
0010
0001
0010
0100
1000
,
0100
1000
0100
0010
0100
0010
0001
0010
0100
0010
0100
0010
0001
0010
0100
1000
,
0001
1000
0010
1000
0001
1000
0001
0100
0001
1000
0100
0010
0001
0010
0100
1000
,
0001
0100
0001
1000
0001
1000
0010
1000
0001
1000
0100
0010
0001
0010
0100
1000
,
0010
1000
0100
1000
0010
0100
0001
0100
0010
1000
0100
0010
0001
0010
0100
1000
,
0001
0100
0001
0010
0001
1000
0010
1000
0100
1000
0100
0010
0001
0010
0100
1000
,
0100
1000
0001
1000
0100
0010
0001
1000
0001
0010
0100
0010
0001
0010
0100
1000
,
0001
0010
0001
0100
0001
1000
0100
1000
0010
1000
0100
0010
0001
0010
0100
1000
,
0100
0010
0001
0000
1001
0000
1000
0100
0010
0100
1000
0000
1100
0000
0100
1000
,
0100
0010
0100
0000
0110
0000
0010
0001
0010
0100
0010
0000
0011
0000
0001
1000
,
0010
1000
0001
0000
1001
0000
1000
0001
0100
0001
1000
0000
1001
0000
0001
0100
,
0001
1000
0001
0000
1001
0000
1000
0010
1000
0001
1000
0000
1010
0000
0010
1000
,
0100
1000
0010
0000
0110
0000
0100
0001
0010
0001
0100
0000
0011
0000
0001
0100
,
0001
0010
0001
0000
1001
0000
1000
0010
1000
0100
1000
0000
1100
0000
0100
1000
,
0001
1000
0100
0000
0110
0000
0010
0001
1000
0001
0010
0000
0011
0000
0001
0010
,
0001
0100
0001
0000
1001
0000
1000
0100
1000
0010
1000
0000
1001
0000
0001
0010
,
0001
0010
0100
0010
0001
0010
0100
0010
0001
0010
0100
0000
0000
0000
1001
0000
,
0000
0000
0010
0100
0010
0001
0020
0000
0000
0000
0031
0010
0100
0010
0001
0010
,
0100
1000
0100
0010
0100
1000
0100
0010
0100
1000
0100
0000
0000
0000
0110
0000
,
0000
0000
0010
0100
0010
0001
0020
0000
0000
0000
0031
0010
0100
0010
0001
0010
,
0001
1000
0010
1000
0001
1000
0010
1000
0001
1000
0010
0000
0000
0000
1001
0000
,
0000
0000
1000
0100
1000
0001
2000
0000
0000
0000
3001
1000
0100
1000
0001
1000
,
0001
0100
0001
1000
0001
0100
0001
1000
0001
0100
0001
0000
0000
0000
0110
0000
,
0000
0000
1000
0100
1000
0001
2000
0000
0000
0000
3001
1000
0100
1000
0001
1000
,
0010
1000
0100
1000
0010
1000
0100
1000
0010
1000
0100
0000
0000
0000
1010
0000
,
0000
0000
1000
0010
1000
0100
2000
0000
0000
0000
3010
1000
0010
0100
0010
1000
,
0001
0100
0001
0010
0001
0100
0001
0010
0001
0100
0001
0000
0000
0000
0101
0000
,
0000
0000
0100
0010
1000
0010
0200
0000
0000
0000
0310
0100
0001
0100
0010
1000
,
0100
1000
0001
1000
0100
1000
0001
1000
0100
1000
0001
0000
0000
0000
1001
0000
,
0000
0000
1000
0001
0010
0001
2000
0000
0000
0000
3001
0010
0001
1000
0001
0010
,
0001
0010
0001
1000
0001
0010
0001
1000
0001
0010
0001
0000
0000
0000
1001
0000
,
0000
0000
1000
0100
1000
0001
2000
0000
0000
0000
3001
1000
0100
1000
0001
1000
,
0220
0000
0000
0000
,
0330
0000
0000
0000
;
