#TITLE:Dance With Me;
#SUBTITLE:;
#ARTIST:Disciples of Annihilation;
#TITLETRANSLIT:;
#SUBTITLETRANSLIT:;
#ARTISTTRANSLIT:;
#CREDIT:;
#BANNER:../speedcore rejects ban.png;
#BACKGROUND:../speedcore rejects bg.png;
#LYRICSPATH:;
#CDTITLE:;
#MUSIC:dance with me.ogg;
#OFFSET:-0.357;
#SAMPLESTART:100.102;
#SAMPLELENGTH:12.000;
#SELECTABLE:YES;
#BPMS:0.000=213.880;
#STOPS:;
#BGCHANGES:;
// cache tags:
#FIRSTBEAT:4.000;
#LASTBEAT:453.000;
#SONGFILENAME:Songs/Speedcore Rejects/Dance With Me - [Garrett]/Dance With Me.sm;
#HASMUSIC:1;
#HASBANNER:1;
#MUSICLENGTH:128.914;
// end cache tags

//---------------dance-single - G. Moese----------------
#NOTES:
     dance-single:
     G. Moese:
     Challenge:
     14:
     1.000,1.000,0.101,0.861,1.000,987.000,13.000,111.000,121.000,0.000:

0000
0000
0000
0000
,
0001
0001
0100
0100
,
0010
0010
1000
1000
,
0001
0001
0010
0010
,
0100
0000
0000
0000
0100
0000
0000
0000
1000
0010
1000
0000
0001
0010
0100
0000
,
1000
1000
0010
0010
,
0100
0100
0001
0001
,
0010
0010
0100
0100
,
1000
0100
1000
0000
0100
0010
0001
0000
1000
0010
0100
0000
0010
0100
0001
0000
,
1000
0100
0010
0001
,
1000
0010
0100
0001
,
1000
0100
0010
0100
,
1000
0000
0000
0000
0001
0000
0000
0000
0100
0010
0100
0000
0010
1000
0001
0000
,
0100
0010
1000
0001
,
0010
0100
0010
0001
,
1000
0100
0010
0100
,
1000
0001
0100
0000
0001
0010
0100
0000
1000
0100
1000
0000
0100
0010
0001
0000
,
M000
0000
0000
0000
0M00
0000
0000
0000
00M0
00M0
00M0
00M0
00M0
00M0
00M0
00M0
,
00MM
0000
0000
0000
00M0
0000
0000
0000
0M00
0M00
0M00
0M00
0M00
0M00
0M00
0M00
,
MM00
0000
0000
0000
00M0
0000
0000
0000
M000
M000
M000
M000
M000
M000
M000
M000
,
M00M
0000
0000
0000
M000
0000
0000
0000
00M0
00M0
00M0
00M0
00M0
00M0
00M0
00M0
,
20M0
3001
0200
0310
1000
0001
1000
0001
,
0020
0130
2000
3001
0100
0010
0100
0010
,
2000
3001
0020
0130
1000
0100
1000
0100
,
0020
0000
0031
0000
2000
0000
3010
0000
0100
0001
1000
0000
0100
0010
0001
0000
,
1000
0010
0100
0001
1000
0100
0010
0001
,
1000
0100
0010
0100
1000
0001
0100
0010
,
0100
0001
1000
0010
0100
0001
0010
0100
,
4000
0000
0000
0000
,
3001
0100
0010
0100
0001
1000
0100
0010
0100
1000
0001
0100
0001
1000
0010
1000
,
0001
0100
0001
1000
0100
0010
0001
1000
0100
0010
0100
1000
0001
0100
0010
0100
,
0001
1000
0010
0100
0010
1000
0001
0010
0100
1000
0001
0010
0100
0010
0001
1000
,
0010
0100
0001
1000
0010
1000
0010
0100
0001
1000
0100
0010
0001
1000
0001
0010
,
0100
0010
0001
1000
0010
0100
0010
1000
0001
0100
0001
0100
0010
1000
0010
1000
,
0001
1000
0001
1000
0001
1000
0001
0000
4000
0000
0000
0000
3004
0000
0000
0000
,
0203
0000
0000
0300
0010
0000
2000
0000
0000
3000
0001
0000
0020
0000
0000
0030
0100
0000
2000
0000
0000
3000
0010
0000
,
0400
0000
0000
0000
0000
M3MM
0000
0000
,
1000
0000
0001
0000
0100
0000
0010
1000
0001
0000
0001
0000
0100
0000
0010
0000
,
1000
0000
0100
0000
0010
0000
0001
0010
0100
0000
0100
0000
1000
0000
0001
0000
,
0100
0000
0010
0000
0100
0000
0010
0100
0001
0000
0001
0000
1000
0000
0100
0000
,
0010
0000
0001
0000
0010
0000
0100
1000
0001
0000
0001
0000
0100
0000
0010
0000
,
0100
0000
0001
0000
1000
0000
0100
0010
0001
0000
0001
0000
1000
0000
0001
0000
,
0100
0000
0010
0000
1000
0000
0001
1000
0100
0000
0100
0000
0010
0000
0001
0000
,
1000
0000
0010
0000
0100
0000
0001
0010
0100
0000
0100
0000
1000
0000
0010
0000
,
0100
0000
0001
0000
0010
0000
0001
1000
0100
0000
0100
0000
1000
0000
0001
0000
,
1001
0000
0000
0000
0000
0000
0000
0000
0000
M00M
0000
0000
M00M
0000
0000
M00M
0000
0000
M00M
0000
0000
M00M
0000
0000
M00M
0000
0MM0
MMMM
0000
0000
M00M
0000
0000
0000
0000
0000
MMMM
0000
0000
MMMM
0000
0000
0MM0
0000
0000
0MM0
0000
0000
,
0MM0
0MM0
0MM0
0MM0
0000
MMMM
M000
M000
MMMM
M000
M000
M000
M000
0000
MMMM
M00M
,
M00M
000M
000M
0MM0
0MM0
0MM0
0000
0MM0
0MM0
0000
0000
0000
0000
0000
0000
0000
,
0000
0000
0000
0000
,
1000
0010
0100
0010
1000
0001
0010
0100
0010
0001
1000
0100
0010
0001
1000
0010
,
0100
0010
1000
0001
0100
0010
0100
0001
1000
0001
0100
0010
0100
0001
0100
0001
,
1000
0010
1000
0001
0010
0100
1000
0001
0100
0010
0100
0001
1000
0100
0010
0001
,
1000
0100
0010
0100
1000
0001
0100
0010
0100
0001
1000
0001
0100
0010
0100
0001
,
1000
0100
0010
0001
1000
0100
0010
0100
1000
0001
0100
0010
0100
0001
1000
0100
,
0010
0001
1000
0010
1000
0001
0100
0001
1000
0100
1000
0001
0010
0001
1000
0010
,
0100
0010
1000
0001
0010
0100
1000
0001
0100
0001
0100
0001
1000
0001
1000
0001
,
2000
0000
3001
0000
2000
0000
3001
1000
0001
0000
1000
0000
0001
0000
1000
0000
,
0010
0100
0001
1000
0001
0010
0100
0010
0001
1000
0010
0100
0010
1000
0001
0010
,
0100
1000
0001
0100
0010
0100
0001
1000
0100
0010
0001
1000
0100
0010
0100
1000
,
0001
0100
0001
1000
0010
1000
0001
0010
0100
1000
0001
0100
0010
0100
0001
1000
,
0100
0010
0001
1000
0100
0010
0100
1000
0001
0100
0010
0100
0001
1000
0010
1000
,
0001
1000
0001
0100
0010
0100
0001
1000
0100
0010
0001
1000
0100
1000
0100
1000
,
0001
0100
0010
0100
0001
1000
0100
0010
0001
1000
0010
0100
0010
1000
0001
0100
,
0010
0100
0001
1000
0100
0010
0001
1000
0010
0100
0001
1000
0100
0010
0100
1000
,
0001
0010
0100
0010
0001
1000
0010
0100
0001
0010
0100
1000
0001
0100
0010
0000
,
1010
0000
1010
0000
1000
0010
0100
0001
,
0101
0000
0101
0000
0001
0010
0100
1000
,
1100
0000
1100
0000
0100
0010
0001
1000
,
1001
0000
1001
0000
0001
0100
0010
0100
,
0001
0000
1000
0000
0010
0000
0100
0001
1000
0000
1000
0000
0010
0000
0100
0000
,
0001
0000
0010
0000
0100
0000
0010
0100
1000
0000
1000
0000
0001
0000
1000
0000
,
0010
0000
0100
0000
0010
0000
0100
0010
1000
0000
1000
0000
0001
0000
0010
0000
,
0100
0000
1000
0000
0100
0000
0010
0001
1000
0000
1000
0000
0010
0000
0100
0000
,
0010
0000
1000
0000
0001
0000
0010
0100
1000
0000
1000
0000
0001
0000
1000
0000
,
0010
0000
0100
0000
0001
0000
1000
0001
0100
0000
0100
0000
0010
0000
1000
0000
,
0001
0000
0100
0000
0001
0000
0010
0100
1000
0000
1000
0000
0001
0000
0100
0000
,
0004
0000
0000
0000
0000
0003
0000
0001
,
1000
0200
0320
0032
1003
0200
0320
0230
,
1300
0020
0230
0302
0103
0020
0230
0302
,
1003
0200
0320
0032
1003
0020
0230
0320
,
1030
0002
0203
0320
0130
0002
0023
0230
,
0310
0002
2003
3200
1300
0020
0230
0302
,
0013
0002
0203
0320
1030
0002
0023
0230
,
1300
0020
0230
0302
0013
0200
2300
3002
,
0103
0020
0230
0302
1003
0200
0320
0032
,
0103
0020
2030
3200
0310
0200
2300
3002
,
0103
0020
0230
0302
1003
0200
0320
0032
,
1003
0002
0203
0320
0130
0002
2003
3200
,
1300
0020
0230
0302
0013
0002
2003
3200
,
0310
0002
2003
3020
0130
0002
0023
0230
,
1300
0020
0230
0320
1030
0002
0023
0230
,
1300
0002
0203
0320
0130
0002
2003
3200
,
0310
0002
2003
3002
0103
0020
0230
0301
,
1001
1000
0001
0010
,
0100
1000
0010
0100
,
0001
1000
0100
0010
,
0001
1000
0100
0010
,
0001
0100
0010
0000
1000
0010
0100
0000
0010
1000
0001
0000
1000
0001
0100
0000
,
0001
0010
0100
0000
0010
0100
1000
0000
0100
0010
0001
0000
0010
0100
1000
0000
,
0001
0100
0010
0000
1000
0001
0100
0000
0010
0100
0001
0000
0100
0010
1000
0000
,
0001
1000
0100
0000
0010
0001
1000
0000
0100
0010
0001
0000
0010
0100
1000
0000
,
0001
1000
0010
0000
0100
0001
1000
0000
0010
1000
0001
0000
0100
0001
1000
0000
,
0001
0010
0100
0000
1000
0100
0010
0000
0001
0010
0100
0000
1000
0100
0010
0000
,
0001
1000
0010
0000
0100
0001
1000
0000
0001
1000
0010
0000
1000
0001
0100
0000
,
0001
1000
0100
0000
0010
0001
1000
0000
0100
0010
0001
0000
0010
0100
1000
0000
,
0001
0100
0010
0000
1000
0001
0100
0000
0010
1000
0001
0000
0100
0010
1000
0000
,
0001
0010
0100
0000
1000
0001
0010
0000
0100
0010
0001
0000
0010
0100
1000
0000
,
0001
1000
0010
0000
0100
0001
1000
0000
0010
1000
0001
0000
0100
0001
1000
0000
,
0001
1000
0100
0000
0010
0001
1000
0000
0100
1000
0001
0000
0010
0001
1000
0000
,
0001
0100
0010
0000
1000
0001
0100
0000
0010
1000
0001
0000
0100
0001
1000
0000
,
0001
0010
0100
0000
1000
0100
0010
0000
0001
0010
0100
0000
1000
0100
0010
0000
,
0001
1000
0010
0000
0100
0001
1000
0000
0010
0100
0001
0000
1000
0010
0100
0000
,
0001
1000
0100
0000
0010
0001
1000
0000
0100
0010
0001
0000
1000
0100
0010
0000
,
2002
3003
0000
0000
;
