#TITLE:Destination Relapse;
#SUBTITLE:;
#ARTIST:Renard;
#TITLETRANSLIT:;
#SUBTITLETRANSLIT:;
#ARTISTTRANSLIT:;
#CREDIT:;
#BANNER:../Jawn - ban.png;
#BACKGROUND:../Jawn - bg.png;
#LYRICSPATH:;
#CDTITLE:;
#MUSIC:Destination Relapse.ogg;
#OFFSET:0.008;
#SAMPLESTART:37.911;
#SAMPLELENGTH:12.000;
#SELECTABLE:YES;
#BPMS:0.000=201.302;
#STOPS:;
#BGCHANGES:;
// cache tags:
#FIRSTBEAT:0.000;
#LASTBEAT:479.500;
#SONGFILENAME:Songs/Jimmy Jawns/Destination Relapse - [Aoreo]/Destination Relapse.sm;
#HASMUSIC:1;
#HASBANNER:1;
#MUSICLENGTH:145.261;
// end cache tags

//---------------dance-single - J. Nero (16+)----------------
#NOTES:
     dance-single:
     J. Nero (16+):
     Challenge:
     16:
     1.000,1.000,0.007,0.110,1.000,1615.000,1.000,16.000,0.000,0.000:
1000
0010
1000
0001
0010
0001
1000
0010
1000
0001
0100
0001
0010
0100
1000
0001
,
0100
0010
1000
0001
0010
0001
1000
0010
1000
0001
0100
0001
0010
0100
1000
0001
,
1000
0010
1000
0001
0010
0001
1000
0010
1000
0001
0100
0001
0010
0100
1000
0001
,
0100
0010
1000
0001
0010
0001
1000
0010
1000
0001
0100
0001
0010
0100
1000
0001
,
1000
0100
1000
0001
0100
0001
1000
0100
1000
0001
0010
0001
0100
0010
1000
0001
,
0010
0100
1000
0001
0100
0001
1000
0100
1000
0001
0010
0001
0100
0010
1000
0001
,
1000
0100
1000
0001
0100
0001
1000
0100
1000
0001
0010
0001
0100
0010
1000
0001
,
0010
0100
1000
0001
0100
0001
1000
0100
1000
0001
0010
0001
0100
0010
1000
0001
,
0100
0001
1000
0010
1000
0001
0010
0001
1000
0100
1000
0010
0100
0001
1000
0100
,
0010
0001
1000
0010
1000
0001
0010
0001
1000
0100
1000
0010
0100
0001
1000
0001
,
0010
0001
1000
0010
1000
0001
0010
0001
1000
0100
1000
0010
0100
0001
1000
0100
,
0010
0001
1000
0010
1000
0001
0010
0001
1000
0100
1000
0010
0100
0001
1000
0001
,
0100
0001
1000
0100
1000
0001
0100
0001
1000
0010
1000
0100
0010
0001
1000
0010
,
0100
0001
1000
0100
1000
0001
0100
0001
1000
0010
1000
0100
0010
0001
1000
0001
,
0100
0001
1000
0100
1000
0001
0100
0001
1000
0010
1000
0100
0010
0001
1000
0010
,
0100
0001
1000
0100
1000
0001
0100
0001
1000
0010
1000
0100
0010
0000
0000
0000
,
0001
1000
0100
1000
0001
0100
0001
0100
0001
1000
0100
1000
0010
0100
0010
1000
,
0001
0100
0010
0100
0001
1000
0100
0010
0100
0010
0001
1000
0010
0100
0010
1000
,
0001
1000
0100
1000
0010
0100
0001
0100
0001
1000
0010
1000
0100
0010
0100
0010
,
0001
1000
0010
0100
0010
1000
0001
0100
0001
1000
0010
0100
0010
1000
0001
0010
,
0100
1000
0001
0100
0001
1000
0100
1000
0100
1000
0001
0100
0001
0010
0100
1000
,
0001
0100
0001
1000
0010
0100
0010
0100
0010
1000
0100
0010
0100
1000
0001
0100
,
0001
1000
0010
0100
0010
0100
0001
1000
0001
0100
0001
0010
0100
0010
0001
1000
,
0010
0000
0000
1000
0000
0000
0001
0000
0000
1000
0000
0000
0100
0000
0000
0010
0000
0000
0001
0000
0000
1000
0000
0000
0010
0000
0000
0100
0000
0000
0010
0000
0000
1000
0000
0000
0002
0000
0000
0000
0003
0000
0002
0000
0000
0003
0000
0000
,
1000
0001
0010
0001
1000
0010
1000
0010
1000
0001
0010
0001
0100
0010
0100
0001
,
1000
0010
0100
0010
1000
0001
0010
0100
0010
0100
1000
0001
0100
0010
0100
0001
,
1000
0001
0010
0001
0100
0010
1000
0010
1000
0001
0100
0001
0010
0100
0010
0100
,
1000
0001
0100
0010
0100
0001
1000
0010
1000
0001
0100
0010
0100
0001
1000
0100
,
0010
0001
1000
0010
1000
0001
0010
0001
0010
0001
1000
0010
1000
0100
0010
0001
,
1000
0010
1000
0001
0100
0010
0100
0010
0100
0001
0010
0100
0010
0001
1000
0010
,
1000
0001
0100
0010
0100
0010
1000
0001
1000
0010
1000
0100
0010
0100
1000
0001
,
0100
0000
0000
0001
0000
0000
1000
0000
0000
0001
0000
0000
0100
0000
0000
0010
0000
0000
0100
0000
0000
0001
0000
0000
1000
0000
0000
0100
0000
0000
0010
0000
0000
0001
0000
0000
2000
0000
0000
0000
3000
0000
2000
0000
0000
3000
0000
0000
,
0001
0000
0100
0000
0001
0100
0001
1000
0100
0010
0001
0000
1000
0100
1000
0000
,
0001
0100
0001
0100
0001
1000
0100
0010
0001
1000
0001
0000
1000
0000
0100
0010
,
0100
0010
0001
0000
1000
0000
0010
0100
0010
0000
1000
0000
0001
0100
0001
0000
,
0010
0000
0100
0000
1000
0001
1000
0001
0100
0000
0001
0100
0001
0100
0010
0000
,
1000
0000
0100
0010
0001
1000
0001
1000
0010
0100
0010
1000
0100
0000
0010
0100
,
1000
0001
1000
0000
0010
0000
0100
0000
0001
0100
0001
1000
0100
0000
0010
0001
,
0100
0000
0001
0000
1000
0000
0100
1000
0001
0000
0100
0000
0010
1000
0010
0000
,
1000
0000
0100
0000
0010
0000
0100
0000
0010
0001
1000
0000
0001
0000
0001
0000
,
0100
0001
0100
0010
1000
0100
1000
0001
1000
0100
0010
0001
1000
0010
1000
0010
,
0100
0001
1000
0001
0010
0100
1000
0001
0100
0010
0100
0001
1000
0100
1000
0001
,
0100
0001
1000
0001
0010
0100
1000
0001
0100
0010
0100
0001
1000
0010
1000
0010
,
0100
0001
1000
0001
0010
0100
1000
0001
0100
0001
1000
0010
1000
0100
0010
0001
,
1000
0100
1000
0001
0100
0010
1000
0100
1000
0001
0100
0010
1000
0010
0100
0001
,
1000
0100
1000
0100
0010
0001
1000
0010
1000
0001
0100
0001
0010
0100
1000
0001
,
0010
0001
1000
0010
0100
0010
1000
0001
0100
0010
0100
0001
1000
0100
0010
0001
,
0100
0010
0100
0001
0010
0100
0010
0001
0100
0010
0100
0001
1000
0000
1000
0000
,
0001
0000
0001
0100
0010
0000
0100
0100
,
0001
0000
0010
0000
0100
0000
1000
0000
0000
0000
0001
0000
0100
0001
1000
0001
,
1000
0000
0000
0000
0100
0000
0010
0000
0000
0000
0001
1000
0001
0000
1000
0000
,
0100
0100
0010
0001
0000
0000
0000
0000
,
1000
0000
1000
0010
0100
0000
0010
0010
,
1000
0000
0100
0000
0010
0000
0001
0000
0000
0000
1000
0000
0010
1000
0001
1000
,
0001
0000
0000
0000
0010
0000
0100
0000
0000
0000
1000
0001
1000
0000
0001
0000
,
0010
0000
0010
0000
0100
0000
1000
0000
0001
0100
0001
1000
0001
0000
0000
0000
,
1000
0001
0100
0001
1000
0001
0010
0100
1000
0001
0100
0010
0100
0001
1000
0001
,
0100
0010
0100
0010
1000
0001
1000
0100
1000
0001
0100
0001
1000
0010
1000
0100
,
0010
0001
1000
0001
0100
0010
0100
0001
0010
0001
1000
0100
0010
0100
0010
0001
,
1000
0010
0100
0010
0100
0001
1000
0010
0100
0001
0100
0001
0010
0100
1000
0001
,
0100
0010
0100
0001
0100
0010
0100
0001
1000
0100
1000
0001
0100
0001
0100
0010
,
1000
0001
0100
0001
1000
0001
0100
0010
1000
0010
0100
0001
0010
0100
1000
0010
,
1000
0010
0100
0001
1000
0001
0010
0100
1000
0001
0100
0001
1000
0100
0010
0100
,
0010
0001
0100
0010
0100
0010
1000
0001
0100
0001
1000
0010
0100
0000
0100
0000
,
0001
0100
0001
1000
0100
0010
0001
1000
0001
0100
0010
1000
0100
1000
0100
0010
,
0001
1000
0001
0100
0010
0100
0010
1000
0001
0100
0001
1000
0100
0010
0100
0010
,
0001
1000
0001
0100
0010
0100
0001
1000
0001
0100
0001
1000
0100
0010
0100
0010
,
0001
1000
0010
0100
0010
0100
0001
1000
0100
1000
0001
0100
0001
0100
0010
1000
,
0001
0100
0001
1000
0001
0010
0100
1000
0001
1000
0100
1000
0001
0100
0010
1000
,
0001
0100
0001
1000
0001
0010
0100
1000
0001
1000
0100
1000
0010
0100
0001
0000
,
0000
0000
0000
0000
,
0000
0000
0000
0000
1002
0000
1003
1000
,
0010
0100
0010
0100
0010
0100
0002
0000
,
0013
0200
0000
1300
0100
1000
0020
0000
,
0130
0001
0100
0001
0100
0001
2000
0000
,
3010
0200
0000
0310
1000
0100
0020
0000
,
0130
1000
0100
1000
0100
1000
0020
0000
,
0130
0002
0000
1003
0010
1000
0200
0000
,
1300
0001
1000
0001
1000
0001
0200
0000
,
0301
0020
0000
0031
0010
0001
1000
0000
,
0001
1000
0100
1000
0001
0100
0010
0100
0001
1000
0100
1000
0010
0100
0010
0100
,
0001
1000
0100
0010
0100
0010
0001
1000
0001
0100
0001
1000
0010
0100
0010
0100
,
0001
1000
0100
1000
0010
0100
0001
0100
0001
1000
0010
1000
0100
0010
0100
0010
,
0001
1000
0010
0100
0010
0100
0001
1000
0001
0100
0010
1000
0100
1000
0100
0010
,
0001
1000
0001
0100
0001
1000
0100
0010
0100
1000
0001
1000
0010
0100
0010
0100
,
0001
1000
0100
0010
0100
0010
0001
0100
0010
1000
0100
0010
0001
0100
0001
0100
,
0010
1000
0010
0100
0001
1000
0100
0010
0100
1000
0001
1000
0010
0100
0010
0100
,
0001
1000
0001
0010
0001
0000
1000
0100
1000
0001
1000
0000
0010
0000
0000
0000
,
1000
0010
1000
0001
0010
0100
0010
0001
1000
0100
1000
0010
1000
0100
0010
0001
,
1000
0010
0100
0010
1000
0100
1000
0001
0100
0001
0010
0001
0100
0010
1000
0001
,
0100
0010
0100
0001
1000
0100
0010
0001
1000
0010
1000
0100
1000
0010
0100
0001
,
1000
0001
0010
0100
0010
0001
1000
0010
1000
0001
0010
0100
0010
0001
1000
0010
,
1000
0100
1000
0001
0100
0010
0100
0001
1000
0001
0010
0001
0100
0010
1000
0001
,
0100
0010
1000
0001
0010
0100
0010
0001
1000
0100
1000
0010
1000
0001
0100
0010
,
1000
0010
0100
0001
1000
0100
1000
0001
0100
0001
0010
0001
1000
0100
0010
0100
,
1000
0001
0100
0010
1000
0100
0010
0001
1000
0010
0100
0001
1000
0000
1000
0000
,
0001
0100
0001
1000
0100
0010
0100
1000
0001
0010
0001
0100
0001
0010
0100
1000
,
0001
0100
0010
0100
0001
0010
0001
1000
0010
1000
0100
1000
0010
0100
0001
1000
,
0010
0100
0010
1000
0001
0010
0100
1000
0001
0100
0001
0010
0001
0100
0010
1000
,
0001
1000
0100
0010
0100
1000
0001
0100
0001
1000
0100
0010
0100
1000
0001
0100
,
0001
0010
0001
1000
0010
0100
0010
1000
0001
1000
0100
1000
0010
0100
0001
1000
,
0010
0100
0001
1000
0100
0010
0100
1000
0001
0010
0001
0100
0001
1000
0010
0100
,
0001
0100
0010
1000
0001
0010
0001
1000
0010
1000
0100
1000
0001
0010
0100
0010
,
0001
1000
0010
0100
0001
0010
0100
1000
0001
0100
0010
1000
0001
0000
0001
0000
,
1000
0010
0100
0010
1000
0100
0010
0100
,
1000
0010
0100
0010
1000
0100
0010
0010
,
0001
0100
0010
0100
0001
0010
0100
0010
,
0001
1000
0001
0100
0010
1000
0100
1000
,
0001
0010
0100
0010
0001
0100
0010
0100
,
0001
0010
0100
0010
0001
0100
0010
0010
,
1000
0100
0010
0100
1000
0010
0100
0010
,
1000
0001
1000
0010
0100
0001
0010
0010
,
0001
1000
0010
1000
0001
0010
0100
0010
0001
1000
0010
1000
0100
0010
0100
0010
,
0001
1000
0010
0100
0010
0100
0001
1000
0001
0010
0001
1000
0100
0010
0100
0010
,
0001
1000
0010
1000
0100
0010
0001
0010
0001
1000
0100
1000
0010
0100
0010
0100
,
0001
1000
0100
0010
0100
0010
0001
1000
0001
0010
0100
1000
0010
1000
0010
0100
,
0001
1000
0001
0010
0001
1000
0010
0100
0010
1000
0001
1000
0100
0010
0100
0010
,
0001
1000
0010
0100
0010
0100
0001
0010
0100
1000
0010
0100
0001
0010
0001
0010
,
0100
1000
0100
0010
0001
1000
0010
0100
0010
1000
0001
1000
0100
0010
0100
0010
,
0001
0000
0001
0000
0010
0100
1000
0010
;
