#TITLE:Saw-Saw;
#SUBTITLE:;
#ARTIST:t+pazolite;
#TITLETRANSLIT:;
#SUBTITLETRANSLIT:;
#ARTISTTRANSLIT:;
#CREDIT:;
#BANNER:saw-saw bn.png;
#BACKGROUND:saw-saw bg.png;
#LYRICSPATH:;
#CDTITLE:;
#MUSIC:Saw-Saw.ogg;
#OFFSET:0.011;
#SAMPLESTART:34.825;
#SAMPLELENGTH:12.000;
#SELECTABLE:YES;
#DISPLAYBPM:220.000;
#BPMS:0.000=110.000,64.000=220.000,320.000=110.000;
#STOPS:;
#BGCHANGES:;
// cache tags:
#FIRSTBEAT:62.000;
#LASTBEAT:350.000;
#SONGFILENAME:Songs/SPEEEDCOOOORE 4/Saw-Saw - [Tyler]/saw-saw.sm;
#HASMUSIC:1;
#HASBANNER:1;
#MUSICLENGTH:122.180;
// end cache tags

//---------------dance-single - T. Moore----------------
#NOTES:
     dance-single:
     T. Moore:
     Challenge:
     16:
     0.933,1.000,0.025,0.041,1.000,789.000,3.000,5.000,16.000,0.000:
0000
0000
0000
0000
,
0000
0000
0000
0000
,
0000
0000
0000
0000
,
0000
0000
0000
0000
,
0000
0000
0000
0000
,
0000
0000
0000
0000
,
0000
0000
0000
0000
,
0000
0000
0000
0000
,
0000
0000
0000
0000
,
0000
0000
0000
0000
,
0000
0000
0000
0000
,
0000
0000
0000
0000
,
0000
0000
0000
0000
,
0000
0000
0000
0000
,
0000
0000
0000
0000
,
0000
0000
0002
0000
,
1003
0100
0010
0001
1000
0001
0010
0100
1000
0001
0100
0010
1000
0000
0000
0000
,
0001
0100
0001
1000
0100
0010
0100
1000
0001
0010
0001
1000
0010
0000
0000
0000
,
0100
0001
1000
0001
0100
0010
1000
0001
1000
0100
0010
0001
1000
0000
0000
0000
,
0001
0100
0010
1000
0100
0010
0001
1000
0010
1000
0100
0010
0100
1000
0010
0100
,
0001
1000
0100
1000
0001
0010
0100
1000
0001
1000
0010
0100
0001
0000
0000
0000
,
1000
0010
1000
0001
0010
0100
0010
0001
1000
0100
1000
0001
0100
0000
0000
0000
,
0010
1000
0001
1000
0010
0100
0001
1000
0100
0000
0010
0100
1000
0000
0000
0000
,
0001
0000
0000
1000
0000
0000
0010
0000
0000
0000
0000
0000
0010
0000
0000
0000
0000
0000
0100
0000
0000
0001
0000
0000
0100
0000
0000
0001
0000
0000
1000
0000
0000
0000
0000
0000
0001
0000
0000
0000
0010
0000
0000
0000
0100
0000
0000
0000
,
1000
0001
0010
0001
1000
0010
0100
0001
1000
0001
0010
0100
1000
0000
0000
0000
,
0001
0010
0001
1000
0010
0100
0010
1000
0001
0100
0001
1000
0100
0000
0000
0000
,
0010
0001
1000
0001
0010
0100
1000
0001
1000
0010
0100
0001
1000
0000
0000
0000
,
0001
0010
0100
1000
0010
0100
0001
1000
0100
1000
0010
0100
0010
1000
0100
0010
,
0001
1000
0010
1000
0001
0100
0010
1000
0001
1000
0100
0010
0001
0000
0000
0000
,
1000
0100
1000
0001
0100
0010
0100
0001
1000
0010
1000
0001
0010
0000
0000
0000
,
0100
1000
0001
0100
0010
0000
1000
0001
0100
0000
0001
1000
0100
0000
0010
0001
,
1000
0000
0000
0000
1000
0010
0100
0001
0020
0000
0000
0000
0000
0000
0000
0000
,
0031
0010
0100
1000
0001
1000
0100
0010
0001
1000
0010
0100
0001
0000
0000
0000
,
1000
0010
1000
0001
0010
0100
0010
0001
1000
0100
1000
0001
0100
0000
0000
0000
,
0010
1000
0001
1000
0010
0100
0001
1000
0001
0010
0100
1000
0001
0000
0000
0000
,
1000
0010
0100
0001
0010
0100
1000
0001
0100
0001
0010
0100
0010
0001
0100
0010
,
1000
0001
0010
0001
1000
0100
0010
0001
1000
0001
0100
0010
1000
0000
0000
0000
,
0001
0100
0001
1000
0100
0010
0100
1000
0001
0010
0001
1000
0010
0000
0000
0000
,
0100
0001
1000
0001
0100
0010
1000
0001
0010
0000
0100
0010
0001
0000
0000
0000
,
1000
0000
0000
0001
0000
0000
0100
0000
0000
0000
0000
0000
0100
0000
0000
0000
0000
0000
0010
0000
0000
1000
0000
0000
0010
0000
0000
1000
0000
0000
0001
0000
0000
0000
0000
0000
1000
0000
0000
0000
0100
0000
0000
0000
0010
0000
0000
0000
,
0001
1000
0100
1000
0001
0100
0010
1000
0001
1000
0100
0010
0001
0000
0000
0000
,
1000
0100
1000
0001
0100
0010
0100
0001
1000
0010
1000
0001
0010
0000
0000
0000
,
0100
1000
0001
1000
0100
0010
0001
1000
0001
0100
0010
1000
0001
0000
0000
0000
,
1000
0100
0010
0001
0100
0010
1000
0001
0010
0001
0100
0010
0100
0001
0010
0100
,
1000
0001
0100
0001
1000
0010
0100
0001
1000
0001
0010
0100
1000
0000
0000
0000
,
0001
0010
0001
1000
0010
0100
0010
1000
0001
0100
0001
1000
0100
0000
0000
0000
,
0010
0000
0000
0001
0000
0000
1000
0000
0000
0010
0000
0000
0100
0000
0000
0000
0000
0000
0010
0000
0000
1000
0000
0000
0001
0000
0000
0000
0000
0000
1000
0000
0000
0000
0000
0000
0100
0000
0000
0000
0010
0000
0000
0000
0001
0000
0000
0000
,
1000
0000
0000
0000
,
0001
0010
0100
1000
0001
1000
0010
0100
0001
1000
0100
0010
0001
0000
0000
0000
,
1000
0001
0100
0010
1000
0001
0010
0100
1000
0001
0010
0001
0100
0000
0000
0000
,
0001
0100
0010
1000
0001
0100
0001
1000
0100
0010
0001
1000
0010
0100
0010
0100
,
0001
1000
0010
1000
0100
0010
0100
1000
0001
1000
0010
0100
0001
0000
1000
0000
,
0001
0100
0010
1000
0001
1000
0100
0010
0001
0100
0010
1000
0100
0000
0000
0000
,
1000
0010
0100
0001
0010
0100
1000
0001
1000
0010
1000
0010
0100
0000
0000
0000
,
0001
1000
0001
1000
0100
0000
0000
0000
0010
0001
0010
0001
1000
0000
0000
0000
,
0001
0000
0100
0000
0100
0000
0001
0000
1000
0000
0100
0010
0001
0000
1000
0000
,
0001
0100
0001
1000
0010
0100
0001
1000
0100
0010
0100
1000
0001
0000
0000
0000
,
1000
0010
1000
0001
1000
0010
0100
0001
0010
0100
0010
0001
1000
0000
0000
0000
,
0001
1000
0001
0100
0010
1000
0010
1000
0001
1000
0010
0100
0001
0000
0000
0000
,
1001
0000
0000
0000
1000
0100
0010
0001
1000
0010
1000
0010
0100
0000
0001
0000
,
1000
0001
0010
0100
0010
0001
1000
0001
1000
0010
0100
0001
4000
0000
0000
0000
,
3001
0010
0001
1000
0010
0100
0001
1000
0001
0010
0100
1000
0001
0000
0000
0000
,
1000
0001
1000
0010
0100
0010
1000
0001
0010
0000
0100
0000
0010
0000
0001
1000
,
0010
0000
0000
0000
1000
0100
0010
0001
0200
0000
0000
0000
0000
0000
0000
0000
,
0301
1000
0100
1000
0001
0010
0100
1000
0001
0100
0010
1000
0100
0010
0100
0010
,
0001
1000
0001
0100
0010
1000
0010
0100
0001
1000
0001
0010
0100
1000
0100
1000
,
0001
0010
0001
1000
0001
0100
0010
1000
0004
0000
0000
0000
0043
0000
0000
0000
,
0130
0000
0000
0000
1000
0001
1000
0010
0100
0000
0010
1000
0001
0000
1000
0100
,
0010
0001
1000
0001
0010
0100
1000
0001
1000
0010
0100
0001
1000
0000
0000
0000
,
0001
0010
0100
0010
0001
1000
0001
1000
0010
0100
0001
1000
0100
0000
0000
0000
,
0010
0001
0010
0100
1000
0000
0000
0000
0001
0100
0010
0100
0001
0000
0000
0000
,
1000
0000
0100
0000
0100
0000
1000
0000
0001
0000
0100
0001
0100
0000
0010
1000
,
0001
1000
0001
1000
0100
0000
0000
0000
1000
0001
1000
0010
0100
0000
0000
0000
,
0001
0100
0010
1000
0001
1000
0010
0100
0001
0010
0100
0010
0001
0000
0000
0000
,
1000
0010
0100
0001
0010
0100
0010
0001
1000
0001
0100
0010
2000
0000
0000
0000
,
3001
0000
0000
0000
0001
0100
0010
1000
0001
0010
0100
1000
0001
0000
1000
0000
,
0001
0100
0010
1000
0001
1000
0010
0100
0010
1000
0001
0010
0100
1000
0100
1000
,
0001
1000
0001
0100
0010
0100
0001
1000
0001
0100
0010
1000
0001
0000
0000
0000
,
1000
0010
0100
0001
0010
0100
1000
0001
1000
0000
0001
1000
0001
0100
0010
1000
,
0200
0000
0000
0000
,
M300
0000
00M0
0000
,
0M00
0000
000M
0000
,
M000
0000
00M0
0000
,
0M00
0000
000M
0000
,
M000
0000
00M0
0000
,
0M00
0000
000M
0000
,
M000
0000
00M0
0000
,
0M00
0000
000M
0000
;
