#TITLE:End of the Moonlight;
#SUBTITLE:(SC Style);
#ARTIST:Forte Escape;
#TITLETRANSLIT:;
#SUBTITLETRANSLIT:;
#ARTISTTRANSLIT:;
#CREDIT:;
#BANNER:End of the Moonlight (SC Style).png;
#BACKGROUND:End of the Moonlight (SC Style)-bg.png;
#LYRICSPATH:;
#CDTITLE:NVLM-cdtitle.png;
#MUSIC:End of the Moonlight (SC Style).mp3;
#OFFSET:-6.615;
#SAMPLESTART:53.078;
#SAMPLELENGTH:12.000;
#SELECTABLE:YES;
#DISPLAYBPM:155.000;
#BPMS:0.000=154.900;
#STOPS:;
#BGCHANGES:;
// cache tags:
#FIRSTBEAT:0.000;
#LASTBEAT:262.000;
#SONGFILENAME:Songs/toune 8/End of the Moonlight (SC Style)/End of the Moonlight (SC Style).sm;
#HASMUSIC:1;
#HASBANNER:1;
#MUSICLENGTH:110.942;
// end cache tags

//---------------dance-single - ----------------
#NOTES:
     dance-single:
     :
     Hard:
     10:
     0.843,0.886,0.334,0.108,0.897,606.000,37.000,12.000,0.000,0.000:  // measure 1
1000
0010
0000
0100
0001
0000
0100
1000
0000
0100
0001
0000
0010
0100
0010
0100
,  // measure 2
1000
0010
0000
1000
0100
0000
0010
0001
0000
0010
0100
0000
1000
0001
1000
0001
,  // measure 3
0010
0100
0000
0100
1000
0000
1000
0010
0000
0100
0001
0000
0010
0100
0010
0100
,  // measure 4
1000
0001
0100
0010
1000
0001
0100
0010
1000
0100
0010
0001
1000
0100
0010
0001
,  // measure 5
2002
0000
3003
0000
,  // measure 6
0010
0010
0010
0010
,  // measure 7
0100
0000
1001
0010
0100
0000
1100
0010
,  // measure 8
0001
0000
0000
0000
0110
0000
0001
0000
1000
0000
0000
0000
0100
0000
0010
0001
,  // measure 9
0010
0000
1001
0100
0010
0001
0100
1000
,  // measure 10
0100
0000
0000
0000
1001
0000
0010
0000
0100
0000
0000
0000
1001
0000
0100
0010
,  // measure 11
0100
0000
0011
1000
0100
0010
0001
0100
,  // measure 12
1000
1000
0100
0010
1000
0001
0101
0000
,  // measure 13
0010
0000
1100
0001
0100
0010
1000
0100
,  // measure 14
0000
0001
0000
0001
0000
0001
0000
0001
,  // measure 15
0010
0000
0100
0000
0100
0000
1000
0010
0000
1000
0001
0000
0100
0000
1000
0000
,  // measure 16
0100
0000
0010
0000
0010
0000
0001
1000
0000
0100
1000
0000
0010
0000
0100
0000
,  // measure 17
0001
0000
0010
0000
0010
0000
0100
0001
0000
0100
1000
0000
0010
0000
0100
0000
,  // measure 18
0001
0000
1000
0000
1000
0000
0100
0010
0000
0100
0001
0000
0010
0000
0100
0000
,  // measure 19
1000
0000
0001
0000
0001
0000
0100
1000
0000
0100
0010
0000
1000
0000
0001
0000
,  // measure 20
0010
0000
0100
0000
0100
0000
1000
0001
0000
0001
0010
0000
0100
0000
1000
0000
,  // measure 21
0001
0000
0100
0000
0100
0000
0010
0001
0000
0010
1000
0000
0100
0000
0010
0000
,  // measure 22
0001
0000
0001
0000
1000
0000
1000
0000
0010
0100
0010
0100
0001
0000
1000
0100
,  // measure 23
0010
0001
0000
0001
0100
0000
0100
0010
1000
0000
0001
0000
0001
0000
0100
0000
,  // measure 24
0010
1000
0000
1000
0100
0000
0010
0001
1000
0000
0100
0000
0100
0000
0001
0000
,  // measure 25
0010
0100
0000
0010
1000
0000
0010
0001
0010
0000
0100
0000
1000
0000
1000
0000
,  // measure 26
0001
0100
0000
0001
0010
0000
0100
1000
0001
0000
0100
0000
0010
0000
0010
0000
,  // measure 27
1000
0100
0000
0001
0100
0000
1000
0100
0010
0000
0001
0000
1000
0000
1000
0000
,  // measure 28
0010
0100
0000
0010
0001
0000
0010
1000
0100
0000
0001
0000
0001
0000
0100
0000
,  // measure 29
0010
0001
0000
0001
1000
0000
0010
0100
0001
0000
0100
0000
0100
0000
0010
0000
,  // measure 30
1000
0100
0000
0100
0001
0000
0001
1000
0010
0000
0100
0000
0100
0000
1000
0000
,  // measure 31
1010
0000
0100
0000
0001
0000
0010
0100
1000
0000
1010
0000
0000
0000
0110
0000
,  // measure 32
0101
0000
0001
1000
0001
0000
0100
0000
0000
0000
0010
0000
0000
0000
1001
0000
,  // measure 33
0000
0000
0100
0010
0100
0000
1100
0000
1000
0000
0001
0000
0110
0000
0000
0000
,  // measure 34
1000
0100
1000
0010
1000
0100
1000
0010
1000
0100
1000
0010
1000
0100
1000
0010
,  // measure 35
0100
0001
0100
1000
0100
0001
0100
1000
0100
0001
0100
1000
0100
0001
0100
1000
,  // measure 36
0010
0000
0010
0100
0001
0000
1001
0000
0000
0000
1010
0000
0000
0000
0110
0000
,  // measure 37
0000
0000
1000
0100
0010
0000
0011
0000
0001
0000
0100
0000
1001
0000
0000
0000
,  // measure 38
0100
0010
0100
0000
0001
0000
1000
0100
0000
1000
0010
0000
0100
0000
0001
0000
,  // measure 39
1000
0100
1000
0100
0010
0001
0010
0001
0100
0010
0100
0010
1000
0001
1000
0001
,  // measure 40
0100
0000
0100
0010
0100
0000
1001
0000
0000
0000
0010
0000
0000
0000
1100
0000
,  // measure 41
0000
0000
0001
0010
0100
0000
1100
0000
0001
0000
0010
0000
0110
0000
0000
0000
,  // measure 42
1000
0001
1000
0010
1000
0001
1000
0010
1000
0100
1000
0001
1000
0100
1000
0001
,  // measure 43
0010
0100
0010
1000
0010
0100
0010
1000
0010
0001
0010
0100
0010
0001
0010
0100
,  // measure 44
1000
0000
1000
0001
1000
0000
0110
0000
0000
0000
0001
0000
0000
0000
1100
0000
,  // measure 45
0000
0000
0001
0100
0001
0000
0101
0000
1000
0000
0100
0000
0011
0000
0000
0000
,  // measure 46
1000
0010
1000
0000
0001
0000
0100
0010
0000
0100
1000
0000
0100
0000
0001
0000
,  // measure 47
0010
0100
0010
0100
1000
0010
1000
0010
0100
0001
0100
0001
0010
1000
0010
1000
,  // measure 48
0010
0001
0000
0001
0100
0000
0010
1000
0000
0100
1000
0000
0001
0000
0001
0000
,  // measure 49
0100
0010
0100
0010
0100
0000
0001
0000
1001
0000
0000
0000
0000
0000
0100
0010
,  // measure 50
0200
0000
0300
0000
0000
0000
0001
0010
0002
0000
0003
0000
0110
0000
0000
0000
,  // measure 51
1000
0100
1000
0100
0010
0000
0001
0000
0202
0000
0000
0000
0303
0000
0000
0000
,  // measure 52
0000
1000
1000
0000
0110
0001
0100
0000
,  // measure 53
0010
0001
0010
0001
0020
0000
0030
0000
0000
0000
0100
1000
0100
0000
1000
0001
,  // measure 54
0020
0000
0000
0030
0000
0000
0000
0000
0110
0000
0000
0000
1000
0000
0001
0010
,  // measure 55
0200
0000
0000
0300
0000
0000
1000
0010
2000
0000
0000
3000
0000
0000
0001
0010
,  // measure 56
0001
0100
0010
1000
1100
0000
0000
0000
,  // measure 57
0010
0000
0100
0001
0000
1000
0010
1000
0100
0000
0001
0100
0000
1000
0010
0100
,  // measure 58
0010
0000
0001
0010
0000
0100
1000
0100
0010
0000
0001
0100
0000
0010
1000
0100
,  // measure 59
1000
0000
0001
0010
0000
0100
0010
0001
0010
0000
0100
1000
0000
0001
0100
0001
,  // measure 60
0010
0000
1000
0010
0000
0001
0100
0001
1000
0000
0100
0010
0000
0001
0010
0100
,  // measure 61
1000
0000
0100
0001
0000
0100
0010
0100
1000
0000
0001
0010
0000
0100
1000
0010
,  // measure 62
1000
0000
0001
0100
0000
1000
0100
1000
0010
0000
1000
0001
0000
0100
0010
0100
,  // measure 63
1000
0000
0100
0001
0000
0010
0100
0010
0001
0000
1000
0010
0000
1000
0100
1000
,  // measure 64
0001
0010
0001
0010
0100
1000
0010
0100
0001
1000
0100
1000
0100
0010
0001
0100
,  // measure 65
2002
0000
0000
0000
,  // measure 66
0000
0000
3003
0000
;

//---------------dance-single - ----------------
#NOTES:
     dance-single:
     :
     Challenge:
     14:
     1.000,1.000,1.000,0.126,1.000,708.000,211.000,14.000,0.000,0.000:  // measure 1
1001
0100
0010
1000
0100
0010
1000
0100
0010
0001
1000
0100
0010
1000
0100
0010
,  // measure 2
1001
0010
0100
0001
0010
0100
0001
0010
0100
1000
0001
0010
0100
0001
0010
0100
,  // measure 3
1001
0100
0010
1000
0100
0010
1000
0100
0010
0001
1000
0100
0010
1000
0100
0010
,  // measure 4
1001
0100
0010
1000
0100
1000
0001
0010
0100
1000
0100
0010
0001
0100
0010
0100
,  // measure 5
2002
0000
0000
3003
,  // measure 6
0110
0000
0000
0000
1010
0000
0000
0010
0001
0010
0100
0010
0000
0000
0000
0010
,  // measure 7
1001
0100
0011
1000
0110
0001
1100
0010
,  // measure 8
1001
0000
0100
0000
1100
0000
0010
0000
1000
0000
0001
0000
1100
0000
0010
0001
,  // measure 9
0010
0100
1001
1100
0110
0011
1001
1010
,  // measure 10
0100
0000
0001
0000
1001
0000
1010
0000
0110
0000
0001
0000
1001
0000
0100
0010
,  // measure 11
0100
1000
0011
0100
0101
0110
1001
0100
,  // measure 12
0110
1001
0100
0011
0010
1100
0101
0011
,  // measure 13
1000
0001
1100
0110
0011
0101
1010
0110
,  // measure 14
1001
0010
0100
1000
0001
0010
0100
1000
1000
0100
0010
0001
1000
0100
0010
0001
,  // measure 15
0011
0000
0110
0000
1100
0000
0001
0010
0100
1000
0001
0000
1100
0000
0010
0000
,  // measure 16
0101
0000
1100
0000
1010
0000
0001
0100
0010
0100
1000
0000
0101
0000
0010
0000
,  // measure 17
1001
0000
1010
0000
0110
0000
0001
0010
0100
1000
0010
0000
1001
0000
0100
0000
,  // measure 18
0011
0000
0101
0000
1010
0000
0100
0010
1000
0100
0001
0000
0011
0000
0100
0000
,  // measure 19
1010
0000
0011
0000
0101
0000
0010
1000
0100
0010
0001
0000
1010
0000
0100
0000
,  // measure 20
0011
0000
1001
0000
0110
0000
1000
0001
0100
0001
0010
0000
0110
0000
1000
0000
,  // measure 21
0011
0000
1100
0000
0110
0000
0001
0100
0010
0001
1000
0000
1100
0000
0010
0000
,  // measure 22
0011
0000
0101
0000
1010
0000
1001
0000
1010
0100
0010
0100
1001
0000
1010
0100
,  // measure 23
1000
0011
0000
1001
0100
0000
0101
0010
1000
0000
0011
0000
0101
0000
1100
0000
,  // measure 24
0010
1001
0000
1001
0100
0000
0110
0001
1000
0000
1100
0000
0110
0000
1001
0000
,  // measure 25
0010
0101
0000
0101
1000
0000
0110
0001
0010
0000
1100
0000
1010
0000
0110
0000
,  // measure 26
0001
1100
0000
1001
0010
0000
0110
1000
0001
0000
1100
0000
0110
0000
0011
0000
,  // measure 27
1000
0100
0010
0001
0100
0000
1001
0010
0100
0000
0011
0000
1100
0000
1001
0000
,  // measure 28
0010
0100
1000
0001
0100
0000
0110
1000
0001
0000
0011
0000
0110
0000
1100
0000
,  // measure 29
0010
0001
0100
0010
1000
0000
1010
0100
0001
0000
0110
0000
1100
0000
0011
0000
,  // measure 30
1000
0100
0010
0001
0100
0000
1001
0100
0010
0000
0101
0000
1100
0000
1010
0000
,  // measure 31
0110
0000
1100
0000
1001
0000
0010
0100
1001
0000
1100
0000
0000
0000
0110
0000
,  // measure 32
0101
0000
0001
1000
1001
0000
1100
0000
0010
0000
0110
0000
0000
0000
1001
0000
,  // measure 33
0001
0000
1100
0010
0100
0000
0011
0000
1010
0000
0101
0000
0110
0000
0000
0000
,  // measure 34
0110
0001
0100
1000
0010
0001
0100
1000
0010
0100
0001
1000
0100
0001
0010
0100
,  // measure 35
1000
0010
0001
0100
1000
0010
0001
0100
1000
0010
0100
0001
1000
0100
0010
1000
,  // measure 36
1001
0000
0010
0100
0101
0000
1001
0000
0100
0000
0110
0000
0000
0000
0110
0000
,  // measure 37
0001
0000
1001
0100
0010
0000
0101
0000
0011
0000
1100
0000
1001
0000
0000
0000
,  // measure 38
0100
0010
0001
0000
1001
0000
0100
0010
0001
0100
0010
0000
1001
0000
0100
0000
,  // measure 39
0110
0001
1000
0001
0010
0100
1000
0010
1001
0100
0010
0100
0001
0010
0100
1000
,  // measure 40
1100
0000
0100
0010
1001
0000
1100
0000
0001
0000
0011
0000
0000
0000
1100
0000
,  // measure 41
0010
0000
1001
0010
0100
0000
1100
0000
1001
0000
0011
0000
0110
0000
0000
0000
,  // measure 42
1001
0100
0001
1000
0100
0001
0010
0100
1000
0001
0010
1000
0001
0010
0100
0001
,  // measure 43
0110
1000
0010
0100
0001
1000
0100
0001
0010
0100
0001
0010
0100
1000
0001
0100
,  // measure 44
1001
0000
1000
0001
1010
0000
0110
0000
0001
0000
1100
0000
0000
0000
1010
0000
,  // measure 45
0100
0000
0011
1000
0001
0000
0101
0000
1010
0000
1100
0000
0011
0000
0000
0000
,  // measure 46
1000
0100
0010
0000
1001
0000
0100
0010
0001
0100
1000
0000
0110
0000
0001
0000
,  // measure 47
1001
0100
0010
0001
1000
0100
0010
0001
1001
0010
0100
1000
0001
0010
0100
1000
,  // measure 48
0110
0001
0000
1100
0010
0000
1001
0010
0000
0101
1000
0000
0110
0000
1001
0000
,  // measure 49
0100
0010
0001
0100
1000
0000
0011
0000
1001
0000
0000
0000
0010
0000
0100
0010
,  // measure 50
1001
0000
0000
0000
0100
0000
0001
0010
1100
0000
0000
0000
0110
0000
0000
0000
,  // measure 51
1000
0100
0001
0100
0010
0000
1001
0000
0202
0000
0303
0000
0000
0000
0110
0000
,  // measure 52
0000
1010
1100
0000
0110
0001
0100
1001
,  // measure 53
0010
0001
0010
0002
0100
0000
0013
0000
1001
0000
0100
0010
0001
0000
1000
0001
,  // measure 54
0020
0000
0100
0030
1001
0000
0000
0000
0110
0000
0000
0000
1001
0000
0001
0010
,  // measure 55
0200
0000
1000
0000
0301
0000
1000
0010
2100
0000
0001
0000
3100
0000
0001
0010
,  // measure 56
1002
0100
0013
1000
1100
0010
0001
0100
,  // measure 57
1001
0100
0010
0001
0010
0100
1000
0001
0110
0001
0100
0010
1000
0100
0001
0010
,  // measure 58
0100
1000
0001
0100
0010
0001
0010
0100
1001
0010
0100
0001
0100
0010
0001
1000
,  // measure 59
0100
0010
1000
0001
0010
0100
0001
1000
0110
0001
0100
0010
1000
0001
0010
0100
,  // measure 60
1000
0001
0100
0010
0001
0100
0010
0100
1001
0010
0100
0001
1000
0100
0010
0001
,  // measure 61
2001
0010
0100
0001
3100
0010
0001
0100
1001
0010
0100
0010
0001
0100
0010
1000
,  // measure 62
0120
0001
0100
0001
1030
0100
0010
0001
0100
0010
0100
1000
0001
0100
0010
0100
,  // measure 63
2001
0100
0001
0010
3100
0001
0100
1000
0101
0010
1000
0010
0100
0001
0010
0100
,  // measure 64
1001
0010
0100
0001
0010
0100
1000
0100
0011
1000
0100
0001
0100
0010
0001
0100
,  // measure 65
2002
0000
0000
0000
,  // measure 66
0000
0000
3003
0000
;

//---------------dance-double - ----------------
#NOTES:
     dance-double:
     :
     Hard:
     11:
     0.845,0.886,0.343,0.108,0.897,606.000,38.000,12.000,0.000,0.000:  // measure 1
10000000
00100000
00000000
01000000
00010000
00000000
01000000
00100000
00000000
00010000
00001000
00000000
00000100
00000010
00000100
00000010
,  // measure 2
00000001
00000100
00000000
00001000
00000100
00000000
00000010
00001000
00000000
00010000
01000000
00000000
00100000
10000000
00100000
10000000
,  // measure 3
01000000
00010000
00000000
00010000
00001000
00000000
00000100
00000010
00000000
00000001
00000100
00000000
00001000
00010000
00001000
00010000
,  // measure 4
00100000
01000000
10000000
00100000
10000000
00010000
01000000
00100000
10000000
01000000
00100000
00010000
00001000
00000100
00000010
00000001
,  // measure 5
00002002
00000000
00000000
00000000
00000000
00003003
00000000
00000000
,  // measure 6
00100000
00100000
00100000
00100000
,  // measure 7
01001000
00000000
10010000
01000000
00100000
00000000
00011000
00000100
,  // measure 8
00010000
00000000
00000000
00000000
00000011
00000000
00000100
00000000
00001000
00000000
00000000
00000000
00010000
00000000
00100000
01000000
,  // measure 9
00100000
00000000
10010000
01000000
00100000
00010000
00000100
00000010
,  // measure 10
00000001
00000000
00000000
00000000
00000110
00000000
00001000
00000000
00010000
00000000
00000000
00000000
10010000
00000000
01000000
00100000
,  // measure 11
01000000
00000000
00110000
00001000
01000000
00100000
00010000
00001000
,  // measure 12
00000100
00000010
00000001
00000100
00001000
00010000
01010000
00000000
,  // measure 13
00100000
00000000
11000000
00010000
01000000
00100000
00001000
00010000
,  // measure 14
00000000
00000100
00000000
00000100
00000000
00000100
00000000
00000100
,  // measure 15
00010000
00000000
00000010
00000000
00000010
00000000
00001000
00000100
00000000
00001000
00000001
00000000
00000100
00000000
00001000
00000000
,  // measure 16
00010000
00000000
00100000
00000000
00100000
00000000
01000000
10000000
00000000
01000000
00010000
00000000
00001000
00000000
00000100
00000000
,  // measure 17
00000010
00000000
00000001
00000000
00000001
00000000
00000100
00000010
00000000
00000100
00001000
00000000
00010000
00000000
01000000
00000000
,  // measure 18
00100000
00000000
10000000
00000000
10000000
00000000
01000000
00100000
00000000
00010000
00001000
00000000
00000010
00000000
00000001
00000000
,  // measure 19
00000100
00000000
00001000
00000000
00001000
00000000
00010000
00100000
00000000
01000000
00100000
00000000
00010000
00000000
00001000
00000000
,  // measure 20
00000100
00000000
00000010
00000000
00000010
00000000
00000001
00000100
00000000
00001000
00000100
00000000
00000010
00000000
00010000
00000000
,  // measure 21
00001000
00000000
01000000
00000000
01000000
00000000
00100000
00010000
00000000
00100000
10000000
00000000
01000000
00000000
00100000
00000000
,  // measure 22
00010000
00000000
00001000
00000000
00000100
00000000
00000010
00000000
00000001
00000100
00000001
00000100
00000001
00000000
00001000
00000100
,  // measure 23
00010000
00001000
00000000
00010000
01000000
00000000
01000000
00100000
00010000
00000000
00001000
00000000
00001000
00000000
00000100
00000000
,  // measure 24
00100000
00010000
00000000
01000000
00100000
00000000
10000000
00010000
10000000
00000000
01000000
00000000
00100000
00000000
00010000
00000000
,  // measure 25
00001000
00000100
00000000
00000100
00000010
00000000
00000001
00001000
00000001
00000000
00000100
00000000
00001000
00000000
00010000
00000000
,  // measure 26
00100000
01000000
00000000
01000000
10000000
00000000
00100000
00010000
00001000
00000000
00000100
00000000
00000010
00000000
00000010
00000000
,  // measure 27
00000100
00001000
00000000
00010000
01000000
00000000
10000000
01000000
00100000
00000000
00010000
00000000
00001000
00000000
00001000
00000000
,  // measure 28
00000100
00000010
00000000
00000001
00000010
00000000
00000100
00001000
00010000
00000000
00100000
00000000
00100000
00000000
01000000
00000000
,  // measure 29
10000000
00010000
00000000
00010000
00100000
00000000
01000000
00100000
00010000
00000000
00001000
00000000
00001000
00000000
00000010
00000000
,  // measure 30
00000001
00000100
00000000
00000001
00000010
00000000
00000100
00001000
00010000
00000000
00100000
00000000
01000000
00000000
01000000
00000000
,  // measure 31
10010000
00000000
00100000
00000000
00001000
00000000
00010000
00100000
01000000
00000000
11000000
00000000
00000000
00000000
10010000
00000000
,  // measure 32
01010000
00000000
00001000
00100000
00001000
00000000
00100000
00000000
00000000
00000000
00010000
00000000
00000000
00000000
00001100
00000000
,  // measure 33
00000000
00000000
00000010
00000001
00000010
00000000
00000110
00000000
00000100
00000000
00001000
00000000
00110000
00000000
00000000
00000000
,  // measure 34
00010000
00001000
00010000
00000100
00010000
00001000
00010000
00000100
00010000
00001000
00010000
00000100
00010000
00001000
00010000
00000100
,  // measure 35
00100000
00010000
00100000
00001000
00100000
00010000
00100000
00001000
00100000
00010000
00100000
00001000
00100000
00010000
00100000
00001000
,  // measure 36
00100000
00000000
00010000
01000000
00010000
00000000
00011000
00000000
00000000
00000000
00001100
00000000
00000000
00000000
00000011
00000000
,  // measure 37
00000000
00000000
00000100
00001000
00010000
00000000
00110000
00000000
00100000
00000000
01000000
00000000
10010000
00000000
00000000
00000000
,  // measure 38
01000000
00100000
01000000
00000000
00001000
00000000
00100000
01000000
00000000
01000000
10000000
00000000
00100000
00000000
00010000
00000000
,  // measure 39
00001000
00000010
00001000
00000010
00001000
00000010
00001000
00000010
00000001
00000100
00000001
00000100
00000001
00001000
00000001
00001000
,  // measure 40
00000100
00000000
00010000
00001000
00010000
00000000
00110000
00000000
00000000
00000000
01000000
00000000
00000000
00000000
10010000
00000000
,  // measure 41
00000000
00000000
01000000
00100000
01000000
00000000
00011000
00000000
00001000
00000000
00100000
00000000
00110000
00000000
00000000
00000000
,  // measure 42
01000000
00001000
01000000
00010000
01000000
00001000
01000000
00010000
01000000
00001000
01000000
00010000
01000000
00001000
01000000
00010000
,  // measure 43
00001000
00100000
00001000
00010000
00001000
00100000
00001000
00010000
00001000
00100000
00001000
00010000
00001000
00100000
00001000
00010000
,  // measure 44
00100000
00000000
00100000
01000000
10000000
00000000
11000000
00000000
00000000
00000000
00010000
00000000
00000000
00000000
00011000
00000000
,  // measure 45
00000000
00000000
00000100
00000010
00000100
00000000
00001100
00000000
00010000
00000000
01000000
00000000
01100000
00000000
00000000
00000000
,  // measure 46
10000000
00100000
10000000
00000000
00010000
00000000
01000000
00100000
00000000
00010000
00001000
00000000
00000010
00000000
00000001
00000000
,  // measure 47
00000100
00000010
00000100
00000010
00010000
00001000
00010000
00001000
00100000
00010000
00100000
00010000
01000000
00100000
01000000
00100000
,  // measure 48
10000000
00010000
00000000
01000000
00001000
00000000
00010000
00000100
00000000
00000010
00000001
00000000
00000100
00000000
00000100
00000000
,  // measure 49
00001000
00010000
00001000
00010000
01000000
00000000
00100000
00000000
10010000
00000000
00000000
00000000
00000000
00000000
01000000
00100000
,  // measure 50
02000000
00000000
03000000
00000000
00000000
00000000
00001000
00100000
00002000
00000000
00003000
00000000
00010100
00000000
00000000
00000000
,  // measure 51
00000010
00000100
00000010
00000100
00000001
00000000
00010000
00000000
00022000
00000000
00000000
00000000
00033000
00000000
00000000
00000000
,  // measure 52
00000000
10000000
10000000
00000000
00110000
01000000
00010000
00000000
,  // measure 53
00100000
00010000
00100000
00010000
00002000
00000000
00003000
00000000
00000000
00000000
00000100
00000010
00000001
00000000
00000001
00001000
,  // measure 54
00000200
00000000
00000000
00000000
00000300
00000000
00000000
00000000
00011000
00000000
00000000
00000000
10000000
00000000
00010000
00100000
,  // measure 55
02000000
00000000
00000000
00000000
03000000
00000000
00100000
00010000
00002000
00000000
00000000
00000000
00003000
00000000
00000100
00000010
,  // measure 56
00000100
00000010
00000001
00001000
00001010
00000000
00000000
00000000
,  // measure 57
00000100
00000000
00001000
00010000
00000000
00100000
01000000
10000000
01000000
00000000
00100000
00010000
00000000
00001000
00000100
00001000
,  // measure 58
00000100
00000000
00000010
00000001
00000000
00000100
00001000
00000100
00000010
00000000
00010000
00001000
00000000
00100000
00010000
01000000
,  // measure 59
00010000
00000000
10000000
00100000
00000000
01000000
00001000
00010000
00000100
00000000
00010000
00000010
00000000
00010000
00001000
00010000
,  // measure 60
00000100
00000000
00000010
00000001
00000000
00000010
00000100
00001000
00000100
00000000
00010000
00001000
00000000
00100000
01000000
10000000
,  // measure 61
01000000
00000000
00100000
00010000
00000000
00010000
00001000
00000100
00000010
00000000
00000001
00000100
00000000
00000010
00001000
00000100
,  // measure 62
00010000
00000000
00001000
01000000
00000000
10000000
01000000
10000000
00100000
00000000
01000000
00001000
00000000
00100000
00010000
00100000
,  // measure 63
00001000
00000000
01000000
00010000
00000000
00001000
00000100
00001000
00000100
00000000
00000010
00000001
00000000
00001000
00000100
00010000
,  // measure 64
00001000
00100000
00010000
01000000
00100000
10000000
00100000
01000000
00010000
00100000
00001000
00010000
00000100
00001000
00000100
00000010
,  // measure 65
00002002
00000000
00000000
00000000
,  // measure 66
00000000
00000000
00003003
00000000
;

//---------------dance-double - ----------------
#NOTES:
     dance-double:
     :
     Challenge:
     12:
     0.957,0.945,0.694,0.126,1.000,652.000,77.000,14.000,0.000,0.000:  // measure 1
10000000
00100000
10000000
01000000
00010000
00000000
01000000
00100000
00000000
00010000
00001000
00000000
00000100
00000010
00000100
00000010
,  // measure 2
00000001
00000100
00000010
00001000
00000100
00010000
00000100
00001000
00000000
00010000
01000000
00000000
00100000
10000000
00100000
10000000
,  // measure 3
01000000
00010000
01000000
00010000
00001000
00000000
00000100
00000010
00000000
00000001
00000100
00000000
00001000
00010000
00001000
00010000
,  // measure 4
00100000
01000000
10000000
00100000
10000000
00010000
01000000
00100000
10000000
01000000
00100000
00010000
00001000
00000100
00000010
00000001
,  // measure 5
00002002
00000000
00000000
00000000
00000000
00003003
00000000
00000000
,  // measure 6
00110000
00101000
00110000
00101000
,  // measure 7
01001000
00000000
00000000
00000000
10010000
00000000
01000000
00000000
00100000
00010000
00000000
00000000
00011000
00000000
00000100
00000000
,  // measure 8
00010000
00000001
00000000
00000000
00000011
00000000
00000100
00000000
00001000
00000000
00000000
00000000
00010000
00000000
00100000
01000000
,  // measure 9
00100000
00000000
00000000
00000000
10010000
00000000
01000000
00000000
00100000
00000000
00010000
00001000
00000100
00000000
00000010
00000000
,  // measure 10
00000001
00000000
00000000
00000000
00000110
00000000
00001000
00000000
00010000
00000000
00000000
00000000
10010000
00000000
01000000
00100000
,  // measure 11
01000000
00100000
00000000
00000000
00110000
00000000
00001000
00000000
01000000
00000000
00100000
00000000
00010000
00000000
00001000
00000000
,  // measure 12
00000100
00000010
00000001
00000100
00001000
00010000
01010000
00000000
,  // measure 13
00100000
10000000
00000000
00000000
11000000
00000000
00010000
00000000
01000000
00000000
00100000
00000000
00001000
00000000
00011000
00000000
,  // measure 14
00000000
00000000
00000100
00001000
00000000
00000000
00000100
00000010
00000000
00000000
00000100
00001000
00000000
00000000
00000100
00000000
,  // measure 15
00010000
00000000
00000010
00000000
00000110
00000000
00001000
00000100
00000000
00001000
00000001
00000000
00000100
00000000
00001000
00000000
,  // measure 16
00010000
00000000
00100000
00000000
00110000
00000000
01000000
10000000
00000000
01000000
00010000
00000000
00001000
00000000
00000100
00000000
,  // measure 17
00000010
00000000
00000001
00000000
00001001
00000000
00000100
00000010
00000000
00000100
00001000
00000000
00010000
00000000
01000000
00000000
,  // measure 18
00100000
00000000
10000000
00000000
10010000
00000000
01000000
00100000
00000000
00010000
00001000
00000000
00000010
00000000
00000001
00000000
,  // measure 19
00000100
00000000
00001000
00000000
00011000
00000000
00010000
00100000
00000000
01000000
00100000
00000000
00010000
00000000
00001000
00000000
,  // measure 20
00000100
00000000
00000010
00000000
00000011
00000000
00000001
00000100
00000000
00001000
00000100
00000000
00000010
00000000
00010000
00000000
,  // measure 21
00001000
00000000
01000000
00000000
01010000
00000000
00100000
00010000
00000000
00100000
10000000
00000000
01000000
00000000
00100000
00000000
,  // measure 22
00110000
00000000
00001000
00000000
00000100
00000000
00000010
00000000
00000001
00000100
00000001
00000100
00000001
00000000
00001000
00000100
,  // measure 23
00010000
00001000
00100000
00010000
01000000
00000000
01000000
00100000
00010000
00000000
00001000
00010000
00001000
00000000
00000100
00000000
,  // measure 24
00100000
00010000
00000000
01000000
00100000
00000000
10000000
00010000
10000000
00000000
01000000
00000000
00100000
00010000
00001000
00000000
,  // measure 25
00001000
00000100
00001000
00000100
00000010
00000000
00000001
00001000
00000001
00000000
00000100
00000000
00001000
00010000
00001000
00000000
,  // measure 26
00100000
01000000
00100000
01000000
10000000
00000000
00100000
00010000
00001000
00000000
00000100
00000000
00000010
00000001
00000010
00000000
,  // measure 27
00000100
00001000
00000000
00010000
01000000
00000000
10000000
01000000
00100000
00000000
00010000
00000000
00001000
00010000
00001000
00000000
,  // measure 28
00000100
00000010
00000000
00000001
00000010
00000000
00000100
00001000
00010000
00000000
00100000
00010000
00100000
00000000
01000000
00000000
,  // measure 29
10000000
00010000
10000000
00010000
00100000
00000000
01000000
00100000
00010000
00000000
00001000
00010000
00001000
00000000
00000010
00000000
,  // measure 30
00000001
00000100
00000000
00000001
00000010
00000000
00000100
00001000
00010000
00000000
00100000
00000000
01000000
00100000
01000000
00000000
,  // measure 31
10010000
00000000
00100000
00000000
00001000
00000000
00010000
00100000
01000000
00000000
11000000
00000000
00000000
00000000
10010000
00000000
,  // measure 32
01010000
00000000
00001000
00100000
00001000
00000000
00110000
00000000
00000000
00000000
01010000
00000000
00000000
00000000
00001100
00000000
,  // measure 33
00000000
00000000
00000010
00000001
00000010
00000000
00000110
00000000
00001100
00000000
00011000
00000000
00110000
00000000
00000000
00000000
,  // measure 34
00010000
00001000
00010000
00000100
00010000
00001000
00010000
00000100
00010000
00001000
00010000
00000100
00010000
00001000
00010000
00000100
,  // measure 35
00100000
00010000
00100000
00001000
00100000
00010000
00100000
00001000
00100000
00010000
00100000
00001000
00100000
00010000
00100000
00001000
,  // measure 36
00100000
00000000
00010000
01000000
00010000
00000000
00011000
00000000
00000000
00000000
00001100
00000000
00000000
00000000
00000011
00000000
,  // measure 37
00000000
00000000
00000100
00001000
00010000
00000000
00110000
00000000
01100000
00000000
11000000
00000000
10010000
00000000
00000000
00000000
,  // measure 38
01000000
00100000
01000000
00000000
00001000
00000000
00100000
01000000
10000000
01000000
10000000
00000000
00100000
00010000
00001000
00000010
,  // measure 39
00001000
00000010
00001000
00000010
00001000
00000010
00001000
00000010
00000001
00000100
00000001
00000100
00000001
00001000
00000001
00001000
,  // measure 40
00000100
00000000
00010000
00001000
00010000
00000000
00110000
00000000
00000000
00000000
01100000
00000000
00000000
00000000
10010000
00000000
,  // measure 41
00000000
00000000
01000000
00100000
01000000
00000000
00011000
00000000
00010100
00000000
00101000
00000000
00110000
00000000
00000000
00000000
,  // measure 42
01000000
00001000
01000000
00010000
01000000
00001000
01000000
00010000
01000000
00001000
01000000
00010000
01000000
00001000
01000000
00010000
,  // measure 43
00001000
00100000
00001000
00010000
00001000
00100000
00001000
00010000
00001000
00100000
00001000
00010000
00001000
00100000
00001000
00010000
,  // measure 44
00100000
00000000
00100000
01000000
10000000
00000000
11000000
00000000
00000000
00000000
00110000
00000000
00000000
00000000
00011000
00000000
,  // measure 45
00000000
00000000
00000100
00000010
00000100
00000000
00001100
00000000
00011000
00000000
01010000
00000000
01100000
00000000
00000000
00000000
,  // measure 46
10000000
00100000
10000000
00000000
10010000
00000000
01000000
00100000
00001000
00010000
00001000
00000000
00000100
00000010
00000001
00000000
,  // measure 47
00000101
00000010
00000100
00000010
00010000
00001000
00010000
00001000
00100000
00010000
00100000
00010000
01000000
00100000
01000000
00100000
,  // measure 48
10000000
00010000
00000000
01000000
00001000
00000000
00010000
00000100
00001000
00000010
00000001
00000000
00000101
00000000
00000110
00000000
,  // measure 49
00001100
00010000
00001000
00010000
01000000
00000000
01100000
00000000
10010000
00000000
00000000
00000000
00100000
00000000
01000000
00100000
,  // measure 50
02000000
00000000
00000000
00000000
03010000
00000000
00001000
00100000
00002000
00000000
00003000
00000000
00010100
00000000
00000000
00000000
,  // measure 51
00000010
00000100
00000010
00000100
00000001
00000000
00010001
00000000
00022000
00000000
00000000
00000000
00033000
00000000
00000000
00000000
,  // measure 52
00000000
10100000
11000000
00000000
00110000
01000000
20020000
30030000
,  // measure 53
00100000
00010000
00100000
00010000
00002000
00000000
00000000
00000000
00003100
00000000
00000100
00000010
00000001
00000000
00000001
00001000
,  // measure 54
00000200
00000000
00000000
00000000
00010300
00000000
00001000
00000000
00011000
00000000
00000000
00000000
10010000
00000000
00010000
00100000
,  // measure 55
02000000
00000000
00000000
00000000
03100000
00000000
00100000
00010000
00002000
00000000
00000000
00000000
00003100
00000000
00000100
00000010
,  // measure 56
00000100
00000010
00000001
00001100
00001010
00000000
00000110
00000000
,  // measure 57
00000110
00000000
00001000
00010000
00001000
00100000
01000000
10000000
01000000
00000000
00100000
00010000
00000000
00001000
00000100
00001000
,  // measure 58
00000100
00000000
00000010
00000001
00000000
00000100
00001000
00000100
00000010
00000000
00010000
00001000
01000000
00100000
00010000
01000000
,  // measure 59
00010000
00000000
10000000
00100000
01000000
00010000
00001000
00010000
00000100
00000000
00010000
00000010
00000000
00010000
00001000
00010000
,  // measure 60
00000100
00000000
00000010
00000001
00000100
00000010
00000100
00001000
00000100
00001000
00010000
00001000
00000000
00100000
01000000
10000000
,  // measure 61
01000000
00000000
00100000
00010000
00100000
00010000
00001000
00000100
00000010
00000000
00000001
00000100
00000000
00000010
00001000
00000100
,  // measure 62
00010000
00001000
00100000
01000000
00000000
10000000
01000000
10000000
00100000
00000000
01000000
00001000
00000000
00100000
00010000
00100000
,  // measure 63
00001000
10000000
01000000
00010000
00000000
00001000
00000100
00001000
00000100
00000000
00000010
00000001
00000000
00001000
00000100
00010000
,  // measure 64
00001000
00100000
00010000
01000000
00100000
10000000
00100000
01000000
00010000
00100000
00001000
00010000
00000100
00001000
00000100
00000010
,  // measure 65
00002002
00000000
00000000
00000000
,  // measure 66
00000000
00000000
00003003
00000000
;

//---------------dance-single - ----------------
#NOTES:
     dance-single:
     :
     Medium:
     8:
     0.601,0.620,0.189,0.081,0.401,437.000,21.000,9.000,0.000,0.000:  // measure 1
1000
0010
1000
0100
0010
0001
0100
1000
,  // measure 2
0100
0001
0010
0100
1000
0010
0100
0001
,  // measure 3
1000
0100
0010
1000
0010
0001
0100
0010
,  // measure 4
1000
0100
0000
1000
0001
0000
0010
0100
0000
0010
0001
0000
0100
0010
0100
0000
,  // measure 5
2002
0000
3003
0000
,  // measure 6
0010
0010
0010
0010
,  // measure 7
1000
0100
1100
0000
0001
0000
0110
0000
,  // measure 8
1000
0100
0001
0100
1000
0000
0110
0000
,  // measure 9
0001
0000
0100
0000
0010
0001
0011
0000
,  // measure 10
1000
0100
0001
0100
0010
0000
1001
0000
,  // measure 11
0100
1000
0100
0001
0010
0100
1001
0000
,  // measure 12
0010
0000
0100
0000
0001
1000
1001
0000
,  // measure 13
0100
0010
0001
0010
0100
0000
1001
0000
,  // measure 14
0000
0001
0000
0001
0000
0001
0000
0001
,  // measure 15
0010
0000
0100
0000
0010
0000
0100
0000
0000
0100
0000
0000
0001
0000
1000
0000
,  // measure 16
0100
0000
0010
0000
0001
0000
0100
0000
0000
0100
0000
0000
0010
0000
1000
0000
,  // measure 17
0001
0000
0010
0000
0100
0000
1000
0000
0000
1000
0000
0000
0010
0000
0100
0000
,  // measure 18
0001
0000
1000
0000
0100
0000
0010
0000
0000
0010
0000
0000
0001
0000
0100
0000
,  // measure 19
0010
0000
1000
0000
0001
0000
0010
0000
0000
0010
0000
0000
0100
0000
1000
0000
,  // measure 20
0010
0000
0100
0000
0001
0000
1000
0000
0000
1000
0000
0000
0100
0000
0010
0000
,  // measure 21
0001
0000
0100
0000
0010
0000
1000
0000
0000
1000
0000
0000
0100
0000
0010
0000
,  // measure 22
0001
0000
1000
0000
0001
0000
1000
0000
0010
0100
0010
0100
0010
0000
1000
0100
,  // measure 23
1000
0000
0000
1000
0000
0000
0010
0000
0100
0000
0001
0000
0001
0000
0001
0000
,  // measure 24
0010
0000
0000
0010
0000
0000
0100
0000
1000
0000
0001
0000
0010
0000
0010
0000
,  // measure 25
0100
0000
0000
0100
0000
0000
1000
0000
0010
0000
0100
0000
0001
0000
0001
0000
,  // measure 26
0010
0000
0000
0010
0000
0000
0100
0000
1000
0000
0010
0000
0010
0000
0010
0000
,  // measure 27
0100
0000
0000
0100
0000
0000
0001
0000
1000
0000
0010
0000
0010
0000
0010
0000
,  // measure 28
0100
0000
0000
0100
0000
0000
0001
0000
0010
0000
0100
0000
1000
0000
1000
0000
,  // measure 29
0100
0000
0000
0100
0000
0000
0010
0000
0001
0000
1000
0000
1000
0000
1000
0000
,  // measure 30
0010
0000
0000
0010
0000
0000
0100
0000
0001
0000
1000
0000
0100
0000
0100
0000
,  // measure 31
1001
0000
0010
0000
0100
0000
1000
0100
1000
0000
1001
0000
0000
0000
0110
0000
,  // measure 32
0100
0000
0001
1000
0001
0000
0010
0000
0000
0000
0100
0000
0000
0000
1000
0000
,  // measure 33
0000
0000
0100
0010
0100
0000
0010
0000
1000
0000
0001
0000
0001
0000
0000
0000
,  // measure 34
0100
0010
0000
0100
0010
0000
1000
0001
0000
1000
0001
0000
0010
0100
0000
0010
,  // measure 35
0100
0000
1000
0001
0000
1000
0001
0000
0100
0010
0000
0100
0010
0000
1000
0000
,  // measure 36
0100
0000
0010
0001
0010
0000
0001
0000
0000
0000
1000
0000
0000
0000
0010
0000
,  // measure 37
0000
0000
0100
0001
0100
0000
0001
0000
0010
0000
0100
0000
1000
0000
0000
0000
,  // measure 38
0001
0110
1000
0110
,  // measure 39
1000
0100
0000
1000
0001
0000
1000
0010
0000
1000
0100
0000
0010
0000
0001
0000
,  // measure 40
0100
0000
0010
0100
0010
0000
1000
0000
0000
0000
0100
0000
0000
0000
0010
0000
,  // measure 41
0000
0000
0001
0010
0001
0000
0100
0000
0010
0000
1000
0000
0100
0000
0000
0000
,  // measure 42
0010
0001
0000
0010
0100
0000
1000
0001
0000
1000
0100
0000
0010
0001
0000
0010
,  // measure 43
0001
0000
0100
0010
0000
0100
0010
0000
1000
0100
0000
1000
0001
0000
0010
0000
,  // measure 44
0100
0000
1000
0001
1000
0000
0100
0000
0000
0000
0010
0000
0000
0000
0001
0000
,  // measure 45
0000
0000
0100
0010
0100
0000
0001
0000
1000
0000
0100
0000
0010
0000
0000
0000
,  // measure 46
1000
0110
0001
1001
,  // measure 47
0100
0010
0000
0000
0010
1000
0000
0000
1000
0001
0000
0000
0001
0100
0000
0000
,  // measure 48
0010
0000
0000
0010
0000
0000
1000
0000
0000
1000
0000
0000
0001
0000
0010
0000
,  // measure 49
0100
0010
0100
0020
0000
0000
0030
0000
0000
0000
0000
0000
0000
0000
1000
0010
,  // measure 50
1000
0000
0000
0000
0000
0000
0001
0010
0001
0000
0000
0000
0110
0000
0000
0000
,  // measure 51
1000
0100
1000
0100
2000
0000
0000
0000
3000
0000
0000
0000
0001
0000
0000
0000
,  // measure 52
0000
1000
1000
0000
0110
0000
0000
0000
,  // measure 53
0010
0001
0010
0002
0000
0000
0003
0000
0000
0000
0100
1000
0100
0000
1000
0001
,  // measure 54
2000
0000
0000
0000
3000
0000
0000
0000
0110
0000
0000
0000
0001
0000
0100
0010
,  // measure 55
0100
0000
0000
0000
0000
0000
1000
0001
1000
0000
0000
0000
0000
0000
0001
0010
,  // measure 56
0002
0003
1100
0000
,  // measure 57
0010
0000
0000
0010
0000
0000
0100
0000
0001
0000
0000
0001
0000
0000
1000
0000
,  // measure 58
1000
0000
0000
0100
0000
0000
0100
0000
0010
0000
0000
0001
0000
0000
0001
0000
,  // measure 59
0100
0000
0000
0010
0000
0000
0010
0000
1000
0000
0000
1000
0000
0000
0001
0000
,  // measure 60
0010
0000
0000
0100
0000
0000
0100
0000
1000
0000
0000
0010
0000
0000
0100
0000
,  // measure 61
0001
0000
1000
0001
0000
0000
0100
0000
0010
0000
1000
0100
0000
0000
1000
0000
,  // measure 62
0001
0000
0010
0100
0000
0000
0010
0000
0100
0000
1000
0001
0000
0000
1000
0000
,  // measure 63
0001
0000
0100
0010
0000
0000
0100
0000
0010
0000
1000
0100
0000
0000
1000
0000
,  // measure 64
0010
0100
0001
0010
0100
1000
0010
0100
,  // measure 65
2002
0000
0000
0000
,  // measure 66
0000
0000
3003
0000
;

//---------------dance-single - ----------------
#NOTES:
     dance-single:
     :
     Easy:
     5:
     0.475,0.502,0.216,0.081,0.153,336.000,24.000,9.000,0.000,0.000:  // measure 1
0010
0010
0100
0001
,  // measure 2
1000
0100
0010
0001
,  // measure 3
0001
0010
0100
1000
,  // measure 4
0010
0000
0000
0010
0000
0000
0100
0000
0000
0100
0000
0000
0001
0000
0010
0000
,  // measure 5
2200
0000
3300
0000
,  // measure 6
0010
0010
0010
0010
,  // measure 7
0100
1001
0010
1100
,  // measure 8
0001
0010
0100
1000
,  // measure 9
0010
1001
0100
0110
,  // measure 10
0001
1000
0100
0010
,  // measure 11
0001
0110
1000
1100
,  // measure 12
0010
0001
0100
0010
,  // measure 13
1000
0110
0001
0101
,  // measure 14
0000
0001
0000
0001
0000
0001
0000
0001
,  // measure 15
0010
0100
0010
0000
1000
0000
0100
0001
,  // measure 16
0010
0001
0010
0000
0100
0000
1000
0100
,  // measure 17
0010
0001
0010
0000
0100
0000
1000
0100
,  // measure 18
0001
0100
1000
0000
0010
0000
0100
0001
,  // measure 19
0010
0001
0010
0000
0100
0000
1000
0100
,  // measure 20
0010
0001
0010
0000
0100
0000
1000
0010
,  // measure 21
0001
0010
1000
0000
0100
0000
0010
0001
,  // measure 22
0010
0000
0100
0000
1000
0000
0100
0000
0010
0001
0010
0001
0010
0000
0001
0000
,  // measure 23
0100
0000
0000
0100
0000
0000
0010
0000
0000
0000
1000
0000
1000
0000
0000
0000
,  // measure 24
0010
0000
0000
0010
0000
0000
0100
0000
0000
0000
0001
0000
1000
0000
0000
0000
,  // measure 25
0010
0000
0000
0010
0000
0000
0001
0000
0000
0000
0100
0000
0100
0000
0000
0000
,  // measure 26
1000
0000
0000
1000
0000
0000
0100
0000
0000
0000
0010
0000
0001
0000
0000
0000
,  // measure 27
0010
0000
0000
0010
0000
0000
0100
0000
0000
0000
1000
0000
0001
0000
0000
0000
,  // measure 28
0010
0000
0000
0100
0000
0000
0010
0000
0000
0000
1000
0000
0001
0000
0000
0000
,  // measure 29
0010
0000
0000
0100
0000
0000
1000
0000
0000
0000
0001
0000
0100
0000
0000
0000
,  // measure 30
0010
0000
0000
0010
0000
0000
1000
0000
0000
0000
0001
0000
0100
0000
0000
0000
,  // measure 31
0011
0001
0100
0010
1000
1001
0000
0000
,  // measure 32
0100
0001
1000
0100
0000
0010
0000
0001
,  // measure 33
0000
0010
0100
0010
0001
1000
0001
0000
,  // measure 34
0100
0010
0000
0000
0010
1000
0000
0000
1000
0001
0000
0000
0001
0100
0000
0000
,  // measure 35
0100
0010
0000
0000
0010
1000
0000
0000
1000
0100
0000
0000
0100
0010
0000
0000
,  // measure 36
0010
0001
0010
0100
0000
1000
0000
0010
,  // measure 37
0000
0100
0001
0100
0010
1000
0100
0000
,  // measure 38
0010
1001
0100
1001
,  // measure 39
0010
0100
0010
0100
0001
1000
0001
1000
,  // measure 40
0010
0100
0001
0001
0000
0010
0000
0100
,  // measure 41
0000
1000
0100
1000
0001
0100
0001
0000
,  // measure 42
0010
0100
0000
0000
0100
1000
0000
0000
1000
0001
0000
0000
0001
0100
0000
0000
,  // measure 43
0100
0010
0000
0000
0010
1000
0000
0000
1000
0100
0000
0000
0100
0010
0000
0000
,  // measure 44
0010
0001
0100
0010
0000
1000
0000
0100
,  // measure 45
0000
0010
0001
0001
1000
0100
0010
0000
,  // measure 46
0001
0110
1000
0110
,  // measure 47
0001
0010
0001
0010
0100
1000
0100
1000
,  // measure 48
0020
0000
0000
0030
,  // measure 49
0100
0000
0100
0000
1001
0000
0000
0010
,  // measure 50
0010
0000
0100
0000
1001
0000
0000
0100
,  // measure 51
0010
0000
0001
0000
0101
0000
0000
0010
,  // measure 52
1000
0000
0100
0000
0110
0000
0000
1000
,  // measure 53
0001
0000
0010
0000
0110
0000
0000
0100
,  // measure 54
1000
0000
0001
0000
1001
0000
0000
0100
,  // measure 55
0010
0000
0001
0000
0101
0000
0000
0010
,  // measure 56
1000
0100
1100
0000
,  // measure 57
0020
0000
0000
0030
0100
0001
0100
0001
,  // measure 58
2000
0000
0000
3000
0010
0100
0010
0100
,  // measure 59
0002
0000
0000
0003
1000
0010
1000
0010
,  // measure 60
0200
0000
0000
0300
0001
0010
0001
0010
,  // measure 61
0100
0000
0000
0100
0000
0000
0100
0000
1000
0000
0000
1000
0000
0000
1000
0000
,  // measure 62
0010
0000
0000
0010
0000
0000
0100
0000
0001
0000
0000
0001
0000
0000
0010
0000
,  // measure 63
0100
0000
0000
0100
0000
0000
1000
0000
0001
0000
0000
0001
0000
0000
0100
0000
,  // measure 64
0010
1000
0100
0001
0100
1000
0010
0100
,  // measure 65
2002
0000
0000
0000
,  // measure 66
0000
0000
3003
0000
;
