#TITLE:Time Bomb;
#SUBTITLE:Feels The Arrow;
#ARTIST:FitnessGlo;
#TITLETRANSLIT:;
#SUBTITLETRANSLIT:;
#ARTISTTRANSLIT:;
#CREDIT:Ov3rHell3XoduZ;
#BANNER:../bn.png;
#BACKGROUND:../bg.png;
#LYRICSPATH:;
#CDTITLE:;
#MUSIC:music.ogg;
#OFFSET:-1.367;
#SAMPLESTART:42.657;
#SAMPLELENGTH:11.880;
#SELECTABLE:YES;
#BPMS:0.000=165.120,76.000=330.240,78.000=660.480,86.000=165.120,338.000=157.120,340.000=165.120,483.000=154.120,484.000=165.120;
#STOPS:76.000=2.700
;
#BGCHANGES:;
// cache tags:
#FIRSTBEAT:4.000;
#LASTBEAT:508.000;
#SONGFILENAME:Songs/EXoduz' Feels The Arrow/Time Bomb - [Ov3rHell3XoduZ]/Time Bomb.sm;
#HASMUSIC:1;
#HASBANNER:1;
#MUSICLENGTH:191.253;
// end cache tags

//---------------dance-single - Ov3rHell3XoduZ----------------
#NOTES:
     dance-single:
     Ov3rHell3XoduZ:
     Challenge:
     12:
     0.990,1.000,0.141,1.000,0.808,1061.000,27.000,233.000,4.000,5.000:

0000
0000
0000
0000
,
2000
3100
0010
0001
1000
0010
0100
0001
,
2000
3100
0010
0001
0100
0001
0010
0100
,
2000
3001
0100
0001
0010
0001
1000
0100
,
0020
0031
1000
0100
1000
0001
0100
0001
,
2000
3010
0100
0010
1000
0100
0010
0001
,
2000
3001
0100
0001
0010
0001
0100
0001
,
0020
0130
1000
0010
1000
0100
0010
0001
,
2000
3001
0010
0001
1000
0100
0010
0001
,
2000
3100
1000
0010
0100
0001
0010
0001
,
2000
3100
1000
0010
0100
0001
1000
0001
,
0020
0031
0100
0001
0010
0100
1000
0010
,
0200
0310
1000
0100
0010
0001
1000
0001
,
0200
0310
1000
0100
1000
0001
0100
0001
,
2000
3100
0010
0100
1000
0010
0100
0001
,
2000
3100
1000
0010
0100
0001
0010
0001
,
2000
3100
0010
0001
0010
0100
1000
0010
,
0200
0301
1000
0100
1000
0001
0100
0001
,
0020
0130
1000
0010
1000
0100
0010
0001
,
2000
0000
3004
0000
,
0000
0000
0000
0000
,
0000
0000
0000
0000
0000
0000
0000
0000
1003
0100
0010
0001
1000
0001
0100
0001
,
0010
0100
1000
0010
1000
0100
1000
0010
1000
0010
0100
0001
0010
0100
1000
0001
,
0100
0001
1000
0100
1000
0001
0100
0001
1000
0100
0010
0001
1000
0001
0100
0001
,
1000
0010
1000
0010
0100
0001
0010
0100
1000
0001
0100
0001
1000
0100
0010
0001
,
1000
0001
1000
0010
0100
0001
0010
0100
1000
0100
1000
0010
0100
0001
1000
0100
,
1000
0100
0010
0001
1000
0010
0100
0001
0010
0001
0010
0100
1000
0001
0100
0001
,
1000
0010
1000
0010
0100
0001
0010
0100
1000
0010
0100
0001
1000
0100
0010
0001
,
1000
0100
0010
0100
1000
0010
0100
0010
1000
0100
0010
0100
1000
0010
0100
0010
,
1000
0001
0100
0001
0010
0100
1000
0010
0100
0001
1000
0100
1000
0010
0100
0001
,
0010
0100
0010
0001
1000
0010
0100
0001
1000
0100
1000
0010
0100
0001
0010
0100
,
0010
0001
1000
0010
0100
0001
1000
0100
0010
0100
1000
0010
0100
0001
0010
0100
,
0010
0001
1000
0010
0100
0001
1000
0100
1000
0010
0100
0001
0010
0100
0010
0001
,
1000
0010
0100
0001
1000
0100
0010
0100
1000
0010
0100
0001
1000
0100
0010
0001
,
1000
0001
0100
0001
0010
0100
1000
0010
0100
0001
1000
0100
1000
0010
0100
0001
,
1000
0100
0100
0001
1000
0100
0100
0001
,
1000
0010
0010
0001
1000
0010
0010
0001
,
1000
0100
0010
0100
0010
0001
1000
0010
0100
0000
0001
0000
0020
0000
0000
0000
,
0230
0000
0000
0000
1300
0000
0001
0000
2000
0000
0000
0000
3010
0100
0001
1000
,
0200
0000
0310
0001
2000
0000
3100
0010
,
0001
0000
1000
0000
0100
0000
1000
0000
0020
0000
0000
0000
0130
0001
0100
0001
,
0200
0000
0310
1000
0200
0000
0310
0001
,
2000
0000
0000
0000
3100
0000
0010
0000
0002
0000
0000
0000
1003
0010
1000
0010
,
2000
0000
3100
0010
0002
0000
1003
0100
,
2000
3000
0020
0030
0200
0300
0002
0003
2000
3000
0200
0300
2000
3000
0020
0030
,
0220
0330
0000
0000
0100
0000
0001
0000
0020
0000
0000
0000
0130
0000
1000
0000
,
0002
0000
0000
0000
1003
0000
0100
0000
2000
0000
0000
0000
3010
0100
0010
0100
,
0020
0000
1030
0100
0020
0000
0031
1000
,
0002
0000
0000
0000
0103
0000
0010
0000
1000
0100
0010
0001
1000
0100
0010
0001
,
2000
0000
3010
0100
0002
0000
1003
0100
,
0020
0000
0000
0000
0031
0000
1000
0000
0002
0000
0000
0000
1003
0100
1000
0100
,
2000
3000
0000
0000
2200
3300
0000
0000
0220
0330
0000
0000
0022
0033
0000
0000
,
0002
0003
2000
3000
0200
0300
2000
3000
0002
1003
0010
0100
0001
0010
0100
1000
,
1002
0000
0000
0000
0000
0000
0000
0000
1003
0100
0010
0001
0010
0100
1000
0001
,
0200
0320
2030
3200
0320
0000
0032
0000
,
2003
3200
2300
3020
0230
0000
0302
0000
,
0023
0230
2300
3002
2003
0000
3200
0000
,
0320
0000
0000
0030
0011
0001
0200
0000
,
0320
2030
3200
0320
0032
0000
0023
0000
,
0230
2300
3002
2003
3200
0000
0320
0000
,
0032
0203
0302
2003
3200
0320
0230
2300
,
3001
1000
0100
1000
0010
0100
0001
0010
0100
0010
0001
1000
0010
1000
0010
0100
,
0001
1000
0100
1000
0100
0010
0001
1000
0010
1000
0010
0100
0001
0010
0100
1000
,
0001
0100
0001
0100
0010
1000
0100
0010
0001
1000
0010
1000
0010
0100
0001
0010
,
0100
1000
0001
0100
0001
1000
0100
0010
0001
1000
0001
1000
0010
0100
0001
0010
,
0001
0010
0100
1000
0010
0100
0001
1000
0100
0010
0100
1000
0010
0100
0001
0010
,
0001
0010
0100
1000
0010
0100
0001
1000
0100
1000
0100
0010
0001
1000
0010
0100
,
0001
0100
0100
1000
0001
0100
0100
1000
,
0001
0010
0010
1000
0001
0010
0010
1000
,
0002
0000
0000
0000
,
2003
0000
0000
0000
,
3200
0000
0000
0000
,
0320
0000
0000
0000
,
0032
0000
0000
0000
,
2003
0000
0000
0000
,
3200
0000
0000
0000
,
0320
0000
0000
0000
,
0000
0000
0000
0000
,
0032
0000
0000
0000
,
2003
0000
3020
0000
,
0230
0000
0302
0000
,
0000
0000
0023
0000
,
0230
0000
2300
0000
,
3020
0000
0000
0000
,
0000
0000
0000
0000
0230
0302
2003
3200
,
2300
3002
0203
0302
2003
3020
2030
3002
,
0023
0032
2003
3200
2300
3002
0203
0302
,
2003
0000
0000
0000
,
3000
0000
0000
0000
,
2202
3303
0000
0000
0000
0000
0000
0000
2202
3303
0000
0000
0000
0000
0000
0000
,
2202
3303
0000
0000
0000
0000
0000
0000
2202
3303
0000
0000
0000
0000
0000
0000
,
2202
3303
0000
0000
2200
3300
0000
0000
0220
0330
0000
0000
0022
0033
0000
0000
,
0002
0003
2000
3000
0200
0300
0020
0030
0001
0100
0001
0010
0200
0000
0000
0000
,
1300
0100
0010
0001
1000
0010
0100
0001
1000
0001
0010
0001
0010
0100
1000
0010
,
0100
0001
1000
0100
1000
0100
0010
0001
1000
0010
0100
0001
0010
0001
0010
0100
,
1000
0001
0100
0001
1000
0010
0100
0001
0010
0001
0010
0100
1000
0001
0100
0001
,
1000
0100
0010
0001
1000
0010
0100
0001
0010
0100
1000
0001
0100
0001
1000
0100
,
0010
0001
1000
0001
0100
0001
0010
0100
1000
0010
0100
0001
1000
0100
1000
0100
,
0010
0001
1000
0010
0100
0001
0010
0001
0010
0100
1000
0010
0100
0001
1000
0100
,
1000
0100
0010
0001
1000
0010
0100
0001
0010
0001
0010
0100
1000
0001
0100
0001
,
1000
0100
0010
0001
1000
0010
1000
0010
0100
0001
0010
0100
1000
0001
0100
0001
,
1000
0100
0010
0001
1000
0010
0100
0001
1000
0001
0010
0001
1000
0100
0010
0001
,
1000
0010
0100
0001
1000
0001
1000
0100
0010
0001
1000
0010
1000
0010
0100
0001
,
0010
0100
1000
0001
0100
0001
0100
0010
1000
0100
0010
0001
1000
0001
0010
0001
,
1000
0100
0010
0001
1000
0010
0100
0001
1000
0001
1000
0010
0100
0001
0010
0001
,
0010
0100
1000
0010
0100
0001
1000
0100
0010
0001
1000
0010
1000
0010
0100
0001
,
0010
0100
1000
0001
0100
0001
1000
0100
0010
0001
1000
0010
0100
0001
1000
0100
,
0020
0032
2003
0000
3200
0320
0032
0000
,
2003
0000
3100
0010
0002
0000
2003
0000
3100
0010
0001
1000
0010
0100
0001
1000
,
0002
0000
1003
0100
0020
0000
0031
0100
,
0002
0000
0000
0000
1003
0000
0100
0000
0020
0000
0000
0000
0031
1000
0001
1000
,
0002
0000
1003
0010
0200
0000
0301
0010
,
0200
0000
1300
0001
2000
3200
0320
0032
,
2003
0000
0000
0000
3010
0000
0100
0000
0002
0000
0000
0000
0013
0100
0010
0100
,
0020
0000
0031
1000
0200
0000
0310
0001
,
2000
0000
0000
0000
3010
0100
0010
0100
0020
0000
0000
0000
1030
0000
0100
0000
,
0020
0030
0002
0003
2000
3000
0020
0030
0200
0300
0002
0003
2000
3000
0200
0300
,
0020
0000
0031
0100
0002
0000
1003
0100
,
0020
0000
0000
0000
0031
0000
1000
0000
0002
0000
0000
0000
1003
0010
1000
0010
,
2000
0000
3100
0010
0002
0000
1003
0100
,
2000
3000
0200
0300
0020
0030
0002
0003
2000
3000
0020
0030
0200
0300
0002
0003
,
2000
0000
0000
0000
3000
0000
0000
0000
0220
0330
0000
0000
0022
0033
0000
0000
,
0220
0330
0000
0000
0000
0000
0110
0000
2200
3300
0000
0000
0000
0000
1100
0000
,
2020
3030
0000
0000
0000
0000
0000
0000
0220
0330
0000
0000
0000
0000
0000
0000
,
0202
0303
0000
0000
0000
0000
0000
0000
1001
0000
0001
0000
0101
0000
0100
0000
,
0220
0000
0000
0000
,
0000
0000
0000
0330
,
MMMM
0000
0000
0000
;
