#TITLE:Mirage Lullaby;
#SUBTITLE:Shuffle! OP theme;
#ARTIST:YURIA;
#TITLETRANSLIT:;
#SUBTITLETRANSLIT:;
#ARTISTTRANSLIT:;
#CREDIT:ALICE_;
#BANNER:Mirage Lullaby.png;
#BACKGROUND:Mirage Lullaby.jpg;
#LYRICSPATH:;
#CDTITLE:cdtitle.png;
#MUSIC:Mirage Lullaby.mp3;
#OFFSET:0.790;
#SAMPLESTART:80.100;
#SAMPLELENGTH:12.000;
#SELECTABLE:YES;
#BPMS:0.000=135.020;
#STOPS:;
#BGCHANGES:1.750=Mirage Lullaby.avi=1.000=1=0=1,
99999=-nosongbg-=1.000=0=0=0 // don't automatically add -songbackground-
;
// cache tags:
#FIRSTBEAT:8.000;
#LASTBEAT:312.000;
#SONGFILENAME:Songs/alice 4th complete step/Mirage Lullaby/Mirage Lullaby.sm;
#HASMUSIC:1;
#HASBANNER:1;
#MUSICLENGTH:142.428;
// end cache tags

//---------------dance-single - ----------------
#NOTES:
     dance-single:
     :
     Hard:
     8:
     0.564,0.712,0.147,0.140,0.000,521.000,21.000,20.000,0.000,0.000:
0000
0000
0000
0000
,
0000
0000
0000
0000
,
0100
0000
0001
0000
0010
0000
0100
1000
,
0000
0001
0000
0100
0001
0000
1000
0000
,
0010
0000
0010
0000
0010
0000
1000
0001
,
0000
0100
0000
0100
0010
0000
1000
0000
,
0001
0000
0010
0000
0100
0000
0010
0001
,
0000
1000
0000
0010
0100
0000
1000
0000
,
0001
0000
0001
0000
0010
0000
1000
0100
,
0000
0010
0000
0001
1000
0000
0100
0000
,
1002
0000
0010
0000
1003
0000
0010
0100
,
0000
1000
0000
0010
0100
0000
0001
0000
,
2100
0000
0100
0000
3100
0000
0001
0010
,
0000
0100
0000
0100
1000
0000
0001
0000
,
2001
0000
0100
0000
3001
0000
0010
0100
,
0000
0001
0000
0100
0010
0000
0001
0000
,
1001
1000
0100
1000
0010
1000
0100
1000
,
0010
0010
0010
0100
0001
1000
0100
0010
,
1001
0001
0010
0001
0100
0001
0010
0001
,
0100
0001
0010
0001
0100
0001
0010
0100
,
1100
1000
0010
1000
0100
1000
0010
1000
,
0100
1000
0010
1000
0100
0010
0001
0100
,
0101
0001
1000
0001
0100
0001
1000
0001
,
0100
0001
1000
0001
0010
0001
0100
0010
,
1010
1000
0001
1000
0010
1000
0001
1000
,
0010
0000
0000
0000
0200
0300
0000
0000
0002
0003
0000
0000
2000
3000
0000
0000
0200
0300
0000
0000
0020
0030
0000
0000
0002
0003
0000
0000
0020
0030
0000
0000
,
1001
1000
0100
1000
0010
1000
0100
1000
,
0010
1000
0100
1000
0010
0100
0001
0010
,
1001
0001
0100
0001
0010
0001
0100
0001
,
0010
0001
0100
0001
0010
0100
1000
0010
,
1010
1000
0001
1000
0100
1000
0001
1000
,
0100
1000
0001
0100
1000
0100
0001
0010
,
1001
0001
0100
0001
0010
0100
1000
0010
,
0100
0000
0000
0000
0002
0003
0000
0000
2000
3000
0000
0000
0200
0300
0000
0000
0002
0003
0000
0000
0200
0300
0000
0000
2000
3000
0000
0000
0020
0030
0000
0000
,
0100
0001
0100
0001
0010
0001
0010
0100
,
1000
0010
1000
0010
0100
0010
0100
0001
,
1000
0100
1000
0100
0010
0100
0010
0001
,
0100
0010
0100
0010
1000
0010
1000
0100
,
0001
0100
1000
0100
0001
0100
1000
0100
,
0001
0100
1000
0100
0001
0100
1000
0010
,
0100
0001
0010
1000
0010
0001
0100
0010
,
2000
0000
0100
0000
0100
0000
3100
0100
,
1000
0100
0010
0001
1000
0100
0010
0001
,
1000
0010
0100
0001
1000
0100
0001
0100
,
1000
0010
0100
0001
0010
0100
1000
0100
,
0001
0100
0010
0100
1000
0010
0100
0001
,
0001
0100
0010
1000
0001
0100
0010
1000
,
0001
0010
0100
1000
0001
0010
1000
0010
,
0001
0100
0010
0100
1000
0100
0010
1000
,
0001
0010
0100
1000
0010
0100
0001
1000
,
1001
0100
1000
0100
0010
0100
0010
0100
,
1000
0001
0100
0001
0010
0001
0100
0010
,
1000
0001
0100
0001
1000
0010
0100
0001
,
1000
0100
1000
0001
0010
0001
0100
0010
,
1010
0100
0001
1000
0100
0010
0001
0010
,
0100
1000
1001
0001
0100
0010
0100
0001
,
1000
0100
0001
0100
0010
0100
1000
0010
,
0101
0001
0001
1000
0100
1000
0010
0010
,
1001
0100
0010
1000
0100
0010
0001
0000
,
0100
0001
0010
0100
1000
0010
0100
0000
,
0001
1000
0100
1000
0010
0100
0001
1000
,
0001
0010
0100
0010
0001
0100
0010
1000
,
1001
0010
0100
1000
0010
0100
0001
0000
,
0010
1000
0100
0010
0001
0100
0010
0000
,
1000
0100
0001
0100
1000
0010
0100
0001
,
1000
0010
1000
0001
0100
0010
1000
0100
,
0011
0001
1000
0010
0100
0001
1000
0100
,
1000
0010
0100
0001
1000
0100
0001
0100
,
1000
0010
1000
0010
0100
0010
0001
0010
,
1000
0001
0010
0100
1000
0010
0100
0001
,
1001
1000
0001
0100
0010
1000
0001
0010
,
0001
0100
0010
1000
0001
0010
0100
1000
,
0010
0001
0010
0100
0010
1000
0001
0100
,
0001
1000
1000
0010
0100
0001
0010
0100
,
2200
0000
0000
0000
,
0000
0000
0000
0000
,
0000
0000
0000
0000
,
3000
0000
0000
0000
,
0300
0000
0000
0000
;

//---------------dance-single - ----------------
#NOTES:
     dance-single:
     :
     Medium:
     5:
     0.338,0.454,0.154,0.077,0.000,304.000,22.000,11.000,0.000,0.000:
0000
0000
0000
0000
,
0000
0000
0000
0000
,
0000
0000
0000
0000
,
0000
0000
0000
0000
,
0000
0000
0000
0000
,
0000
0000
0000
0000
,
0000
0000
0000
0000
,
0000
0000
0000
0000
,
0000
0000
0000
0000
,
0000
0000
0000
0000
,
2000
0000
0000
3000
,
0002
0000
0000
0003
,
0200
0000
0000
0300
,
0020
0000
0000
0030
,
2000
0000
0000
0000
,
0000
0000
0000
3000
,
1001
0001
0001
0001
,
0001
0100
0001
0100
0010
1000
0001
0001
,
1001
0100
0010
0100
,
1000
0000
0010
0000
0100
0000
0001
0001
,
0001
1000
0010
0100
,
0001
0000
0010
0000
0100
0000
1000
1000
,
1000
0010
0100
0010
,
1000
0000
0001
0000
0100
0000
0010
0010
,
0010
1000
0001
0100
,
0001
0010
0001
0100
0010
1000
0100
0010
,
0001
1000
0010
0100
,
0001
0000
0010
0000
0100
0000
1000
1000
,
1000
0010
0100
0001
,
1000
0000
0001
0000
0100
0000
0010
0010
,
0010
1000
0001
0100
,
0001
0000
0010
0000
0100
0000
1000
1000
,
1000
0000
0010
0000
0100
0001
1000
0100
,
0010
0001
0100
0001
1000
0010
0100
0001
,
1000
0000
1100
0000
0001
0000
0101
0100
,
0001
0000
0101
0000
1100
0000
1000
0100
,
1000
0000
1010
0000
0011
0000
0001
0010
,
0001
1000
0010
0100
0001
1000
0100
0000
,
1000
0010
0001
0100
,
1000
0001
0100
0010
,
2000
0000
0000
0000
0000
0000
3010
0100
,
1001
0000
0001
0000
0001
0000
0001
1000
,
0010
0100
0010
0100
0001
0000
1000
0000
,
0100
0010
0100
0010
0001
0000
1000
0000
,
0010
0100
0001
1000
0100
0000
0010
0000
,
1001
0100
0010
1000
,
0001
0010
0100
0010
0001
0000
0100
0000
,
1000
0010
0100
0010
1000
0000
0001
0000
,
1002
0013
2001
3100
,
1020
0000
0130
0000
1001
0000
0010
1000
,
0100
1000
0010
0100
0001
0000
1100
0000
,
0010
0001
0100
0010
1000
0000
0101
0000
,
1000
0001
0100
0010
,
1000
0000
0101
0000
1000
0100
0001
0010
,
0100
0000
0001
0000
1000
0000
0010
0100
,
0010
0000
1100
0000
0101
0000
1010
0001
,
0100
0010
1000
0010
0100
0010
1000
0010
,
0100
0100
0100
0001
1000
0001
0010
0010
,
0100
0000
1000
0000
0010
0000
0100
0001
,
0000
1000
0000
0100
1000
0000
0001
0000
,
0010
0000
0010
0000
0010
0000
0001
1000
,
0000
0100
0000
0100
0010
0000
0001
0000
,
1000
0000
0010
0000
0100
0000
0010
1000
,
0000
0001
0000
0010
0100
0000
0001
0000
,
1000
0000
1000
0000
0010
0000
0001
0100
,
0000
0010
0000
1000
0001
0000
0100
0000
,
1001
0000
0010
0000
0001
0000
0100
1000
,
0000
0010
0000
0100
0001
0000
0010
0000
,
0100
0000
0100
0000
0100
0000
1000
0001
,
0000
0100
0000
0010
1000
0000
0001
0000
,
0100
0000
1000
0000
0010
0000
0100
0001
,
0000
0010
0000
0001
1000
0000
0100
0000
,
0001
0000
0001
0000
0001
0010
0100
1000
,
0010
0100
0001
0100
0001
1000
0010
0100
,
2002
0000
0000
0000
,
0000
0000
0000
0000
,
3003
0000
0000
0000
;

//---------------dance-single - ----------------
#NOTES:
     dance-single:
     :
     Challenge:
     14:
     1.000,1.000,1.000,0.723,0.379,633.000,310.000,103.000,0.000,53.000:
0000
0000
0000
0000
,
0000
0000
0000
0000
,
1000
0000
0100
0000
0010
0000
1000
0100
,
0000
0010
0000
1000
0100
0000
0010
0000
,
0101
0000
0101
0000
0101
0000
0001
0010
,
0000
0100
0000
0100
1000
0000
0011
0000
,
1000
0000
0100
0000
0010
0000
1000
0100
,
0000
0010
0000
1000
0100
0000
0010
0000
,
1001
0000
1001
0000
0010
0000
0100
1000
,
0000
1000
0000
1001
0010
0000
0100
0000
,
1002
0000
0100
0000
0010
0000
1000
0100
,
0000
0010
0000
1000
0100
0000
0013
0000
,
2101
0000
0101
0000
0101
0000
0001
0010
,
0000
0100
0000
0100
0010
0000
3101
0000
,
1002
0000
0100
0000
0010
0000
1000
0100
,
0000
0010
0000
1000
0100
0000
0013
0000
,
1001
0000
0100
0000
1001
0000
0010
1000
0001
0100
0010
0000
1001
0000
0100
0000
,
1001
0000
1001
0000
1001
0000
1100
0011
1000
0100
0011
0000
0101
0000
1010
0000
,
0101
1000
0011
0100
1001
0100
0011
1000
,
0101
0000
1000
0000
0011
0000
0100
0000
1001
0110
1001
0000
0101
0000
0011
0001
,
1100
0001
1010
0100
1001
0100
1010
0001
,
1100
0000
0001
0000
1010
0000
0100
0000
1001
0110
1001
0000
1010
0000
0101
0100
,
1001
0100
1010
0001
0101
1000
0011
0100
,
1001
0000
0010
0000
1100
0000
0010
0000
1001
0110
1001
0000
1001
0000
0110
0010
,
1100
0010
1100
0011
0101
1000
0101
1010
,
1100
0000
0102
0000
0023
0000
2030
0000
3120
0001
0230
0000
2301
0000
3120
0100
,
1031
0100
1010
0100
1001
0010
1100
0010
,
1001
0000
0100
0000
1010
0000
0100
0000
1001
0110
1001
0000
1010
0000
1100
0100
,
0011
1000
0101
0010
1001
0010
0101
1000
,
0011
0000
1000
0000
0101
0000
0010
0000
1001
0110
1001
0000
0101
0000
1010
1000
,
1001
0010
0101
1000
1010
0001
1100
0010
,
1001
0000
0100
0000
0011
0000
0100
0000
1001
0110
1001
0000
1001
0000
0110
0010
,
2001
0000
0100
0000
3011
0000
0010
0000
0201
0300
1020
0030
0201
0300
2000
3000
,
0110
0000
1001
0000
0101
0000
1010
1001
0000
0101
0011
0000
1001
0000
1010
0010
,
0101
0000
1000
0000
1110
0000
0100
1000
0011
0000
0100
0000
1011
0000
0100
0000
,
1010
0000
0001
0000
0111
0000
0010
0001
1100
0010
0100
0000
1011
0000
0110
0100
,
1001
0000
0010
0000
0101
0000
1010
0100
1000
0000
0110
0000
1001
0000
0010
0000
,
2101
0000
0010
0000
0110
0000
0001
0100
3012
0100
0010
0000
1100
0000
1010
0013
,
1002
0000
0103
0100
1002
0000
0103
1000
0010
0100
0002
0000
1013
0000
0100
0100
,
2001
0000
3010
0010
2001
0000
3010
0100
0100
0001
2010
0000
3101
0000
0010
0001
,
1010
0000
0100
0000
1010
0000
0100
0110
1001
0000
0011
0000
1100
0000
0011
0000
,
1001
0000
0010
0000
1000
0000
0010
0000
0101
0000
0010
0000
1000
0000
0010
0000
0100
0000
0010
0001
0010
0000
0100
0000
1010
0000
0001
0000
0100
0000
0010
0000
,
2100
0000
3020
0030
1002
0003
0210
0000
1301
0010
0001
0000
0101
0000
1010
0000
,
0201
0000
2300
3000
0120
0030
1002
0000
0113
1000
0010
0000
0110
0000
1001
0000
,
0201
0000
2300
3000
0120
0000
0032
0000
1013
0100
0010
0000
1001
0000
0101
0000
,
2010
0000
0001
0000
0110
0000
3001
0100
0012
1000
0100
0000
1010
0000
0113
0010
,
1100
0000
0011
0000
1011
0000
0100
0010
1001
0100
0010
0000
1001
0000
0101
0000
,
0020
0000
1100
0000
1130
0000
0010
0100
1001
0100
0010
0000
1001
0000
1010
0000
,
2001
0000
0110
0000
0110
0000
3001
0100
0010
1000
0011
0000
1100
0000
0001
0000
,
0201
0000
1300
0000
1020
0000
0031
0000
0110
1001
0110
0000
1001
0000
0110
0010
,
1100
0000
0002
0000
0123
0000
2030
0000
0100
0001
3010
0000
0101
0000
0010
0000
,
1001
0000
0200
0000
2310
0000
3002
0000
0100
1000
0013
0000
1001
0000
0110
0100
,
1001
0000
0200
0000
2310
0000
3002
0000
0100
1000
0100
0000
1023
0000
0130
0000
,
0102
0000
0013
0000
1012
0000
0103
0000
2001
0100
3010
0000
0201
0000
1310
0010
,
1100
0000
0002
0000
0123
0000
2030
0000
0100
0001
3010
0000
0101
0000
0010
0000
,
1001
0000
0200
0000
2310
0000
3002
0000
0100
1000
0013
0000
1001
0000
0110
0000
,
1001
0000
0011
0000
0100
0000
1010
0100
0001
1000
0110
0000
1001
0000
0010
0000
,
1100
0000
0101
0000
1010
0000
0101
1001
0000
1010
1001
0000
0110
0000
0110
0000
,
1200
0000
0310
0000
1020
0000
0130
1000
0012
0100
0013
0000
2001
0000
3110
0000
,
1000
0000
0011
0000
0010
0000
1100
0001
0010
1000
0100
0000
2002
0000
3113
0000
,
1002
0000
0103
0000
1002
0000
0103
1000
0021
0100
0031
0000
2002
0000
3113
0000
,
1000
0000
0101
0000
0001
0000
1010
0001
0100
1000
0010
0000
1001
0000
0110
0010
,
1200
0000
0310
0000
1020
0000
0130
1000
0012
0100
0013
0000
2001
3000
0120
0000
,
1030
0000
0011
0000
0001
0000
1100
0001
0010
1000
0100
0000
2002
0000
3113
0000
,
1002
0000
0103
0000
1002
0000
0103
1000
0021
0100
0031
0000
2002
0000
3113
0000
,
0001
0000
1010
0000
1000
0000
0101
1000
0010
0001
0100
0000
1001
0000
0101
0100
,
1010
0000
0200
0000
1302
0000
0023
1000
0100
0001
0130
0000
1001
0000
0010
0000
,
0101
0000
2000
0000
3120
0000
0032
1000
0100
0010
0103
0000
1001
0000
0011
0000
,
1101
0000
0020
0000
0132
0000
2003
0010
3100
0010
1000
0000
0101
0000
1010
0000
,
1002
0000
0103
0000
0011
0000
0100
0010
1000
0001
0110
0000
1001
0000
0101
0001
,
1100
0000
0010
0000
0101
0000
1000
0000
0101
0010
0101
0000
1010
0000
0101
0000
,
1001
0000
1000
0000
0110
0000
1001
0010
0001
0100
1001
0000
0110
0000
1001
0001
,
1100
0000
0100
0000
1010
0000
0100
0010
1001
0100
1001
0000
1010
0000
0101
0000
,
2100
0000
3012
0000
2103
0000
3012
0010
0000
0100
2103
0000
3021
0030
0201
0300
,
2002
0000
0000
0000
,
0000
0000
0000
0000
,
0000
0000
0000
0000
,
0000
0000
0000
0000
,
3003
0000
0000
0000
;

//---------------dance-single - ----------------
#NOTES:
     dance-single:
     :
     Easy:
     3:
     0.216,0.263,0.049,0.049,0.000,201.000,7.000,7.000,0.000,0.000:
0000
0000
0000
0000
,
0000
0000
0000
0000
,
1000
0000
0000
0000
,
1000
0000
0000
0000
,
0010
0000
0000
0000
,
0010
0000
0000
0000
,
0100
0000
0000
0000
,
0100
0000
0000
0000
,
0001
0000
0000
0000
,
0001
0000
0000
0000
,
2000
0000
0000
0000
,
3000
0000
0000
0000
,
0002
0000
0000
0000
,
0003
0000
0000
0000
,
0020
0000
0000
0000
,
0030
0000
0000
0000
,
0100
0001
0010
0001
,
1000
1000
1000
1000
,
0010
0100
0001
1000
,
0100
0010
0100
0010
,
1000
0001
0100
0010
,
1000
0100
1000
0001
,
0100
0010
1000
0100
,
0010
0001
0010
0001
,
1000
0001
0100
0010
,
1000
0100
0010
0001
,
0001
1000
0010
0100
,
0001
1000
0001
1000
,
0100
0010
0100
1000
,
0010
0100
0001
0010
,
0100
1000
0001
1000
,
0010
0100
0010
0100
,
0001
0010
0100
1000
,
1000
0010
0001
0010
,
1000
0100
1000
0100
,
0001
1000
0001
1000
,
0001
0100
0001
0100
,
0001
0010
0001
0010
,
0200
0000
0000
0300
,
0000
0000
0100
0100
,
0100
0000
0000
1000
,
0001
0001
0001
0001
,
0100
0010
1010
0000
,
0100
0010
0011
0000
,
0100
0001
1000
0100
,
0001
0100
1000
0000
,
0001
0010
0110
0000
,
1000
0010
0110
0000
,
1000
0001
0010
0000
,
0100
0000
0010
0000
,
0001
1000
1100
0000
,
1000
0001
0101
0000
,
1000
0010
0001
0100
,
0010
1000
0100
0000
,
0001
0010
0100
1000
,
0010
0100
0001
1000
,
0020
0000
0000
0030
,
0010
0100
0010
0100
,
0001
0000
0001
0000
,
1000
0000
1000
0000
,
0010
0000
0100
0000
,
0001
0000
1000
0000
,
0100
0000
0100
0000
,
0010
0000
0010
0000
,
1000
0000
0001
0000
,
0100
0000
0010
0000
,
1000
0100
0010
0001
,
1000
0000
0100
0000
,
0001
0100
0010
1000
,
0001
0000
0001
0000
,
0100
1000
0100
0001
,
0010
0000
0100
0000
,
1000
0001
0100
0010
,
1000
1000
1000
1000
,
2002
0000
0000
0000
,
3003
0000
0000
0000
;
