#TITLE:Princess of Nightmare;
#SUBTITLE:;
#ARTIST:Foozogz;
#TITLETRANSLIT:;
#SUBTITLETRANSLIT:;
#ARTISTTRANSLIT:;
#CREDIT:;
#BANNER:../Wubstream - ban.png;
#BACKGROUND:../Wubstream - bg.png;
#LYRICSPATH:;
#CDTITLE:;
#MUSIC:Foozogz - Princess of Nightmare.ogg;
#OFFSET:-0.366;
#SAMPLESTART:176.616;
#SAMPLELENGTH:12.000;
#SELECTABLE:YES;
#BPMS:0.000=180.000;
#STOPS:;
#BGCHANGES:;
// cache tags:
#FIRSTBEAT:9.000;
#LASTBEAT:661.000;
#SONGFILENAME:Songs/Wubstream/Princess of Nightmare - [Rynker]/princess of nightmare.sm;
#HASMUSIC:1;
#HASBANNER:1;
#MUSICLENGTH:224.713;
// end cache tags

//---------------dance-single - Rynker----------------
#NOTES:
     dance-single:
     Rynker:
     Challenge:
     14:
     1.000,1.000,0.062,0.436,1.000,1785.000,14.000,98.000,0.000,0.000:

0000
0000
0000
0000
,
0000
0000
0000
0000
,
0000
2002
0000
0000
,
3003
0000
0000
0000
,
0000
0000
0000
0000
,
0000
0000
0000
0000
0000
0000
0000
0000
0000
0000
0000
0000
0001
0000
1000
0100
,
0010
0001
1000
0000
2002
0000
0000
0000
0000
0000
0000
0000
0000
0000
0000
0000
,
3003
0000
1000
0100
0010
0100
1000
0001
,
0100
0010
0010
0100
0001
1000
0100
0010
,
0100
1000
0001
0100
0001
1000
0010
0100
,
0001
1000
1100
0000
0000
0000
0000
0000
,
0000
0000
0000
0000
,
0000
0000
2000
0000
3000
2000
0000
3000
,
0000
0000
0002
0000
0003
0002
0000
0003
,
0000
0100
0020
0000
0030
0020
0000
0030
,
0000
1000
0002
0000
0023
0000
0230
0000
,
2300
0000
3002
0000
0003
0002
0000
0003
,
0000
0000
0200
0000
0300
0200
0000
0300
,
0000
0010
2000
0000
3000
2000
0000
3000
,
0000
0001
0020
0000
0230
0000
2300
0000
,
3002
0000
0203
0000
0300
0200
0000
0300
,
0000
0000
0020
0000
0030
0020
0000
0030
,
0000
1000
0002
0000
0003
0002
0000
0003
,
0000
0000
1000
0100
1000
0000
0001
0000
0010
0000
0100
1000
0001
0100
0001
0000
,
1000
0000
0001
0100
0001
0000
1000
0000
0010
0000
0100
0001
0100
0010
1000
0000
,
0001
0000
0010
0100
1000
0000
0100
0000
0010
0000
0001
0010
0100
1000
0001
0000
,
1000
0000
0001
0100
0001
0000
1000
0000
0010
0000
0100
0001
0100
0010
1000
0000
,
0001
0000
0010
0100
1000
0000
0100
0000
0010
0000
0001
0010
0100
1000
0001
0000
,
1000
0000
0001
0100
0001
0000
1000
0000
0010
0000
0100
0001
1000
0100
0010
0000
,
0100
0000
1000
0100
0010
0000
0001
0000
0010
0000
0100
1000
0001
0100
0001
0000
,
1000
0000
0010
0100
0001
0000
1000
0000
0100
0000
0010
0001
0010
0100
1000
0000
,
0010
0000
0100
0001
0100
0000
0010
0000
1000
0000
0001
0010
0100
1000
0100
0000
,
0010
0000
0001
1000
0001
0000
1000
0000
0010
0000
0100
0001
0010
0100
1000
0000
,
0010
0000
0100
0001
0100
0000
0010
0000
1000
0000
0001
0010
0100
1000
0100
0000
,
0010
0000
0001
1000
0010
0000
0100
0000
0001
0000
0100
0010
1000
0010
0100
0000
,
0001
0000
1000
0100
0010
0000
0001
0000
0100
0000
0010
1000
0100
0010
0100
1000
,
0001
0100
0001
1000
0010
0000
0000
1000
0000
0000
0001
0010
0100
0000
0000
1000
,
0000
0001
1000
0000
0000
0000
0000
0000
,
0000
0000
0000
0000
0001
0100
0010
0100
0001
1000
0100
0010
0001
0010
0100
1000
,
0001
0010
0100
1000
0001
0100
0010
1000
0001
0100
0010
1000
0001
0010
0100
1000
,
0100
0010
0001
1000
0010
1000
0001
1000
0010
1000
0001
0100
0001
1000
0001
0100
,
0001
1000
0001
1000
0100
0010
0100
1000
0100
0010
0001
1000
0001
0010
0100
1000
,
0010
0100
0010
0100
0001
0010
0100
1000
0100
0010
0001
1000
0100
0010
0001
1000
,
0001
0100
0010
1000
0001
0100
0001
1000
0010
1000
0001
0010
0100
1000
0100
0010
,
0001
1000
0010
0100
0001
1000
0001
1000
0001
1000
0010
1000
0001
1000
0001
0100
,
0010
0000
0000
1000
0000
0000
0001
0000
0000
0010
0000
0000
0100
0000
0000
1000
0000
0000
0010
0000
0000
0100
0000
0000
0001
0000
1000
0000
0010
0000
0100
0000
0001
0000
0100
0000
0000
0000
0000
0000
0000
0000
0002
0000
0000
0000
0000
0000
,
0203
0000
0320
0000
2030
0000
3000
0000
0001
0100
0010
1000
0001
0100
0010
1000
,
0001
0010
0100
1000
0001
0010
0100
1000
0001
0100
0010
1000
0001
0010
0100
1000
,
0001
0100
0010
1000
0001
1000
0001
1000
0001
1000
0100
0010
0100
0010
0100
0010
,
0001
1000
0010
0100
0001
1000
0001
1000
0001
1000
0010
0100
0010
0100
0010
0100
,
0001
1000
0010
1000
0100
0010
0001
1000
0100
0010
0001
1000
0001
0100
0010
1000
,
0001
0100
0010
1000
0001
1000
0100
0010
0001
1000
0001
0010
0100
1000
0001
0100
,
0010
0100
0001
1000
0100
1000
0100
1000
0100
1000
0001
0010
0001
0010
0001
0010
,
0001
0000
0000
0000
,
0000
0000
0000
0000
1000
0000
0000
0000
0001
0000
0100
0010
1000
0100
0010
0001
,
0100
0010
1000
0100
0010
0001
0100
0010
1000
0100
0010
0001
0100
0010
1000
0100
,
0010
0000
0001
1000
0002
0000
0003
0000
1000
0000
0100
1000
0010
0100
0001
0010
,
0100
1000
0010
0100
0001
0010
0100
1000
0010
0100
0001
0010
0100
1000
0010
0100
,
0001
0001
2000
0000
3010
0200
0000
0310
,
2000
0000
3010
0200
0000
0310
2000
3000
,
0001
0000
0020
0000
0230
0000
0000
0320
,
0000
0000
0000
0000
0031
0000
0000
1000
0000
0000
0010
0000
0100
0000
0000
0000
,
0001
0000
0000
0000
1000
0000
0000
0000
0010
0000
1000
0001
0100
0001
0010
0100
,
1000
0010
0100
0001
0010
0100
1000
0010
0100
0001
0010
0100
1000
0010
0100
0001
,
0010
0000
0001
0010
0002
0000
0000
0000
0003
0000
0010
0001
0100
0010
1000
0100
,
0010
0001
0100
0010
1000
0100
0010
0001
0100
0010
1000
0100
0010
0001
0100
0010
,
1000
0000
0002
0000
0103
0020
0000
0130
,
0002
0000
0103
0020
0000
0130
0002
0000
,
2003
0000
3200
0000
2300
0000
0000
3020
,
0000
0000
0000
0000
0000
0000
0000
0000
0000
0000
0000
0000
0130
0000
0000
0001
0000
0000
1000
0000
0000
0001
0000
0000
1000
0000
0010
0000
0100
0000
0001
0000
1000
0000
0001
0000
0000
0000
0000
0000
0000
0000
0000
0000
0000
0000
0000
0000
,
0000
0000
0000
0000
1000
0001
0100
0001
0100
0010
1000
0001
0010
0100
1000
0100
,
0010
0001
1000
0001
0100
0010
0100
0001
1000
0100
0010
0001
0010
0100
1000
0001
,
0100
0001
0010
0001
0100
0010
1000
0010
0100
0001
1000
0100
0010
0100
1000
0001
,
0010
0100
0010
0001
1000
0001
1000
0010
0100
0001
0100
0010
1000
0100
1000
0001
,
0100
0010
0100
0010
1000
0001
1000
0010
0100
0001
1000
0100
1000
0001
0100
0010
,
0100
0001
1000
0100
0010
0001
0010
0100
1000
0001
1000
0001
0010
0100
1000
0001
,
0100
0010
0100
0001
1000
0010
0100
0001
1000
0010
1000
0001
0100
0001
1000
0100
,
0010
0001
0010
0100
1000
0100
0010
0001
1000
0001
0100
0010
0100
0001
1000
0001
,
0100
0010
0100
0010
1000
0100
0010
0001
0010
0100
1000
0001
0100
0010
0100
0001
,
1000
0100
0010
0001
1000
0001
0100
0010
0100
0001
1000
0100
0010
0100
1000
0010
,
0100
0001
0010
0100
1000
0001
0100
0001
1000
0010
0100
0010
1000
0001
0010
0100
,
0010
0001
1000
0010
0100
0001
0100
0010
1000
0001
0010
0100
1000
0100
0010
0001
,
1000
0010
0100
0001
1000
0001
0010
0100
0010
0001
1000
0001
0100
0010
0100
0001
,
0010
0100
1000
0010
0100
0001
0100
0010
1000
0001
0010
0100
1000
0100
0010
0001
,
1000
0001
0100
0010
0100
0001
1000
0100
0010
0001
0010
0100
1000
0001
0100
0010
,
0100
0001
1000
0100
0010
0000
0000
0000
0000
0000
0000
0000
0000
0000
0000
0000
,
0000
0000
0000
0000
1001
0000
0000
0000
0000
0000
0001
1000
0010
0100
0001
0010
,
0100
1000
0010
0100
0001
0010
0100
1000
0010
0100
0001
0010
0100
1000
0010
0100
,
0002
0000
0000
0003
1100
0000
0000
0011
0000
0000
1100
0000
0011
0000
0000
1100
,
0000
0000
0011
0000
1100
0000
0000
0011
0000
0000
1100
0000
0011
0000
0000
0000
,
0000
0000
0000
0000
1000
0001
1000
0001
0100
0010
1000
0010
1000
0001
0010
0100
,
1000
0001
1000
0001
0010
0100
0010
0100
1000
0001
0100
0010
0100
0010
1000
0100
,
0010
0100
1000
0100
0010
0001
0100
0001
1000
0001
0100
0001
1000
0001
0100
0001
,
1000
0001
0100
0010
1000
0001
1000
0010
1000
0001
0100
0010
0100
0001
0100
0010
,
0100
0001
0100
0010
1000
0001
1000
0100
0010
0001
1000
0001
1000
0010
0100
0010
,
1000
0001
1000
0001
0010
0100
0010
0100
1000
0001
0100
0010
0100
0001
0010
0100
,
1000
0001
1000
0001
0010
0001
1000
0001
0010
0001
1000
0001
0010
0001
1000
0001
,
0010
0100
1000
0010
1000
0001
1000
0010
1000
0001
0100
0010
1000
0001
0010
0100
,
1000
0100
1000
0001
0100
0001
0100
0010
1000
0010
0100
0001
0100
0001
0010
0001
,
1000
0010
1000
0010
0100
0001
0100
0001
1000
0100
0010
0001
0010
0001
1000
0001
,
0100
0010
0100
0010
1000
0001
0100
0001
1000
0001
0100
0001
1000
0001
0100
0001
,
1000
0001
0100
0010
1000
0001
1000
0010
1000
0001
1000
0100
0010
0001
0010
0100
,
0010
0001
1000
0001
1000
0010
1000
0010
0100
0001
1000
0001
1000
0001
0010
0100
,
1000
0100
1000
0001
0100
0001
0100
0001
1000
0001
0100
0010
0100
0010
1000
0001
,
0010
0100
0010
0100
1000
0100
0010
0100
1000
0100
0010
0100
1000
0100
0010
0100
,
1000
0100
0010
0001
1000
0010
1000
0001
1000
0001
0100
0010
1000
0001
0010
0100
,
1000
0001
0100
0010
2000
0000
0000
0000
3000
0000
2000
0000
0000
0000
3000
0000
,
0000
0000
0002
0000
0003
0002
0000
0003
,
0000
0100
0020
0000
0030
0020
0000
0030
,
0000
1000
0002
0000
0023
0000
0230
0000
,
2300
0000
3002
0000
0003
0002
0000
0003
,
0000
0000
0200
0000
0300
0200
0000
0300
,
0000
0010
2000
0000
3000
2000
0000
3000
,
0000
0001
0020
0000
0230
0000
2300
0000
,
3002
0000
0203
0000
0300
0200
0000
0300
,
0000
0000
0020
0000
0030
0020
0000
0030
,
0000
1000
0002
0000
0003
0002
0000
0003
,
0000
1000
0200
0000
0320
0000
0032
0000
,
2003
0000
3020
0000
0030
0020
0000
0030
,
0000
0000
2000
0000
3000
2000
0000
3001
,
0010
0100
0200
0000
0000
0000
0000
0000
,
0300
0000
2000
0000
3000
0002
0000
0003
,
0100
0000
0020
0000
0030
0020
0000
0030
,
0000
0000
0000
0000
1000
0100
0010
0001
1000
0100
0010
0001
1000
0100
0010
0001
,
1000
0100
0010
0001
1000
0010
0100
0001
1000
0010
0100
0001
1000
0010
0100
0001
,
1000
0010
0100
0001
1000
0100
0010
0001
1000
0100
0010
0001
1000
0100
0010
0001
,
1000
0100
0010
0001
1000
0010
0100
0001
1000
0010
0100
0001
1000
0010
0100
0001
,
1000
0010
0100
0001
1000
0100
0010
0001
1000
0100
0010
0001
1000
0100
0010
0001
,
1000
0100
0010
0001
1000
0010
0100
0001
1000
0010
0100
0001
1000
0010
0100
0001
,
1000
0010
0100
0001
1000
0100
0010
0001
1000
0100
0010
0001
1000
0100
0010
0001
,
1000
0100
0010
0001
1000
0000
0000
0000
0000
0000
0000
0000
0000
0000
0000
0000
,
0000
0000
0000
0000
,
0000
0000
0000
0000
0001
0010
0100
0010
0001
1000
0010
0100
0001
0100
0010
1000
,
0001
0100
0010
1000
0001
0010
0100
1000
0001
0010
0100
1000
0001
0100
0010
1000
,
0010
0100
0001
1000
0100
1000
0001
1000
0100
1000
0001
0010
0001
1000
0001
0010
,
0001
1000
0001
1000
0010
0100
0010
1000
0010
0100
0001
1000
0001
0100
0010
1000
,
0100
0010
0100
0010
0001
0100
0010
1000
0010
0100
0001
1000
0010
0100
0001
1000
,
0001
0010
0100
1000
0001
0010
0001
1000
0100
1000
0001
0100
0010
1000
0010
0100
,
0001
1000
0100
0010
0001
1000
0001
1000
0001
1000
0100
1000
0001
1000
0001
0010
,
0100
0000
0000
1000
0000
0000
0001
0000
0000
0100
0000
0000
0010
0000
0000
1000
0000
0000
0100
0000
0000
0010
0000
0000
0001
0000
1000
0000
0010
0000
0100
0000
0001
0000
0100
0000
0000
0000
0000
0000
0000
0000
0002
0000
0000
0000
0000
0000
,
0203
0000
0320
0000
2030
0000
3000
0000
0001
0010
0100
1000
0001
0010
0100
1000
,
0001
0100
0010
1000
0001
0100
0010
1000
0001
0010
0100
1000
0001
0100
0010
1000
,
0001
0010
0100
1000
0001
1000
0001
1000
0001
1000
0010
0100
0010
0100
0010
0100
,
0001
1000
0100
0010
0001
1000
0001
1000
0001
1000
0100
0010
0100
0010
0100
0010
,
0001
1000
0100
1000
0010
0100
0001
1000
0010
0100
0001
1000
0001
0010
0100
1000
,
0001
0010
0100
1000
0001
1000
0010
0100
0001
1000
0001
0100
0010
1000
0001
0010
,
0100
0010
0001
1000
0100
1000
0100
1000
0100
1000
0001
0010
0001
0010
0001
0010
,
0001
0000
0000
0000
1000
0000
0000
0000
0000
0000
0000
0000
0001
0100
0001
0100
,
0001
0100
0001
0010
0100
1000
0001
1000
0010
0100
0001
0100
0001
1000
0100
0010
,
0001
1000
0001
1000
0100
0010
0100
0010
0001
1000
0010
0100
0010
0100
0001
0010
,
0100
0010
0001
0010
0100
1000
0010
1000
0001
1000
0010
1000
0001
1000
0010
1000
,
0001
1000
0010
0100
0001
1000
0001
0100
0001
1000
0010
0100
0010
1000
0010
0100
,
0010
1000
0010
0100
0001
1000
0001
0010
0100
1000
0001
1000
0001
0100
0010
0100
,
0001
1000
0001
1000
0100
0010
0100
0010
0001
1000
0010
0100
0010
1000
0001
0100
,
0010
1000
0001
1000
0100
1000
0001
1000
0100
1000
0001
1000
0100
1000
0001
1000
,
0100
0010
0001
0100
0001
1000
0001
0100
0001
1000
0010
0100
0001
1000
0100
0010
,
0001
0010
0100
1000
0001
1000
0001
0100
0010
0100
0001
1000
0001
1000
0010
1000
,
0001
0100
0001
0100
0010
1000
0010
1000
0001
0010
0100
1000
0100
1000
0001
1000
,
0010
0100
0010
0100
0001
1000
0010
1000
0001
1000
0010
1000
0001
1000
0010
1000
,
0001
1000
0010
0100
0001
1000
0001
0100
0001
1000
0001
0010
0100
1000
0100
0010
,
0100
1000
0001
1000
0001
0100
0001
0100
0010
1000
0001
1000
0001
1000
0100
0010
,
0001
0010
0001
1000
0010
1000
0010
1000
0001
1000
0010
0100
0010
0100
0001
1000
,
0100
0010
0100
0010
0001
0010
0100
0010
0001
0010
0100
0010
0001
0010
0100
0010
,
0001
0010
0100
1000
0001
0100
0001
1000
0001
1000
0010
0100
0001
1000
0100
0010
,
0001
1000
0010
0100
0002
0000
0000
0000
0000
0000
0000
0000
0000
0000
0000
0000
,
0000
0003
0000
0000
;

//---------------dance-single - Rynker----------------
#NOTES:
     dance-single:
     Rynker:
     Hard:
     13:
     0.964,1.000,0.102,0.512,1.000,1378.000,23.000,115.000,0.000,0.000:


0000
0000
0000
0000
,
0000
0000
0000
0000
,
0000
2002
0000
0000
,
3003
0000
0000
0000
,
0000
0000
0000
0000
,
0000
0000
0000
0000
0000
0000
0000
0000
0000
0000
0000
0000
0001
0000
1000
0100
,
0010
0001
1000
0000
2002
0000
0000
0000
0000
0000
0000
0000
0000
0000
0000
0000
,
3003
0000
1000
0100
0010
0100
1000
0001
,
0100
0010
0010
0100
0001
1000
0100
0010
,
0100
1000
0001
0100
0001
1000
0010
0100
,
0001
1000
1100
0000
0000
0000
0000
0000
,
0000
0000
0000
0000
,
0000
0000
2000
0000
3000
2000
0000
3000
,
0000
0000
0002
0000
0003
0002
0000
0003
,
0000
0100
0020
0000
0030
0020
0000
0030
,
0000
1000
0002
0000
0023
0000
0230
0000
,
2300
0000
3002
0000
0003
0002
0000
0003
,
0000
0000
0200
0000
0300
0200
0000
0300
,
0000
0010
2000
0000
3000
2000
0000
3000
,
0000
0001
0020
0000
0230
0000
2300
0000
,
3002
0000
0203
0000
0300
0200
0000
0300
,
0000
0000
0020
0000
0030
0020
0000
0030
,
0000
1000
0002
0000
0003
0002
0000
0003
,
0000
0000
1000
0100
1000
0000
0001
0000
0010
0000
0100
1000
0001
0100
0001
0000
,
1000
0000
0001
0100
0001
0000
1000
0000
0010
0000
0100
0001
0100
0010
1000
0000
,
0001
0000
0010
0100
1000
0000
0100
0000
0010
0000
0001
0010
0100
1000
0001
0000
,
1000
0000
0001
0100
0001
0000
1000
0000
0010
0000
0100
0001
0100
0010
1000
0000
,
0001
0000
0010
0100
1000
0000
0100
0000
0010
0000
0001
0010
0100
1000
0001
0000
,
1000
0000
0001
0100
0001
0000
1000
0000
0010
0000
0100
0001
1000
0100
0010
0000
,
0100
0000
1000
0100
0010
0000
0001
0000
0010
0000
0100
1000
0001
0100
0001
0000
,
1000
0000
0010
0100
0001
0000
1000
0000
0100
0000
0010
0001
0010
0100
1000
0000
,
0010
0000
0100
0001
0100
0000
0010
0000
1000
0000
0001
0010
0100
1000
0100
0000
,
0010
0000
0001
1000
0001
0000
1000
0000
0010
0000
0100
0001
0010
0100
1000
0000
,
0010
0000
0100
0001
0100
0000
0010
0000
1000
0000
0001
0010
0100
1000
0100
0000
,
0010
0000
0001
1000
0010
0000
0100
0000
0001
0000
0100
0010
1000
0010
0100
0000
,
0001
0000
1000
0100
0010
0000
0001
0000
0100
0000
0010
1000
0100
0010
0100
1000
,
0001
0100
0001
1000
0010
0000
0000
1000
0000
0000
0001
0010
0100
0000
0000
1000
,
0000
0001
1000
0000
0000
0000
0000
0000
,
0000
0000
0000
0000
0001
0100
0010
0100
0001
1000
0100
0010
0001
0010
0100
1000
,
0001
0010
0100
1000
0001
0100
0010
1000
0001
0100
0010
1000
0001
0010
0100
1000
,
0100
0010
0001
1000
0010
1000
0001
1000
0010
1000
0001
0100
0001
1000
0001
0100
,
0001
1000
0001
1000
0100
0010
0100
1000
0100
0010
0001
1000
0001
0010
0100
1000
,
0010
0100
0010
0100
0001
0010
0100
1000
0100
0010
0001
1000
0100
0010
0001
1000
,
0001
0100
0010
1000
0001
0100
0001
1000
0010
1000
0001
0010
0100
1000
0100
0010
,
0001
1000
0010
0100
0001
1000
0001
1000
0001
1000
0010
1000
0001
1000
0001
0100
,
0010
0000
0000
1000
0000
0000
0001
0000
0000
0010
0000
0000
0100
0000
0000
1000
0000
0000
0010
0000
0000
0100
0000
0000
0001
0000
1000
0000
0010
0000
0100
0000
0001
0000
0100
0000
0000
0000
0000
0000
0000
0000
0002
0000
0000
0000
0000
0000
,
0203
0000
0320
0000
2030
0000
3000
0000
0001
0100
0010
1000
0001
0100
0010
1000
,
0001
0010
0100
1000
0001
0010
0100
1000
0001
0100
0010
1000
0001
0010
0100
1000
,
0001
0100
0010
1000
0001
1000
0001
1000
0001
1000
0100
0010
0100
0010
0100
0010
,
0001
1000
0010
0100
0001
1000
0001
1000
0001
1000
0010
0100
0010
0100
0010
0100
,
0001
1000
0010
1000
0100
0010
0001
1000
0100
0010
0001
1000
0001
0100
0010
1000
,
0001
0100
0010
1000
0001
1000
0100
0010
0001
1000
0001
0010
0100
1000
0001
0100
,
0010
0100
0001
1000
0100
1000
0100
1000
0100
1000
0001
0010
0001
0010
0001
0010
,
0001
0000
0000
0000
,
0000
0000
0000
0000
1000
0000
0000
0000
0001
0000
0100
0010
1000
0100
0010
0001
,
0100
0010
1000
0100
0010
0001
0100
0010
1000
0100
0010
0001
0100
0010
1000
0100
,
0010
0000
0001
1000
0002
0000
0003
0000
1000
0000
0100
1000
0010
0100
0001
0010
,
0100
1000
0010
0100
0001
0010
0100
1000
0010
0100
0001
0010
0100
1000
0010
0100
,
0001
0001
2000
0000
3010
0200
0000
0310
,
2000
0000
3010
0200
0000
0310
2000
3000
,
0001
0000
0020
0000
0230
0000
0000
0320
,
0000
0000
0000
0000
0031
0000
0000
1000
0000
0000
0010
0000
0100
0000
0000
0000
,
0001
0000
0000
0000
1000
0000
0000
0000
0010
0000
1000
0001
0100
0001
0010
0100
,
1000
0010
0100
0001
0010
0100
1000
0010
0100
0001
0010
0100
1000
0010
0100
0001
,
0010
0000
0001
0010
0002
0000
0000
0000
0003
0000
0010
0001
0100
0010
1000
0100
,
0010
0001
0100
0010
1000
0100
0010
0001
0100
0010
1000
0100
0010
0001
0100
0010
,
1000
0000
0002
0000
0103
0020
0000
0130
,
0002
0000
0103
0020
0000
0130
0002
0000
,
2003
0000
3200
0000
2300
0000
0000
3020
,
0000
0000
0000
0000
0000
0000
0000
0000
0000
0000
0000
0000
0130
0000
0000
0001
0000
0000
1000
0000
0000
0001
0000
0000
1000
0000
0010
0000
0100
0000
0001
0000
1000
0000
0001
0000
0000
0000
0000
0000
0000
0000
0000
0000
0000
0000
0000
0000
,
0000
0000
1000
0000
0100
0010
0000
0001
,
1000
0000
0001
0000
0100
0010
0000
0100
,
0001
1000
0100
0000
0010
0001
0000
1000
,
0001
0000
0100
0000
0010
1000
0000
0001
,
0100
0001
1000
0000
0100
0010
0000
0001
,
1000
0000
0001
0000
0100
0010
0000
0100
,
0001
1000
0100
0000
0010
0100
0000
1000
,
0001
0000
0100
0000
0010
1000
0000
0001
,
0100
0100
0001
0000
1000
0100
0000
1000
,
0001
0000
0010
0000
0001
1000
0000
0001
,
0100
0010
2000
0000
0000
0000
0000
0000
,
0000
3001
0001
0000
,
0000
1000
0100
0010
,
0100
2000
0000
0000
3002
0000
0000
0000
,
0103
0020
0000
0000
,
0000
1000
0030
0000
,
0000
0000
0000
0000
1001
0000
0000
0000
0000
0000
0001
1000
0010
0100
0001
0010
,
0100
1000
0010
0100
0001
0010
0100
1000
0010
0100
0001
0010
0100
1000
0010
0100
,
0002
0000
0000
0000
1000
0003
0000
0011
0000
0000
1000
0000
0001
0000
0000
1100
,
0000
0000
0001
0000
1000
0000
0000
0011
0000
0000
1000
0000
0001
0000
0000
0000
,
0000
0000
0000
0000
1000
0001
1000
0001
0100
0010
1000
0010
1000
0001
0010
0100
,
1000
0001
1000
0001
0010
0100
0010
0100
1000
0001
0100
0010
0100
0010
1000
0100
,
0010
0100
1000
0100
0010
0001
0100
0001
1000
0001
0100
0001
1000
0001
0100
0001
,
1000
0001
0100
0010
1000
0001
1000
0010
1000
0001
0100
0010
0100
0001
0100
0010
,
0100
0001
0100
0010
1000
0001
1000
0100
0010
0001
1000
0001
1000
0010
0100
0010
,
1000
0001
1000
0001
0010
0100
0010
0100
1000
0001
0100
0010
0100
0001
0010
0100
,
1000
0001
1000
0001
0010
0001
1000
0001
0010
0001
1000
0001
0010
0001
1000
0001
,
0010
0100
1000
0010
1000
0001
1000
0010
1000
0001
0100
0010
1000
0001
0010
0100
,
1000
0100
1000
0001
0100
0001
0100
0010
1000
0010
0100
0001
0100
0001
0010
0001
,
1000
0010
1000
0010
0100
0001
0100
0001
1000
0100
0010
0001
0010
0001
1000
0001
,
0100
0010
0100
0010
1000
0001
0100
0001
1000
0001
0100
0001
1000
0001
0100
0001
,
1000
0001
0100
0010
1000
0001
1000
0010
1000
0001
1000
0100
0010
0001
0010
0100
,
0010
0001
1000
0001
1000
0010
1000
0010
0100
0001
1000
0001
1000
0001
0010
0100
,
1000
0100
1000
0001
0100
0001
0100
0001
1000
0001
0100
0010
0100
0010
1000
0001
,
0010
0100
0010
0100
1000
0100
0010
0100
1000
0100
0010
0100
1000
0100
0010
0100
,
1000
0100
0010
0001
1000
0010
1000
0001
1000
0001
0100
0010
1000
0001
0010
0100
,
1000
0001
0100
0010
2000
0000
0000
0000
3000
0000
2000
0000
0000
0000
3000
0000
,
0000
0000
0002
0000
0003
0002
0000
0003
,
0000
0100
0020
0000
0030
0020
0000
0030
,
0000
1000
0002
0000
0023
0000
0230
0000
,
2300
0000
3002
0000
0003
0002
0000
0003
,
0000
0000
0200
0000
0300
0200
0000
0300
,
0000
0010
2000
0000
3000
2000
0000
3000
,
0000
0001
0020
0000
0230
0000
2300
0000
,
3002
0000
0203
0000
0300
0200
0000
0300
,
0000
0000
0020
0000
0030
0020
0000
0030
,
0000
1000
0002
0000
0003
0002
0000
0003
,
0000
1000
0200
0000
0320
0000
0032
0000
,
2003
0000
3020
0000
0030
0020
0000
0030
,
0000
0000
2000
0000
3000
2000
0000
3001
,
0010
0100
0200
0000
0000
0300
0000
0000
,
0000
0000
2000
0000
3000
0002
0000
0003
,
0100
0000
0020
0000
0030
0020
0000
0030
,
0000
0000
2000
0000
3000
2000
0000
0000
,
3000
0001
0020
0000
0030
0020
0000
0000
,
0030
0100
2000
0000
3002
0000
0203
0000
,
0320
0000
2030
0000
3000
0002
0000
0000
,
0000
0003
0200
0000
0300
0020
0000
1030
,
0001
0010
0200
0000
0000
0000
0000
0000
,
0000
0000
0000
0000
1300
0000
0001
0000
0100
0000
0010
0000
1000
0001
0010
0100
,
1000
0001
0100
0010
1000
0000
0000
0000
0000
0000
0000
0000
0000
0000
0000
0000
,
0000
0000
0000
0000
,
0000
0000
0000
0000
0001
0010
0100
0010
0001
1000
0010
0100
0001
0100
0010
1000
,
0001
0100
0010
1000
0001
0010
0100
1000
0001
0010
0100
1000
0001
0100
0010
1000
,
0010
0100
0001
1000
0100
1000
0001
1000
0100
1000
0001
0010
0001
1000
0001
0010
,
0001
1000
0001
1000
0010
0100
0010
1000
0010
0100
0001
1000
0001
0100
0010
1000
,
0100
0010
0100
0010
0001
0100
0010
1000
0010
0100
0001
1000
0010
0100
0001
1000
,
0001
0010
0100
1000
0001
0010
0001
1000
0100
1000
0001
0100
0010
1000
0010
0100
,
0001
1000
0100
0010
0001
1000
0001
1000
0001
1000
0100
1000
0001
1000
0001
0010
,
0100
0000
0000
1000
0000
0000
0001
0000
0000
0100
0000
0000
0010
0000
0000
1000
0000
0000
0100
0000
0000
0010
0000
0000
0001
0000
1000
0000
0010
0000
0100
0000
0001
0000
0100
0000
0000
0000
0000
0000
0000
0000
0002
0000
0000
0000
0000
0000
,
0203
0000
0320
0000
2030
0000
3000
0000
0001
0010
0100
1000
0001
0010
0100
1000
,
0001
0100
0010
1000
0001
0100
0010
1000
0001
0010
0100
1000
0001
0100
0010
1000
,
0001
0010
0100
1000
0001
1000
0001
1000
0001
1000
0010
0100
0010
0100
0010
0100
,
0001
1000
0100
0010
0001
1000
0001
1000
0001
1000
0100
0010
0100
0010
0100
0010
,
0001
1000
0100
1000
0010
0100
0001
1000
0010
0100
0001
1000
0001
0010
0100
1000
,
0001
0010
0100
1000
0001
1000
0010
0100
0001
1000
0001
0100
0010
1000
0001
0010
,
0100
0010
0001
1000
0100
1000
0100
1000
0100
1000
0001
0010
0001
0010
0001
0010
,
0001
0000
0000
0000
1000
0000
0000
0000
0000
0000
0000
0000
0001
0100
0001
0100
,
0001
0100
0001
0010
0100
1000
0001
0000
1001
0000
1000
0000
0000
0000
1010
0000
,
0010
0000
0100
0000
0101
0001
0000
1100
,
1000
0000
0100
1000
0010
1000
0100
1000
,
0010
1000
0100
1000
0010
1000
0100
1000
,
0010
0000
1000
0000
0101
0001
0000
1001
,
1000
0000
0100
0000
1100
1000
0000
1001
,
0001
0000
0100
0001
0010
0001
0100
0001
,
0010
0001
0100
0001
0010
0001
0100
0001
,
0010
0100
1000
0000
1001
0001
0000
0101
,
0100
0000
0010
0000
1010
1000
0000
1100
,
0100
0000
1000
0001
0010
0001
0100
0001
,
0010
0001
0100
0001
0010
0001
0100
0001
,
0010
0100
1000
0000
1001
0001
0000
0101
,
0100
0000
0010
0000
1010
1000
0000
1100
,
0100
0000
0000
0000
0010
0000
0000
0001
0000
0000
1000
0000
0000
0000
0001
0000
,
0000
0000
0100
0000
0010
0000
0000
1000
0000
0000
0100
0000
1000
0001
0010
0100
,
1000
0001
0100
0010
2000
0000
0000
0000
0000
0000
0000
0000
0000
0000
0000
0000
,
0000
3000
0000
0000
;
