#TITLE:O_L;
#SUBTITLE:;
#ARTIST:Ueno Yuki;
#TITLETRANSLIT:;
#SUBTITLETRANSLIT:;
#ARTISTTRANSLIT:;
#CREDIT:;
#BANNER:../bn.png;
#BACKGROUND:../veyron.png;
#LYRICSPATH:;
#CDTITLE:;
#MUSIC:02-O_L.ogg;
#OFFSET:-0.400;
#SAMPLESTART:43.450;
#SAMPLELENGTH:17.040;
#SELECTABLE:YES;
#BPMS:0.000=228.020,216.000=228.040,252.000=228.020;
#STOPS:;
#BGCHANGES:;
// cache tags:
#FIRSTBEAT:12.000;
#LASTBEAT:508.000;
#SONGFILENAME:Songs/Cirque du Veyron/Zaia - O_L/O_L.sm;
#HASMUSIC:1;
#HASBANNER:1;
#MUSICLENGTH:194.507;
// end cache tags

//---------------dance-single - Zaia----------------
#NOTES:
     dance-single:
     Zaia:
     Challenge:
     17:
     0.950,1.000,0.000,0.077,1.000,1278.000,0.000,15.000,0.000,0.000:
0000
0000
0000
0000
,
0000
0000
0000
0000
,
0000
0000
0000
0000
,
0001
0000
1000
0000
0001
0000
1000
0000
0001
0000
1000
0000
0001
1000
0001
1000
,
0001
0010
0100
1000
0001
1000
0100
1000
0001
0010
0001
0010
0100
1000
0001
0010
,
0001
1000
0010
0100
0001
1000
0010
0100
0001
1000
0100
0010
0100
1000
0001
1000
,
0001
0100
0010
1000
0010
0100
0001
1000
0001
0100
0010
1000
0001
0100
0010
1000
,
0001
0010
0100
1000
0001
0010
0100
0010
0001
1000
0010
0100
0010
1000
0001
1000
,
0100
0010
0100
1000
0001
0010
0001
1000
0100
1000
0001
1000
0100
0010
0100
0010
,
0001
1000
0001
0100
0010
1000
0001
0100
0001
1000
0100
1000
0001
0010
0100
1000
,
0001
0100
0010
0100
0001
1000
0010
1000
0010
0100
0001
1000
0001
0100
0010
1000
,
0001
0010
0100
0010
0001
1000
0100
0010
0001
1000
0010
0100
0001
1000
0001
0100
,
0001
1000
0100
1000
0001
0010
0100
1000
0001
1000
0100
1000
0100
0010
0001
1000
,
0001
0100
0010
1000
0001
0100
0010
1000
0001
1000
0100
0010
0100
1000
0001
0010
,
0001
1000
0010
1000
0001
0100
0010
1000
0001
0100
0001
0100
0010
1000
0001
1000
,
0001
0010
0100
1000
0100
0010
0001
0010
0001
1000
0010
1000
0001
0100
0010
1000
,
0001
0010
0100
1000
0100
0010
0001
1000
0001
0010
0100
1000
0001
0010
0100
1000
,
0001
0100
0010
1000
0010
0100
0001
0100
0001
1000
0100
0010
0001
1000
0100
1000
,
0001
1000
0010
0100
0010
1000
0001
0100
0010
1000
0001
1000
0001
0100
0010
0100
,
0001
1000
0010
0100
0001
1000
0100
0010
0001
1000
0010
0100
0001
1000
0100
0010
,
0001
1000
0010
0100
0000
0001
0010
0100
,
0000
1000
0010
1000
0000
0001
0010
0001
,
0100
0001
1000
0010
0100
0001
1000
0100
,
1000
0010
1000
0001
0010
0100
1000
0001
,
0100
0010
1000
0001
0000
0010
0100
1000
,
0000
0010
0100
0001
0000
1000
0010
0100
,
0001
0010
0001
1000
0100
1000
0010
1000
,
0001
0010
0100
1000
0001
0100
0010
1000
,
0001
0010
0001
0010
0001
0010
0100
1000
,
0001
0010
0001
0010
0001
0010
0100
1000
,
0001
1000
0100
1000
0001
0010
0001
1000
,
0001
0100
0010
1000
0001
0100
0001
1000
,
0001
0010
0001
0010
0100
1000
0001
0100
,
0010
1000
0001
1000
0100
0010
0100
1000
,
0001
0010
0001
1000
0010
0100
0001
1000
,
0001
0100
0010
1000
0001
0010
0001
0100
,
0020
0030
0000
0000
0000
0000
2000
3000
0000
0000
0000
0000
0200
0300
0000
0000
,
0000
0000
0020
0030
0000
0000
0000
0000
0200
0300
0000
0000
0000
0000
2000
3000
,
0000
0000
0000
0000
0002
0003
0000
0000
0000
0000
0100
0000
0000
0000
0000
0000
,
0001
0100
0001
1000
0010
0100
0001
1000
,
0001
0010
0100
1000
0100
0010
0001
1000
,
0001
0100
0010
1000
0010
0100
0001
1000
,
0100
1000
0010
0100
0001
1000
0100
0010
,
0100
1000
0001
0010
0100
1000
0001
0010
,
0001
1000
0010
0100
0001
1000
0001
0100
,
0010
0000
1000
0001
0000
0010
0000
0100
,
0000
1000
0000
0001
0000
0010
0000
0000
,
0001
1000
0100
0010
0001
1000
0100
1000
0001
0010
0100
0010
0100
1000
0100
1000
,
0001
0100
0010
1000
0010
0100
0001
1000
0001
0010
0100
0010
0001
1000
0001
0010
,
0001
1000
0010
0100
0001
1000
0001
0100
0001
1000
0010
1000
0010
0100
0001
1000
,
0001
0010
0100
0010
0001
1000
0100
0010
0001
1000
0001
0100
0010
1000
0001
0100
,
0001
1000
0100
1000
0001
0010
0001
1000
0100
0010
0100
1000
0001
1000
0100
0010
,
0001
1000
0010
0100
0001
1000
0010
1000
0001
0010
0100
1000
0001
0010
0100
1000
,
0001
0100
0010
1000
0010
0100
0001
1000
0010
0100
0001
1000
0001
0100
0010
0100
,
0001
0000
0000
0000
,
2000
0000
0000
0000
,
0000
0000
0000
0000
,
3002
0000
0000
0000
,
0023
0000
0230
0000
,
2300
0000
0000
0000
,
0000
0000
0000
0000
,
3002
0000
0000
0000
,
0203
0000
0302
0000
,
1003
0100
1000
0001
0010
0100
1000
0001
,
0100
0010
1000
0010
0100
0001
1000
0010
,
1000
0100
1000
0001
0010
0100
0010
0001
,
1000
0010
0100
0001
0010
0100
1000
0010
,
1000
0001
0010
0100
1000
0100
0010
0001
,
1000
0001
0100
0001
0010
0100
1000
0001
,
0100
0010
1000
0001
1000
0010
0100
0001
1000
0010
0100
0001
0100
0001
1000
0001
,
1000
0100
0010
0100
1000
0001
0010
0100
1000
0010
0100
0001
0010
0100
1000
0010
,
0100
0001
1000
0001
0100
0001
1000
0001
,
0100
0001
1000
0001
0100
0010
1000
0001
,
1000
0100
1000
0001
1000
0100
1000
0001
,
1000
0100
0010
0001
0100
0001
0010
0001
,
0100
0010
1000
0010
0100
0010
1000
0010
,
0100
0010
1000
0010
0100
0010
1000
0001
,
0010
0100
1000
0001
0010
0001
1000
0001
,
0100
0010
1000
0001
0010
0100
1000
0010
,
0100
0001
1000
0010
1000
0001
0100
0010
,
1000
0001
0100
0010
1000
0001
1000
0010
,
0100
0001
0010
0100
1000
0100
0010
0001
,
1000
0001
0100
0001
1000
0100
0010
0100
,
1000
0010
0100
0001
0100
0010
1000
0001
,
0100
0010
1000
0001
0100
0010
0100
0001
,
0010
0100
1000
0001
0010
0001
1000
0100
,
0010
0100
1000
0010
0100
0001
1000
0001
,
1000
0100
0010
0100
1000
0001
0010
0100
1000
0001
0100
0010
1000
0001
0100
0010
,
1000
0001
0010
0100
0010
0001
1000
0100
1000
0001
0100
0010
0100
0001
1000
0010
,
1000
0001
0010
0100
1000
0100
0010
0001
1000
0010
0100
0001
0100
0010
1000
0001
,
1000
0100
0010
0100
1000
0001
0010
0001
1000
0100
1000
0001
0010
0100
1000
0001
,
1000
0010
0100
0010
1000
0001
0100
0010
1000
0001
0010
0100
1000
0100
0010
0001
,
1000
0010
1000
0010
0100
0010
1000
0001
1000
0100
0010
0001
1000
0001
0010
0100
,
1000
0010
0100
0001
0010
0001
0100
0010
1000
0100
1000
0100
0010
0100
1000
0010
,
0100
0001
0100
0010
1000
0100
1000
0010
0100
0001
0010
0100
1000
0010
0100
0001
,
0010
0100
0010
0100
1000
0100
1000
0100
1000
0001
1000
0001
0100
0010
1000
0001
,
0100
0010
1000
0001
0100
0010
1000
0001
,
1000
0100
0010
0001
0010
0100
1000
0001
,
1000
0010
0100
0001
0100
0010
1000
0001
,
0010
0001
0100
0010
1000
0001
0010
0100
,
0010
0001
1000
0100
0010
0001
1000
0100
,
1000
0001
0100
0010
1000
0001
1000
0010
,
0100
0000
0001
1000
0000
0100
0000
0010
,
0000
0001
0000
1000
0000
0100
0000
0000
,
1000
0010
1000
0001
0100
0010
1000
0001
,
1000
0100
0010
0001
0010
0100
1000
0001
,
1000
0010
0100
0001
0100
0010
1000
0001
,
0010
0001
0100
0010
1000
0001
0010
0100
,
0010
0001
1000
0100
0010
0001
1000
0100
,
1000
0001
0100
0010
1000
0001
1000
0010
,
0100
0000
0001
1000
0000
0100
0000
0010
,
0000
0001
0000
1000
0000
0010
0000
0000
,
1000
0010
0100
0001
1000
0001
0100
0001
1000
0010
1000
0010
0100
0001
1000
0010
,
1000
0001
0010
0100
1000
0001
0010
0100
1000
0001
0100
0010
0100
0001
1000
0001
,
1000
0100
0010
0001
0010
0100
1000
0001
1000
0100
0010
0001
1000
0100
0010
0001
,
1000
0010
0100
0001
1000
0010
0100
0010
1000
0001
0010
0100
0010
0001
1000
0001
,
0100
0010
0100
0001
1000
0010
1000
0001
0100
0001
1000
0001
0100
0010
0100
0010
,
1000
0001
1000
0100
0010
0001
1000
0100
1000
0001
0100
0001
1000
0010
0100
0001
,
1000
0100
0010
0100
1000
0001
0010
0001
0010
0100
1000
0001
1000
0100
0010
0001
,
1000
0010
0100
0010
1000
0001
0100
0010
1000
0001
0010
0100
1000
0001
1000
0100
,
1000
0001
0100
0001
1000
0010
0100
0001
1000
0001
0100
0001
0100
0010
1000
0001
,
1000
0100
0010
0001
1000
0100
0010
0001
1000
0001
0100
0010
0100
0001
1000
0010
,
1000
0001
0010
0001
1000
0100
0010
0001
1000
0100
1000
0100
0010
0001
1000
0001
,
1000
0010
0100
0001
0100
0010
1000
0010
1000
0001
0010
0001
1000
0100
0010
0001
,
1000
0010
0100
0001
0100
0010
1000
0001
1000
0010
0100
0001
1000
0010
0100
0001
,
1000
0100
0010
0001
0010
0100
1000
0100
1000
0001
0100
0010
1000
0001
0100
0001
,
1000
0001
0010
0100
0010
0001
1000
0100
0010
0001
1000
0001
1000
0100
0010
0100
,
1000
0000
0000
0000
;
