#TITLE:Hypnosis;
#SUBTITLE:;
#ARTIST:Banya;
#TITLETRANSLIT:;
#SUBTITLETRANSLIT:;
#ARTISTTRANSLIT:;
#CREDIT:;
#BANNER:Hypnosis-bn.png;
#BACKGROUND:Hypnosis-bg.png;
#LYRICSPATH:;
#CDTITLE:ducky.png;
#MUSIC:Hypnosis.mp3;
#OFFSET:-0.020;
#SAMPLESTART:33.276;
#SAMPLELENGTH:12.000;
#SELECTABLE:YES;
#BPMS:0.000=180.200;
#STOPS:80.000=0.999
;
#BGCHANGES:;
// cache tags:
#FIRSTBEAT:0.000;
#LASTBEAT:273.000;
#SONGFILENAME:Songs/Fresh Flock of Fantastic Files F4/(Ducky) Hypnosis/Hypnosis.sm;
#HASMUSIC:1;
#HASBANNER:1;
#MUSICLENGTH:98.816;
// end cache tags

//---------------dance-single - Copied from----------------
#NOTES:
     dance-single:
     Copied from:
     Hard:
     12:
     1.000,1.000,1.000,0.121,0.977,703.000,162.000,12.000,0.000,0.000:
1100
0000
1100
0000
1100
0011
0000
0110
,
0000
1100
0000
0101
0000
1001
0000
0110
,
1010
0000
1010
0000
1010
0101
0000
1100
,
1000
0001
0100
0000
1001
0000
0101
0000
0010
1000
0001
0000
0110
0000
1000
0010
,
0101
0010
1001
0100
1010
0101
0010
1100
,
0001
1010
0100
0011
1000
0110
0001
1100
,
1001
0010
0101
1000
0011
1010
0100
0011
,
1000
0100
0010
0100
0010
0000
0001
0010
0000
1000
0010
0000
0100
1000
0001
0100
,
1001
1000
1100
0100
0110
0011
0001
0101
,
0100
0110
0100
1100
0100
0110
0010
1010
,
1001
0001
0101
0100
0110
1010
0100
1001
,
0010
1000
0001
1000
0001
0000
0100
0001
0000
0001
1000
0000
0100
1000
0001
0100
,
1001
0000
1000
0000
0110
0000
0001
1000
0100
0010
0001
0000
1100
0000
0010
0001
,
1000
0000
0010
0000
0101
0000
0010
1000
0100
0001
0100
0000
0011
0000
1000
0010
,
0100
0000
0001
0000
1100
0000
0010
0001
0100
0010
1000
0000
0110
0000
0001
1000
,
0100
0000
0010
0000
1100
0000
0010
0001
0100
1000
0100
0000
1001
0000
0010
1000
,
0100
0000
0010
0000
0101
0000
0010
1000
0001
0100
0001
0000
0110
0000
1000
0100
,
0010
0000
0001
0000
1100
0000
0010
0001
0010
0100
1000
0000
1001
0000
0100
0010
,
0001
0000
1000
0000
0110
0000
0001
1000
0010
0001
0010
0000
1100
0000
0010
0001
,
1000
0000
0100
0000
0011
0000
1100
0000
0010
0000
1001
0000
0110
1000
0001
0000
,
2002
3003
1100
1000
1100
1000
1100
0110
,
0010
0011
0001
0101
0001
0011
0010
1010
,
0010
0011
0101
0001
0101
0001
0101
1010
,
0010
0000
0110
0000
0010
0000
0011
0000
0010
0000
1010
0000
2200
0000
0000
3300
,
0220
0000
0000
0330
1001
0000
0100
0000
1001
0000
0100
0000
1001
0000
1010
0000
,
1000
1100
0100
0110
0100
0101
0100
1100
,
1000
1010
0110
0001
0110
0001
0110
1100
,
0100
0000
0110
0000
0010
0000
1010
0000
1000
0000
1100
0000
2020
0000
0000
3030
,
0202
0000
0000
0303
1001
0000
1000
0100
1000
0000
0001
0100
0010
0100
0001
1000
,
0100
0000
0010
0100
1000
0000
0100
0010
0001
0000
0010
0100
1000
0001
0100
0010
,
1000
0000
0001
1000
0100
0000
0010
0001
0100
0000
0010
0100
0010
1000
0001
0010
,
0100
0000
0010
0001
0100
0000
0010
1000
0100
0000
0010
0001
1000
0001
0010
0100
,
0010
0000
0001
0100
0010
0000
1000
0001
0100
0000
0001
1000
0010
1000
0010
0100
,
0001
0000
1000
0100
0010
0000
0001
0100
1000
0000
0100
0001
0010
1000
0010
0001
,
1000
0000
0010
0100
0001
0000
0010
0100
1000
0000
0001
0100
1000
0100
0010
1000
,
0100
0000
0010
0001
1000
0000
0100
1000
0001
0000
0100
0010
1000
0100
0001
0100
,
1000
0000
0010
0000
0100
0010
1000
0000
0101
0000
0010
0000
0101
0000
1000
0100
,
0000
0010
0001
0000
0001
0010
0100
0000
1010
0000
0100
0000
1010
0000
1000
0100
,
0000
0010
0001
0000
1000
0001
0100
0000
1001
0000
0100
0000
1001
0000
0010
0001
,
0000
1000
0100
0000
0001
1000
0100
0000
0011
0000
1000
0000
0011
0000
1000
0010
,
0000
0100
0001
0000
0010
0001
1000
0000
0110
0000
0001
0000
0110
0000
1000
0001
,
0000
0001
1000
0000
0100
0010
0001
0000
1100
0000
0001
0000
1100
0000
0001
0100
,
0000
0100
0001
0000
1000
0100
0001
0000
1100
0000
0010
0000
0101
0000
0010
1000
,
0000
0010
0100
0000
0001
0010
1000
0000
0110
0000
0001
0000
0110
0000
1000
0001
,
1000
0001
1000
0001
1001
0000
0100
0000
1100
0000
1000
0100
0010
0001
1000
0000
,
0110
0000
0001
1000
0100
0010
0100
0000
0011
0000
0100
0001
1000
0100
0010
0000
,
1100
0000
0001
0100
0010
1000
0100
0000
0011
0000
1000
0010
0100
0001
0100
0000
,
1001
0000
0010
0100
0010
1000
0001
0000
1010
0000
0100
1000
0010
0100
0001
0000
,
1100
0000
0010
0100
1000
0001
0100
0000
0110
0000
0001
0100
1000
0100
0001
0000
,
0110
0000
1000
0100
0001
0100
1000
0000
0110
0000
0010
0001
0100
0001
0010
0000
,
1001
0000
0100
1000
0010
1000
0100
0000
1001
0000
1000
0100
0010
0001
0010
0000
,
1100
0000
0001
0010
0100
1000
0100
0000
0011
0000
1000
0010
0100
0001
0100
0000
,
1001
0100
1100
0000
1100
0000
1100
0011
,
0000
0101
0000
1010
0000
0110
0000
1100
,
0000
0011
1001
0000
1001
0000
1001
0110
,
0000
0000
0101
0000
0000
0000
1010
0000
0000
0000
1001
0100
1001
0000
0110
0000
,
1001
0000
0110
1000
0110
0000
1000
0100
0010
0000
0001
1000
0001
1000
0010
0100
,
0010
0000
1000
0001
1000
0000
0010
0001
0010
0000
1000
0010
1000
0001
0100
1000
,
0100
0000
0010
1000
0001
0000
1000
0100
0010
0000
0001
1000
0100
0010
0001
0100
,
0001
0000
0100
0010
0001
0000
1000
0010
0100
0000
0001
0010
0100
0010
0001
1000
,
0001
0000
1000
0001
0100
0000
0010
1000
0100
0000
0010
0001
0010
0100
1000
0100
,
0010
0000
0001
1000
0100
0000
1000
0001
0100
0000
0010
1000
0100
1000
0010
0001
,
0010
0000
1000
0100
0001
0000
0001
0100
1000
0000
0010
0100
0010
1000
0100
0010
,
0001
0000
0100
1000
0010
0000
0001
1000
0100
0000
0010
0001
0100
1000
0100
0010
,
1000
0000
0010
0001
0100
0000
0010
1000
0100
0000
0010
0001
0100
1000
0100
0001
,
1000
0000
0100
0010
0001
0000
0100
0010
1000
0000
0001
0010
0100
0001
0100
1000
,
0010
0000
1000
0001
0100
0000
0010
1000
0100
0000
0010
0001
1000
0100
0010
0001
,
1000
0000
0000
0000
0100
0000
0010
0000
1001
0000
0000
0000
1100
0000
0000
0000
1001
0000
0000
0000
0011
0000
0000
0000
1000
0001
1000
0001
1000
0001
1000
0000
,
0110
2002
3003
0000
0000
0000
0000
0000
;
