#TITLE:Sonata Claro De Luna Mov.3;
#SUBTITLE:;
#ARTIST:Beethoven;
#TITLETRANSLIT:;
#SUBTITLETRANSLIT:;
#ARTISTTRANSLIT:;
#CREDIT:;
#BANNER:moon.png;
#BACKGROUND:moon-bg.png;
#LYRICSPATH:;
#CDTITLE:;
#MUSIC:Sonata Claro de Luna Mov3.mp3;
#OFFSET:-0.180;
#SAMPLESTART:0.001;
#SAMPLELENGTH:12.000;
#SELECTABLE:YES;
#BPMS:0.000=176.000,372.000=82.000,384.000=176.000;
#STOPS:55.750=0.540
,278.500=0.320
,291.750=0.560
,382.750=1.240
,383.875=1.240
;
#BGCHANGES:;
// cache tags:
#FIRSTBEAT:0.000;
#LASTBEAT:424.000;
#SONGFILENAME:Songs/IzzySM Keyboard Mega Pack/Sonata Claro de Luna Mov.3/Sonata Claro De Luna Mov.3.sm;
#HASMUSIC:1;
#HASBANNER:1;
#MUSICLENGTH:155.799;
// end cache tags

//---------------dance-single - ----------------
#NOTES:
     dance-single:
     :
     Hard:
     10:
     1.000,1.000,1.000,0.039,1.000,1008.000,205.000,6.000,0.000,0.000:  // measure 1
1000
0100
0010
0001
1000
0100
0010
0001
1000
0100
0010
0001
1000
0100
0010
0001
,  // measure 2
1000
0001
0100
0010
1000
0001
0100
0010
1000
0001
0100
0010
1001
0000
1001
0000
,  // measure 3
0001
0010
0100
1000
0001
0010
0100
1000
0001
0010
0100
1000
0001
0010
0100
1000
,  // measure 4
0010
0100
0001
1000
0010
0100
0001
1000
0010
0100
0001
1000
0110
0000
0110
0000
,  // measure 5
0100
0010
0100
0010
1000
0001
0100
0010
1000
0001
0100
0010
1000
0001
0100
0010
,  // measure 6
1000
0100
1000
0100
1000
0001
1000
0001
0100
0010
0100
0010
1001
0000
1001
0000
,  // measure 7
0100
1000
0100
1000
0001
0010
0100
1000
0001
0010
1000
0100
1001
0000
1001
0000
,  // measure 8
0010
0001
0010
0001
1000
0100
0010
0001
1000
0100
0001
0010
1001
0000
1001
0000
,  // measure 9
1001
0100
0010
1000
0001
1000
0010
0100
,  // measure 10
0001
1000
0100
0001
0010
0100
0001
1000
,  // measure 11
0100
0001
1000
0100
0001
0100
0010
0001
,  // measure 12
1000
0000
0100
0000
0001
0000
0010
0000
1000
0000
0010
0000
0001
0000
0100
1000
,  // measure 13
0001
0000
0000
1000
0001
0000
0000
1000
0001
0000
0000
1000
0001
0000
0000
1000
,  // measure 14
0001
0000
0000
0000
2002
0000
0000
0000
0000
0000
0000
0000
0000
0000
0000
3003
,  // measure 15
0100
0010
0100
0001
1000
0010
0100
0001
1000
0010
0100
0001
1000
0010
0100
0001
,  // measure 16
0100
1000
0100
0010
0100
0001
0100
1000
0100
0001
0100
0010
1001
0000
1001
0000
,  // measure 17
0100
0010
1000
0001
0100
0010
1000
0001
0100
0010
1000
0001
0100
0010
1000
0001
,  // measure 18
0010
0100
0010
0001
0010
0100
0010
1000
0010
0001
0010
0100
1001
0000
1001
0000
,  // measure 19
1000
0010
1000
0010
0100
0001
0100
0001
1000
0100
1000
0100
0010
0001
0010
0001
,  // measure 20
1000
0100
0010
0001
1000
0100
0010
0001
1000
0100
0010
0001
1000
0100
0010
0001
,  // measure 21
1000
0000
0000
0000
1000
0000
0000
0000
0000
0000
0000
0000
0001
0000
0000
1000
,  // measure 22
1000
0000
0000
0000
0000
0010
0000
0000
0001
0000
0000
0000
0000
0000
0000
0000
1000
0000
0000
0000
0000
0000
0000
0000
0000
0000
0000
0000
0000
0000
0000
0000
0000
0000
0000
0000
0000
0000
0000
0000
0100
0000
0000
0000
0000
0000
0000
0000
0010
0000
0000
0000
0000
0000
0000
0000
0000
0000
0000
0000
1000
0000
0000
0000
,  // measure 23
0001
0000
0000
0000
0010
0000
0000
0000
0000
0000
1000
0000
0100
0000
0000
0001
,  // measure 24
0100
0000
0000
0000
0100
0000
0000
0000
0000
0000
1000
0000
0001
0000
0000
1000
,  // measure 25
0001
0110
0000
0110
0000
1100
0110
0011
,  // measure 26
1100
1010
0000
1010
0000
0011
0110
1100
,  // measure 27
0011
0101
0000
0101
0000
0110
1001
0110
,  // measure 28
0110
1001
0000
1001
0000
1100
0110
0011
,  // measure 29
0101
0000
0011
0000
,  // measure 30
0001
0010
0001
0010
1001
0000
0000
0000
0000
0000
0000
0000
0000
0000
0000
0000
,  // measure 31
1010
0000
1100
0000
,  // measure 32
1000
0100
1000
0100
1001
0000
0000
0000
0000
0000
0000
0000
0000
0000
0000
0000
,  // measure 33
1001
0000
0000
0000
0000
0000
0000
0000
0000
1000
0100
0010
0001
0001
0010
0100
,  // measure 34
1000
1000
0100
0010
0001
0001
0010
0100
1000
1000
0100
0010
0001
0001
0010
0100
,  // measure 35
1000
0100
0010
0001
1000
0100
0010
0001
1000
0100
0010
0001
0001
0010
0100
1000
,  // measure 36
0010
0000
0000
0000
0000
0000
0000
0000
1000
0010
1000
0010
1000
0010
1000
0010
,  // measure 37
1000
0000
0000
0000
0110
0000
0000
0000
0000
0001
0100
0010
1000
0100
0001
1000
,  // measure 38
0010
0001
0100
0010
1000
0100
0001
1000
0010
0001
0100
0010
1000
0100
0001
1000
,  // measure 39
0010
1000
0100
0010
0001
0010
0100
0010
1000
0001
0010
0100
1000
0001
0100
0010
,  // measure 40
0001
1000
0100
0010
0001
1000
0100
0010
0001
0010
0001
1000
0100
0010
0001
0100
,  // measure 41
1001
0000
1100
0000
,  // measure 42
0011
0000
0110
0000
,  // measure 43
1010
1100
1100
1100
1100
1100
1010
1001
,  // measure 44
0011
0101
0101
0101
0101
0101
0011
1001
,  // measure 45
1001
0110
0110
0110
0110
0110
1100
0110
,  // measure 46
0011
1010
1010
1010
1010
1010
1100
1010
,  // measure 47
1001
1100
1100
1001
0100
0011
0011
0101
,  // measure 48
0010
1100
1001
1001
0010
1100
1010
1010
,  // measure 49
0110
0011
0101
0011
0101
0011
0101
1001
,  // measure 50
1100
1010
1100
1010
1100
1010
1100
1010
,  // measure 51
1001
0110
1001
0110
1001
0110
1001
0110
,  // measure 52
0110
1100
0011
1100
0011
1100
0011
0110
,  // measure 53
1100
0101
0101
1001
0010
1100
1100
1010
,  // measure 54
0100
0011
0011
0101
0010
1100
1001
1001
,  // measure 55
0100
0101
0101
1000
0011
0110
0110
1100
,  // measure 56
0001
1010
1100
1100
0010
0011
0011
0101
,  // measure 57
1000
0000
0000
0000
0000
0000
0000
0000
0000
0000
0000
0000
1000
0000
0000
0001
,  // measure 58
1000
0000
0000
0000
0011
0000
0000
0000
0110
0000
0000
0000
1100
0000
0000
0100
,  // measure 59
1001
0000
0000
0000
0000
0000
0000
0000
0000
0000
0000
0000
0100
0000
0000
0010
,  // measure 60
0100
0000
0000
0000
1100
0000
0000
0000
0011
0000
0000
0000
1100
0000
0000
0010
,  // measure 61
0101
0000
0000
0000
0000
0000
0000
0100
1010
0000
0000
0000
0000
0000
0000
0010
,  // measure 62
0101
0000
0000
0000
0000
0000
0000
0100
1010
0000
0000
0000
0000
0000
0000
0000
,  // measure 63
1000
0010
1000
0010
1000
0010
1000
0010
1000
0010
1000
0010
1000
0010
1000
0010
,  // measure 64
1000
0100
1000
0100
1000
0100
1000
0100
1000
0100
1000
0100
1000
0100
1000
0100
,  // measure 65
1001
0010
0100
0001
1000
0010
0100
0001
1000
0010
0100
0001
1000
0010
0100
0001
,  // measure 66
1000
0100
0010
0001
1000
0100
0010
0001
1000
0100
0010
0001
0110
0000
0110
0000
,  // measure 67
1000
0010
0100
0001
1000
0010
0100
0001
1000
0010
0100
0001
1000
0010
0100
0001
,  // measure 68
0010
0100
1000
0100
1000
0001
0010
0001
1000
0100
0010
0001
0110
0000
0110
0000
,  // measure 69
1000
0000
0000
1000
0100
0010
0001
0000
0000
1000
0100
0010
0001
0000
0000
1000
0100
0010
0001
0000
0000
1000
0100
0010
,  // measure 70
0001
0000
0000
1000
0100
0010
0001
0000
0000
0000
0000
0000
0000
0000
0000
0000
0000
0000
0000
0000
0000
0000
0000
0000
,  // measure 71
0001
0000
0000
0001
0010
0100
1000
0000
0000
0001
0010
0100
1000
0000
0000
0001
0010
0100
1000
0000
0000
0001
0010
0100
,  // measure 72
1000
0000
0100
0010
0001
0000
2002
0000
0000
0000
0000
0000
0000
0000
0000
0000
,  // measure 73
0000
0000
0000
0000
0000
0000
0000
0000
0000
0000
0000
0000
0000
0000
0000
3003
,  // measure 74
0100
0000
0000
0000
0010
0000
0000
0000
0000
0000
0000
0000
0100
0000
0000
0010
,  // measure 75
1000
0000
0000
0000
0001
0000
0000
0000
0000
0000
1000
0000
0001
0000
0000
0010
,  // measure 76
0100
0000
0000
0000
1000
0000
0000
0000
0000
0000
0001
0000
1000
0000
0000
0100
,  // measure 77
0010
0000
0000
0000
0100
0000
0000
0000
0000
0000
0100
0000
0001
0000
0000
0100
,  // measure 78
1001
0000
0000
0000
1001
0000
0000
0000
0000
0000
0000
0000
1001
0000
0000
1100
,  // measure 79
1001
0000
0000
0000
0110
0000
0000
0000
0000
0000
0011
0000
1100
0000
0000
0011
,  // measure 80
0101
0000
0000
0000
1010
0000
0000
0000
0000
0000
1010
0000
0101
0000
0000
1100
,  // measure 81
1001
0000
0000
0000
1001
0000
0000
0000
0000
0000
0110
0000
1001
0000
0000
0110
,  // measure 82
1001
0010
0100
1000
0001
0010
0100
1000
,  // measure 83
0001
0010
0100
1000
0001
0010
0100
1000
,  // measure 84
1000
0100
0010
1000
0100
0010
1000
0100
0010
1000
0100
0010
,  // measure 85
1000
0100
0010
0001
0001
0010
0100
1000
1000
0100
0010
0001
0001
0010
0100
1000
,  // measure 86
0001
0010
0100
0001
0010
0100
0001
0010
0100
0001
0010
0100
,  // measure 87
0001
0010
0100
1000
1000
0100
0010
0001
0001
0010
0100
1000
1000
0100
0010
0001
,  // measure 88
1000
0000
0000
0000
0000
0100
0000
0000
0000
0000
0000
0000
0000
0000
0000
0000
1000
0000
0000
0000
0000
0010
0000
0000
0000
0000
0000
0000
0000
0000
0000
0000
1000
0000
0000
0000
0000
0100
0000
0000
0000
0000
0000
0000
0000
0000
0000
0000
1000
0000
0000
0000
0100
0000
0000
0000
0010
0000
0000
0000
0001
0000
0000
0000
,  // measure 89
1000
0000
0000
0000
0100
0000
0000
0000
0010
0000
0000
0000
0001
0000
0000
0000
0100
0000
0000
0000
0010
0000
0000
0000
0100
0000
0000
0000
0010
0000
0000
0000
1000
0000
0000
0000
0000
0010
0000
0000
0001
0000
0000
0000
0000
0100
0000
0000
0001
0000
0000
0000
0000
0100
0000
0000
1000
0000
0000
0000
0000
0010
0000
0000
,  // measure 90
0001
0000
0000
0000
0000
0010
0000
0000
0000
0000
0000
0000
0000
0000
0000
0000
0001
0000
0000
0000
0000
0010
0000
0000
0000
0000
0000
0000
0000
0000
0000
0000
0001
0000
0000
0000
0000
0010
0000
0000
0000
0000
0000
0000
0000
0000
0000
0000
0001
0000
0000
0000
0010
0000
0000
0000
0100
0000
0000
0000
1000
0000
0000
0000
,  // measure 91
0001
0010
0100
1000
0001
0010
0100
1000
0001
0010
0100
1000
0001
0010
0100
1000
,  // measure 92
1000
0100
1000
0100
0010
0100
0010
0100
0010
1000
0010
1000
0001
0100
0001
0100
,  // measure 93
1000
0000
0000
0000
0100
0000
0000
0000
0010
0000
0000
0000
0001
0000
0000
0000
1000
0000
0000
0000
0100
0000
0000
0000
1000
0000
0000
0000
0000
0010
0000
0000
0100
0000
0000
0000
0010
0000
0000
0000
0100
0000
0000
0000
0000
0001
0000
0000
1000
0000
0000
0000
0000
0010
0000
0000
1000
0000
0100
0000
0010
0000
0001
0000
,  // measure 94
1000
0100
1000
0100
1000
0100
1000
0100
1000
0100
1000
0100
1000
0100
1000
0100
1000
0100
1000
0100
0010
0001
1000
0100
,  // measure 95
0010
0000
0000
0000
0000
0100
0000
0000
0010
0000
0000
0000
0000
0001
0000
0000
0100
0000
0000
0000
0000
1000
0000
0000
0001
0000
0000
0000
0000
1000
0000
0000
0101
0000
0000
0000
0010
0000
0000
0000
0100
0000
0000
0000
1000
0000
0000
0000
0100
0000
0000
0000
1000
0000
0000
0000
0010
0000
0000
0000
0100
0000
0000
0000
,  // measure 96
0001
0000
1000
0000
0010
0000
0000
0000
0100
0000
0000
0000
0001
0000
0000
2000
0000
0000
0000
0000
0000
0000
3000
0000
0002
0000
0000
0000
0000
0000
0000
0003
,  // measure 97
1000
0000
0000
0000
0000
0000
0000
0000
0000
0000
0000
0000
0100
0000
0000
0010
,  // measure 98
0100
0000
0000
0000
1100
0000
0000
0000
0110
0000
0000
0000
0011
0000
0000
0100
,  // measure 99
1001
0000
0000
0000
0000
0000
0000
0000
0000
0000
0000
0000
1000
0000
0000
0010
,  // measure 100
0001
0000
0000
0000
1001
0000
0000
0000
0110
0000
0000
0000
1001
0000
0000
0100
,  // measure 101
1010
0000
0000
0000
0000
0000
0000
0010
0101
0000
0000
0000
0000
0000
0000
0001
,  // measure 102
1100
0000
0000
0000
0000
0000
0000
1000
0101
0000
0000
0000
0000
0000
0000
0000
,  // measure 103
1000
0100
0010
0001
1000
0100
0010
0001
0010
0100
1000
0001
0010
0100
1000
0001
,  // measure 104
0100
0010
1000
0100
0010
0001
0100
0010
1000
0010
0100
1000
0001
0100
0010
0001
,  // measure 105
0100
0001
0100
1000
0010
1000
0010
0001
1000
0100
0010
0001
0001
0010
0100
1000
,  // measure 106
1100
0000
0011
0000
,  // measure 107
1001
0000
0000
0000
;
