#TITLE:Defender;
#SUBTITLE:;
#ARTIST:Mr Pokeahole;
#TITLETRANSLIT:;
#SUBTITLETRANSLIT:;
#ARTISTTRANSLIT:;
#CREDIT:Mad Matt;
#BANNER:../Banner.png;
#BACKGROUND:../bg.png;
#LYRICSPATH:;
#CDTITLE:;
#MUSIC:Defender.ogg;
#OFFSET:0.029;
#SAMPLESTART:39.007;
#SAMPLELENGTH:24.300;
#SELECTABLE:YES;
#DISPLAYBPM:178.000;
#BPMS:0.000=160.000,168.000=177.778,296.000=160.000;
#STOPS:;
#BGCHANGES:;
// cache tags:
#FIRSTBEAT:16.000;
#LASTBEAT:356.000;
#SONGFILENAME:Songs/Tachyon Epsilon/Defender - [Mad Matt]/Defender.sm;
#HASMUSIC:1;
#HASBANNER:1;
#MUSICLENGTH:133.323;
// end cache tags

//---------------dance-single - Mad Matt----------------
#NOTES:
     dance-single:
     Mad Matt:
     Challenge:
     20:
     1.000,1.000,0.008,0.293,1.000,1140.000,1.000,39.000,0.000,0.000:

0000
0000
0000
0000
,
0000
0000
0000
0000
,
0000
0000
0000
0000
,
0000
0000
0000
0000
,
1000
0010
0100
0001
0010
0001
1000
0100
1000
0001
0100
0010
1000
0100
1000
0000
,
0100
1000
0001
0100
0010
1000
0100
1000
0001
0100
0010
0100
0001
0000
0000
0000
,
1000
0100
1000
0010
0100
0001
1000
0100
1000
0001
0010
0001
0100
0010
1000
0001
,
1000
0100
1000
0010
0100
0001
1000
0100
1000
0001
0010
0001
0100
0010
1000
0001
0010
0001
1000
0100
1000
0001
0000
0000
,
0200
0300
0000
0000
0000
0000
0000
0000
0000
0200
0300
0000
0000
0000
0000
0000
0000
0000
0200
0300
0000
0000
0000
0000
0000
0000
0000
0200
0300
0000
0000
0000
0000
0000
0000
0000
0200
0300
0000
0000
0000
0000
0000
0000
0000
0000
0000
0000
,
0001
0000
0100
0000
0001
0000
1000
0000
0100
0000
0010
0000
0100
0000
1000
0000
0010
0000
0100
0000
0001
0000
1000
0000
0001
0000
0000
0100
0000
0000
0010
0000
0000
1000
0000
0000
0001
0000
0000
1000
0000
0000
0100
0000
0000
1000
0000
0000
,
0001
0100
0010
0100
0001
1000
0100
0010
0001
1000
0100
1000
0010
0100
0001
1000
0100
1000
0001
0010
0001
0100
0010
1000
,
0001
0000
1000
0000
0100
0000
0010
0000
0100
0000
1000
0000
0010
0000
0100
0000
0001
0000
0010
0000
0001
0000
1000
0000
0020
0000
0000
0000
0000
0000
0000
0000
0000
0000
0000
0000
0000
0000
0000
0000
0000
0000
0000
0000
0000
0030
0000
0000
,
1000
0010
0100
0001
1000
0100
1000
0001
1000
0010
0100
0001
1000
0100
1000
0001
,
0010
0000
0000
0100
0000
0000
0010
0000
0000
0001
0000
0000
1000
0000
0000
0010
0000
0000
1000
0000
0000
0001
0000
0000
0010
0000
0000
0100
0000
0000
0010
0000
0000
0001
0000
0000
1000
0000
0100
0000
1000
0000
0010
0000
0100
0000
0001
0000
,
1000
0100
1000
0001
0100
0010
0100
0001
1000
0100
1000
0001
0100
0010
0100
0001
,
1000
0000
0000
0100
0000
0000
0010
0000
0000
0100
0000
0000
1000
0000
0000
0001
0000
0000
0100
0000
0000
0001
0000
0000
1000
0000
0000
0100
0000
0000
0010
0000
0000
0100
0000
0000
1000
0000
0010
0000
0100
0000
0001
0000
0010
0000
0001
0000
,
1000
0100
1000
0001
0100
0001
1000
0010
1000
0001
0010
0100
0010
0001
0100
0010
,
1000
0100
1000
0001
1000
0010
0100
0001
1000
0010
1000
0100
0010
0100
1000
0001
0100
0010
0100
0001
1000
0100
0000
0000
,
1000
0010
0100
0001
1000
0100
1000
0001
1000
0010
0100
0001
1000
0100
1000
0001
,
0010
0000
0000
0100
0000
0000
0010
0000
0000
0001
0000
0000
1000
0000
0000
0010
0000
0000
1000
0000
0000
0001
0000
0000
0010
0000
0000
0100
0000
0000
0010
0000
0000
0001
0000
0000
1000
0000
0100
0000
1000
0000
0010
0000
0100
0000
0001
0000
,
1000
0100
0010
0100
1000
0010
0100
0001
1000
0100
1000
0001
0100
0010
1000
0001
1000
0100
0010
0001
0100
0001
1000
0010
,
1000
0100
0010
0001
1000
0010
1000
0001
0010
0001
0100
0010
1000
0001
1000
0100
1000
0001
0200
0000
0000
0300
0000
0000
,
0001
0010
0001
1000
0010
0100
0010
1000
0001
0010
0001
1000
0010
0100
0010
1000
,
0001
0000
0000
0010
0000
0000
0100
0000
0000
0010
0000
0000
0001
0000
0000
1000
0000
0000
0010
0000
0000
1000
0000
0000
0001
0000
0000
0010
0000
0000
0100
0000
0000
0010
0000
0000
0001
0000
0100
0000
0010
0000
1000
0000
0100
0000
1000
0000
,
0001
0000
0100
0000
0001
0000
0000
0100
0001
0000
1000
0000
0010
0000
0100
0000
,
0001
0000
0100
0000
0001
0100
0001
0000
1000
0000
0100
0000
0010
0000
0001
0000
,
0100
0001
1000
0100
1000
0001
0100
0010
1000
0100
1000
0001
0010
0001
0100
0010
,
1000
0100
1000
0100
0010
0100
0010
0001
0010
0001
0100
0001
0100
0010
1000
0001
,
0200
0000
0000
0000
0000
0000
0000
0000
0000
0000
0000
0000
0310
1000
0001
0010
0100
1000
0010
0100
0001
1000
0100
0010
,
0100
1000
0010
0100
0001
1000
0001
0010
0001
0100
0010
1000
0004
0000
0000
0000
0000
0000
0000
0000
0000
0000
0000
0000
,
1003
0000
0000
0001
0000
0000
0010
0000
0000
0100
0000
0000
1000
0000
0000
0100
0000
0000
0010
0000
0000
0001
0000
0000
1000
0000
0010
0000
1000
0000
0100
0000
0010
0000
0001
0000
1000
0000
0001
0000
0100
0000
0010
0000
1000
0000
0100
0000
,
1000
0001
0010
0001
0100
0010
0100
0001
0010
0001
1000
0100
1000
0001
0010
0001
0100
0010
0100
0001
0010
0001
1000
0100
,
1000
0010
0100
0001
0010
0100
1000
0001
1000
0010
0100
0001
1000
0001
0010
0100
1000
0010
0100
0001
1000
0001
0010
0100
,
1000
0001
1000
0010
0100
0001
1000
0001
0010
0100
1000
0010
0100
0001
1000
0100
1000
0001
0010
0100
1000
0010
1000
0001
,
0010
0000
0100
0000
1000
0000
0001
0100
0010
0100
0001
0010
0001
1000
0100
1000
0010
0100
0001
1000
0100
0010
0100
1000
,
0010
0100
0001
1000
0100
1000
0010
0100
0001
1000
0001
0010
0100
0010
0001
0100
0010
1000
0001
0010
0001
0100
0010
1000
,
0001
1000
0100
1000
0010
0100
0001
1000
0001
0010
0001
0100
0010
1000
0100
1000
0001
0100
0010
1000
0100
0010
0100
1000
,
0001
0100
0001
0010
0100
0010
0001
0100
0010
0100
0001
1000
0100
0000
0000
0010
0000
0000
0001
0000
0000
0000
0000
0000
,
1000
0100
0010
0001
1000
0001
0100
0001
1000
0100
0010
0100
1000
0001
0100
0001
,
1000
0100
1000
0001
0100
0010
1000
0001
1000
0100
1000
0001
0100
0010
0100
0001
,
1000
0100
0010
0100
1000
0010
0100
0001
1000
0001
0010
0100
0010
0001
0100
0010
1000
0001
1000
0100
1000
0010
0100
0001
,
1000
0100
1000
0001
0100
0010
0100
0001
0010
0001
1000
0010
0100
0010
1000
0100
1000
0001
0100
0010
1000
0100
1000
0001
,
1000
0000
0000
0001
0100
0001
1000
0000
0000
0001
0010
0001
,
1000
0000
0000
0100
0010
0100
1000
0000
0000
0001
0100
0001
,
1000
0000
0000
0010
0100
0010
1000
0000
0000
0001
0010
0001
,
1000
0000
0000
0010
0100
0010
1000
0000
0000
0001
0010
0001
,
1000
0100
1000
0010
0100
0001
1000
0001
0010
0100
0010
0001
1000
0001
0100
0001
0010
0100
1000
0001
1000
0010
0100
0010
,
1000
0001
1000
0100
0010
0001
1000
0001
0100
0010
0100
0001
1000
0100
1000
0010
0100
0010
1000
0001
0010
0001
0100
0010
,
0100
0001
0010
0001
0100
0010
1000
0001
1000
0100
0010
0100
1000
0001
1000
0010
1000
0100
0010
0001
1000
0001
0100
0010
,
0100
0001
1000
0001
0010
0100
1000
0001
1000
0010
0100
0010
1000
0001
0010
0001
0100
0010
0100
0001
1000
0100
1000
0010
,
0200
0000
0000
0000
0000
0000
0000
0000
0000
0000
0301
1000
,
0020
0000
0230
0000
,
0302
0000
0000
0000
0000
0000
0000
0000
0000
0000
0013
0001
,
2000
0000
0000
0000
,
3001
0100
0001
0010
0100
1000
0001
1000
0010
0100
0010
1000
0001
1000
0100
1000
0010
0100
0001
1000
0001
0010
0100
0010
,
0001
1000
0001
0100
0010
1000
0001
1000
0100
0010
0100
1000
0001
0100
0001
0010
0100
0010
0001
1000
0010
1000
0100
0010
,
0100
1000
0010
1000
0100
0010
0001
1000
0001
0100
0010
0100
0001
1000
0001
0010
0001
0100
0010
1000
0001
1000
0100
0010
,
0100
1000
0001
1000
0010
0100
0001
1000
0001
0010
0100
0010
0001
1000
0010
1000
0100
0010
0100
1000
0001
1000
0010
0100
,
0002
0000
0203
0000
,
0320
0000
0230
0000
,
0302
0000
2003
0000
,
3200
0000
0320
0000
,
0230
0000
2300
0000
,
3002
0000
0203
0000
,
0320
0000
2030
0000
,
3200
0000
0320
0000
,
0031
1000
0010
1000
0010
0100
0010
0100
0001
0100
0010
1000
,
0001
1000
0010
1000
0010
0100
0010
0100
0001
1000
0100
1000
,
0001
0010
0001
0100
0001
1000
0010
1000
0100
1000
0010
0100
,
0002
0000
0023
0000
,
0031
0000
0100
0000
0010
0000
1000
0000
0001
0010
0001
0100
0001
1000
0010
0100
,
0001
1000
0001
0010
0001
1000
0010
0100
0001
0010
0001
1000
0010
0100
0001
1000
,
0200
0000
0320
0000
,
0032
0000
2003
0000
,
3001
0100
0010
0100
0001
0010
0001
1000
0010
0100
0001
1000
0001
0010
0100
0010
0001
0100
0010
1000
0001
1000
0100
0010
,
0001
1000
0100
1000
0010
0100
0010
1000
0100
1000
0001
0100
0010
0100
0001
0010
0001
1000
0010
0100
0010
1000
0100
1000
,
0001
0100
0001
0010
0100
0010
0001
1000
0010
1000
0100
0010
0100
1000
0010
0100
0001
1000
0100
1000
0001
0100
0010
1000
,
0001
0100
0010
1000
0001
0010
0001
1000
0001
0100
0010
1000
0001
0010
0001
1000
,
0100
0000
0000
0010
0000
0000
0100
0000
0000
1000
0000
0000
0001
0000
0000
0100
0000
0000
0001
0000
0000
1000
0000
0000
0100
0000
0000
0010
0000
0000
0100
0000
0000
1000
0000
0000
0001
0000
0010
0000
0001
0000
0100
0000
0010
0000
1000
0000
,
0001
0010
0001
1000
0010
0100
0010
1000
0001
0010
0001
1000
0010
0100
0010
1000
,
0001
0000
0000
0010
0000
0000
0100
0000
0000
0010
0000
0000
0001
0000
0000
1000
0000
0000
0010
0000
0000
1000
0000
0000
0001
0000
0000
0010
0000
0000
0100
0000
0000
0010
0000
0000
0001
0000
0100
0000
0010
0000
1000
0000
0100
0000
1000
0000
,
0002
0000
0000
0000
,
0000
0000
0000
0000
,
0023
0000
0000
0000
,
0000
0000
0000
0000
,
0230
0000
0000
0000
,
0000
0000
0000
0000
,
2300
0000
0000
0000
,
0010
0000
0000
0000
,
3001
0000
0000
0000
;

//---------------dance-single - Mad Matt----------------
#NOTES:
     dance-single:
     Mad Matt:
     Hard:
     19:
     1.000,1.000,0.008,0.293,1.000,1140.000,1.000,39.000,0.000,0.000:











0000
0000
0000
0000
,
0000
0000
0000
0000
,
0000
0000
0000
0000
,
0000
0000
0000
0000
,
1000
0010
0100
0001
0010
0001
1000
0100
1000
0001
0100
0010
1000
0100
1000
0000
,
0100
1000
0001
0100
0010
1000
0100
1000
0001
0100
0010
0100
0001
0000
0000
0000
,
1000
0100
1000
0010
0100
0001
1000
0100
1000
0001
0010
0001
0100
0010
1000
0001
,
1000
0100
1000
0010
0100
0001
1000
0100
1000
0001
0010
0001
0100
0010
1000
0001
0010
0001
1000
0100
1000
0001
0000
0000
,
0200
0300
0000
0000
0000
0000
0000
0000
0000
0200
0300
0000
0000
0000
0000
0000
0000
0000
0200
0300
0000
0000
0000
0000
0000
0000
0000
0200
0300
0000
0000
0000
0000
0000
0000
0000
0200
0300
0000
0000
0000
0000
0000
0000
0000
0000
0000
0000
,
0001
0000
0100
0000
0001
0000
1000
0000
0100
0000
0010
0000
0100
0000
1000
0000
0010
0000
0100
0000
0001
0000
1000
0000
0001
0000
0000
0100
0000
0000
0010
0000
0000
1000
0000
0000
0001
0000
0000
1000
0000
0000
0100
0000
0000
1000
0000
0000
,
0001
0100
0010
0100
0001
1000
0100
0010
0001
1000
0100
1000
0010
0100
0001
1000
0100
1000
0001
0010
0001
0100
0010
1000
,
0001
0000
1000
0000
0100
0000
0010
0000
0100
0000
1000
0000
0010
0000
0100
0000
0001
0000
0010
0000
0001
0000
1000
0000
0020
0000
0000
0000
0000
0000
0000
0000
0000
0000
0000
0000
0000
0000
0000
0000
0000
0000
0000
0000
0000
0030
0000
0000
,
1000
0010
0100
0001
1000
0100
1000
0001
1000
0010
0100
0001
1000
0100
1000
0001
,
0010
0000
0000
0100
0000
0000
0010
0000
0000
0001
0000
0000
1000
0000
0000
0010
0000
0000
1000
0000
0000
0001
0000
0000
0010
0000
0000
0100
0000
0000
0010
0000
0000
0001
0000
0000
1000
0000
0100
0000
1000
0000
0010
0000
0100
0000
0001
0000
,
1000
0100
1000
0001
0100
0010
0100
0001
1000
0100
1000
0001
0100
0010
0100
0001
,
1000
0000
0000
0100
0000
0000
0010
0000
0000
0100
0000
0000
1000
0000
0000
0001
0000
0000
0100
0000
0000
0001
0000
0000
1000
0000
0000
0100
0000
0000
0010
0000
0000
0100
0000
0000
1000
0000
0010
0000
0100
0000
0001
0000
0010
0000
0001
0000
,
1000
0100
1000
0001
0100
0001
1000
0010
1000
0001
0010
0100
0010
0001
0100
0010
,
1000
0100
1000
0001
1000
0010
0100
0001
1000
0010
1000
0100
0010
0100
1000
0001
0100
0010
0100
0001
1000
0100
0000
0000
,
1000
0010
0100
0001
1000
0100
1000
0001
1000
0010
0100
0001
1000
0100
1000
0001
,
0010
0000
0000
0100
0000
0000
0010
0000
0000
0001
0000
0000
1000
0000
0000
0010
0000
0000
1000
0000
0000
0001
0000
0000
0010
0000
0000
0100
0000
0000
0010
0000
0000
0001
0000
0000
1000
0000
0100
0000
1000
0000
0010
0000
0100
0000
0001
0000
,
1000
0100
0010
0100
1000
0010
0100
0001
1000
0100
1000
0001
0100
0010
1000
0001
1000
0100
0010
0001
0100
0001
1000
0010
,
1000
0100
0010
0001
1000
0010
1000
0001
0010
0001
0100
0010
1000
0001
1000
0100
1000
0001
0200
0000
0000
0300
0000
0000
,
0001
0010
0001
1000
0010
0100
0010
1000
0001
0010
0001
1000
0010
0100
0010
1000
,
0001
0000
0000
0010
0000
0000
0100
0000
0000
0010
0000
0000
0001
0000
0000
1000
0000
0000
0010
0000
0000
1000
0000
0000
0001
0000
0000
0010
0000
0000
0100
0000
0000
0010
0000
0000
0001
0000
0100
0000
0010
0000
1000
0000
0100
0000
1000
0000
,
0001
0000
0100
0000
0001
0000
0000
0100
0001
0000
1000
0000
0010
0000
0100
0000
,
0001
0000
0100
0000
0001
0100
0001
0000
1000
0000
0100
0000
0010
0000
0001
0000
,
0100
0001
1000
0100
1000
0001
0100
0010
1000
0100
1000
0001
0010
0001
0100
0010
,
1000
0100
1000
0100
0010
0100
0010
0001
0010
0001
0100
0001
0100
0010
1000
0001
,
0200
0000
0000
0000
0000
0000
0000
0000
0000
0000
0000
0000
0310
1000
0001
0010
0100
1000
0010
0100
0001
1000
0100
0010
,
0100
1000
0010
0100
0001
1000
0001
0010
0001
0100
0010
1000
0004
0000
0000
0000
0000
0000
0000
0000
0000
0000
0000
0000
,
1003
0000
0000
0001
0000
0000
0010
0000
0000
0100
0000
0000
1000
0000
0000
0100
0000
0000
0010
0000
0000
0001
0000
0000
1000
0000
0010
0000
1000
0000
0100
0000
0010
0000
0001
0000
1000
0000
0001
0000
0100
0000
0010
0000
1000
0000
0100
0000
,
1000
0001
0010
0001
0100
0010
0100
0001
0010
0001
1000
0100
1000
0001
0010
0001
0100
0010
0100
0001
0010
0001
1000
0100
,
1000
0010
0100
0001
0010
0100
1000
0001
1000
0010
0100
0001
1000
0001
0010
0100
1000
0010
0100
0001
1000
0001
0010
0100
,
1000
0001
1000
0010
0100
0001
1000
0001
0010
0100
1000
0010
0100
0001
1000
0100
1000
0001
0010
0100
1000
0010
1000
0001
,
0010
0000
0100
0000
1000
0000
0001
0100
0010
0100
0001
0010
0001
1000
0100
1000
0010
0100
0001
1000
0100
0010
0100
1000
,
0010
0100
0001
1000
0100
1000
0010
0100
0001
1000
0001
0010
0100
0010
0001
0100
0010
1000
0001
0010
0001
0100
0010
1000
,
0001
1000
0100
1000
0010
0100
0001
1000
0001
0010
0001
0100
0010
1000
0100
1000
0001
0100
0010
1000
0100
0010
0100
1000
,
0001
0100
0001
0010
0100
0010
0001
0100
0010
0100
0001
1000
0100
0000
0000
0010
0000
0000
0001
0000
0000
0000
0000
0000
,
1000
0100
0010
0001
1000
0001
0100
0001
1000
0100
0010
0100
1000
0001
0100
0001
,
1000
0100
1000
0001
0100
0010
1000
0001
1000
0100
1000
0001
0100
0010
0100
0001
,
1000
0100
0010
0100
1000
0010
0100
0001
1000
0001
0010
0100
0010
0001
0100
0010
1000
0001
1000
0100
1000
0010
0100
0001
,
1000
0100
1000
0001
0100
0010
0100
0001
0010
0001
1000
0010
0100
0010
1000
0100
1000
0001
0100
0010
1000
0100
1000
0001
,
1000
0000
0000
0001
0100
0001
1000
0000
0000
0001
0010
0001
,
1000
0000
0000
0100
0010
0100
1000
0000
0000
0001
0100
0001
,
1000
0000
0000
0010
0100
0010
1000
0000
0000
0001
0010
0001
,
1000
0000
0000
0010
0100
0010
1000
0000
0000
0001
0010
0001
,
1000
0100
0010
0100
1000
0001
0010
0100
0010
0001
1000
0001
0100
0001
1000
0010
0100
0001
1000
0010
0100
0010
1000
0001
,
1000
0100
1000
0001
0010
0100
1000
0001
0010
0100
0010
0001
1000
0100
1000
0001
0010
0001
1000
0100
1000
0001
0100
0001
,
1000
0010
0100
0010
1000
0001
0100
0010
0100
0001
1000
0001
0010
0001
1000
0100
0010
0001
1000
0100
0010
0100
1000
0001
,
1000
0010
1000
0001
0100
0010
1000
0001
0100
0010
0100
0001
1000
0100
1000
0001
0010
0001
1000
0100
1000
0001
0100
0001
,
2000
0000
0000
0000
0000
0000
0000
0000
0000
0000
3001
0100
,
0020
0000
0230
0000
,
0302
0000
0000
0000
0000
0000
0000
0000
0000
0000
0013
0001
,
2000
0000
0000
0000
,
3001
0010
0100
0010
0001
1000
0100
0010
0100
1000
0001
1000
0010
1000
0001
0100
0010
1000
0001
0100
0010
0100
0001
1000
,
0001
0010
0001
1000
0100
0010
0001
1000
0100
0010
0100
1000
0001
0010
0001
1000
0100
1000
0001
0010
0001
1000
0010
1000
,
0001
0100
0010
0100
0001
1000
0010
0100
0010
1000
0001
1000
0100
1000
0001
0010
0100
1000
0001
0010
0100
0010
0001
1000
,
0001
0100
0001
1000
0010
0100
0001
1000
0010
0100
0010
1000
0001
0010
0001
1000
0010
1000
0001
0100
0001
1000
0100
1000
,
0002
0000
0203
0000
,
0320
0000
0230
0000
,
0302
0000
2003
0000
,
3200
0000
0320
0000
,
0230
0000
2300
0000
,
3002
0000
0203
0000
,
0320
0000
2030
0000
,
3200
0000
0320
0000
,
0031
1000
0010
1000
0010
0100
0010
0100
0001
0100
0010
1000
,
0001
1000
0010
1000
0010
0100
0010
0100
0001
1000
0100
1000
,
0001
0010
0001
0100
0001
1000
0010
1000
0100
1000
0010
0100
,
0002
0000
0023
0000
,
0031
0000
0100
0000
0010
0000
1000
0000
0001
0010
0001
0100
0001
1000
0010
0100
,
0001
1000
0001
0010
0001
1000
0010
0100
0001
0010
0001
1000
0010
0100
0001
1000
,
0200
0000
0320
0000
,
0032
0000
2003
0000
,
3001
0100
0010
0100
0001
0010
0001
1000
0010
0100
0001
1000
0001
0010
0100
0010
0001
0100
0010
1000
0001
1000
0100
0010
,
0001
1000
0100
1000
0010
0100
0010
1000
0100
1000
0001
0100
0010
0100
0001
0010
0001
1000
0010
0100
0010
1000
0100
1000
,
0001
0100
0001
0010
0100
0010
0001
1000
0010
1000
0100
0010
0100
1000
0010
0100
0001
1000
0100
1000
0001
0100
0010
1000
,
0001
0100
0010
1000
0001
0010
0001
1000
0001
0100
0010
1000
0001
0010
0001
1000
,
0100
0000
0000
0010
0000
0000
0100
0000
0000
1000
0000
0000
0001
0000
0000
0100
0000
0000
0001
0000
0000
1000
0000
0000
0100
0000
0000
0010
0000
0000
0100
0000
0000
1000
0000
0000
0001
0000
0010
0000
0001
0000
0100
0000
0010
0000
1000
0000
,
0001
0010
0001
1000
0010
0100
0010
1000
0001
0010
0001
1000
0010
0100
0010
1000
,
0001
0000
0000
0010
0000
0000
0100
0000
0000
0010
0000
0000
0001
0000
0000
1000
0000
0000
0010
0000
0000
1000
0000
0000
0001
0000
0000
0010
0000
0000
0100
0000
0000
0010
0000
0000
0001
0000
0100
0000
0010
0000
1000
0000
0100
0000
1000
0000
,
0002
0000
0000
0000
,
0000
0000
0000
0000
,
0023
0000
0000
0000
,
0000
0000
0000
0000
,
0230
0000
0000
0000
,
0000
0000
0000
0000
,
2300
0000
0000
0000
,
0010
0000
0000
0000
,
3001
0000
0000
0000
;

//---------------dance-single - Mad Matt----------------
#NOTES:
     dance-single:
     Mad Matt:
     Easy:
     16:
     1.000,1.000,0.008,0.293,1.000,1108.000,1.000,39.000,0.000,0.000:



0000
0000
0000
0000
,
0000
0000
0000
0000
,
0000
0000
0000
0000
,
0000
0000
0000
0000
,
1000
0010
0100
0001
0010
0001
1000
0100
1000
0001
0100
0010
1000
0100
1000
0000
,
0100
1000
0001
0100
0010
1000
0100
1000
0001
0100
0010
0100
0001
0000
0000
0000
,
1000
0100
1000
0010
0100
0001
1000
0100
1000
0001
0010
0001
0100
0010
1000
0001
,
1000
0100
1000
0001
0010
0100
0010
0001
1000
0001
0010
0001
1000
0010
0100
0001
1000
0100
1000
0001
0100
0010
0000
0000
,
0200
0300
0000
0000
0000
0000
0000
0000
0000
0200
0300
0000
0000
0000
0000
0000
0000
0000
0200
0300
0000
0000
0000
0000
0000
0000
0000
0200
0300
0000
0000
0000
0000
0000
0000
0000
0200
0300
0000
0000
0000
0000
0000
0000
0000
0000
0000
0000
,
0001
0000
0100
0000
0001
0000
1000
0000
0001
0000
0010
0000
0100
0000
0010
0000
0001
0000
1000
0000
0010
0000
1000
0000
0001
0000
0000
0100
0000
0000
0010
0000
0000
1000
0000
0000
0001
0000
0000
1000
0000
0000
0100
0000
0000
1000
0000
0000
,
0001
0100
0010
1000
0001
1000
0100
1000
0001
0100
0010
1000
0001
0100
0001
1000
0100
0010
0100
1000
0001
1000
0010
0100
,
0001
0000
0100
0000
0010
0000
1000
0000
0001
0000
1000
0000
0100
0000
1000
0000
0001
0000
0100
0000
0001
0000
1000
0000
0020
0000
0000
0000
0000
0000
0000
0000
0000
0000
0000
0000
0000
0000
0000
0000
0000
0000
0000
0000
0000
0030
0000
0000
,
1000
0010
0100
0001
1000
0100
1000
0001
1000
0010
0100
0001
1000
0100
1000
0001
,
0010
0000
0000
0100
0000
0000
0010
0000
0000
0001
0000
0000
1000
0000
0000
0010
0000
0000
1000
0000
0000
0001
0000
0000
0010
0000
0000
0100
0000
0000
0010
0000
0000
0001
0000
0000
1000
0000
0001
0000
1000
0000
0010
0000
0100
0000
0001
0000
,
1000
0100
1000
0001
0100
0010
0100
0001
1000
0100
1000
0001
0100
0010
0100
0001
,
1000
0000
0000
0100
0000
0000
0010
0000
0000
0100
0000
0000
1000
0000
0000
0001
0000
0000
0100
0000
0000
0001
0000
0000
1000
0000
0000
0100
0000
0000
0010
0000
0000
0100
0000
0000
1000
0000
0010
0000
0100
0000
0001
0000
1000
0000
0001
0000
,
1000
0100
1000
0001
0100
0001
1000
0010
1000
0001
0010
0100
0010
0001
0100
0010
,
1000
0100
1000
0001
1000
0010
0100
0001
1000
0010
1000
0001
0010
0100
0010
0001
1000
0001
0100
0001
1000
0100
0000
0000
,
1000
0010
0100
0001
1000
0100
1000
0001
1000
0010
0100
0001
1000
0100
1000
0001
,
0010
0000
0000
0100
0000
0000
0010
0000
0000
0001
0000
0000
1000
0000
0000
0010
0000
0000
1000
0000
0000
0001
0000
0000
0010
0000
0000
0100
0000
0000
0010
0000
0000
0001
0000
0000
1000
0000
0001
0000
1000
0000
0010
0000
0100
0000
0001
0000
,
1000
0100
0010
0001
1000
0001
0100
0001
1000
0010
1000
0001
1000
0100
0010
0100
1000
0001
0010
0100
1000
0001
1000
0010
,
0100
0001
1000
0100
1000
0001
0100
0010
0100
0001
1000
0010
0100
0001
1000
0010
1000
0001
0200
0000
0000
0300
0000
0000
,
0001
0010
0001
1000
0010
0100
0010
1000
0001
0010
0001
1000
0010
0100
0010
1000
,
0001
0000
0000
0010
0000
0000
0100
0000
0000
0010
0000
0000
0001
0000
0000
1000
0000
0000
0010
0000
0000
1000
0000
0000
0001
0000
0000
0010
0000
0000
0100
0000
0000
0010
0000
0000
0001
0000
0100
0000
0010
0000
1000
0000
0001
0000
1000
0000
,
0001
0000
0100
0000
0001
0000
0000
0100
0001
0000
1000
0000
0010
0000
0100
0000
,
0001
0000
0100
0000
0001
0100
0001
0000
1000
0000
0100
0000
0010
0000
0001
0000
,
0100
0001
1000
0100
1000
0001
0100
0010
1000
0100
1000
0001
0010
0001
0100
0010
,
1000
0100
1000
0100
0010
0100
0010
0001
0010
0001
0100
0001
0100
0010
1000
0001
,
0200
0000
0000
0000
0000
0000
0000
0000
0000
0000
0000
0000
0310
1000
0001
0010
0100
1000
0001
1000
0100
0010
0001
1000
,
0001
0100
0010
1000
0001
1000
0100
0010
0100
1000
0001
0100
0004
0000
0000
0000
0000
0000
0000
0000
0000
0000
0000
0000
,
1003
0000
0000
0001
0000
0000
0010
0000
0000
0100
0000
0000
1000
0000
0000
0100
0000
0000
0010
0000
0000
0001
0000
0000
1000
0000
0001
0000
1000
0000
0100
0000
0010
0000
0001
0000
1000
0000
0001
0000
0100
0000
0010
0000
1000
0000
0001
0000
,
1000
0100
1000
0001
1000
0010
0100
0001
1000
0001
0010
0001
1000
0001
0100
0010
0100
0001
1000
0001
0010
0001
1000
0100
,
0010
0001
1000
0001
0010
0100
0010
0001
1000
0001
0100
0001
1000
0100
0010
0100
1000
0001
0100
0001
1000
0001
0010
0100
,
0010
0001
1000
0100
0010
0100
1000
0001
1000
0010
0100
0001
1000
0100
1000
0001
0100
0001
1000
0010
0100
0001
1000
0001
,
0010
0000
0100
0000
1000
0000
0001
0100
0010
1000
0001
0010
0001
1000
0100
1000
0001
0100
0010
1000
0001
1000
0100
1000
,
0010
0100
0001
1000
0001
0010
0100
0010
0001
1000
0001
0100
0010
1000
0001
0010
0100
0010
0001
1000
0001
0100
0010
1000
,
0100
1000
0001
0010
0100
0010
0001
1000
0010
0100
0001
1000
0100
1000
0010
1000
0001
0010
0001
1000
0100
1000
0010
1000
,
0001
0010
0100
0010
0001
0100
0010
1000
0001
1000
0100
0010
0001
0000
0000
1000
0000
0000
0010
0000
0000
0000
0000
0000
,
1000
0100
0010
0001
1000
0001
0100
0001
1000
0100
0010
0100
1000
0001
0100
0001
,
1000
0100
1000
0001
0100
0010
1000
0001
1000
0100
1000
0001
0100
0010
0100
0001
,
1000
0100
0010
0100
1000
0001
0100
0001
1000
0001
0010
0100
0010
0001
1000
0010
1000
0001
0010
0001
1000
0010
0100
0001
,
1000
0010
1000
0001
0100
0010
1000
0001
1000
0100
0010
0100
1000
0001
1000
0010
1000
0001
0100
0010
0100
0001
1000
0001
,
0010
0000
0000
0001
0100
0001
1000
0000
0000
0001
0010
0001
,
1000
0000
0000
0100
0010
0100
1000
0000
0000
0001
0100
0001
,
1000
0000
0000
0010
0100
0010
1000
0000
0000
0001
0010
0001
,
1000
0000
0000
0010
0100
0010
1000
0000
0000
0001
0010
0001
,
1000
0000
0000
0000
0000
0000
0000
0000
0000
0000
0100
0000
0000
0000
0000
0000
0000
0000
0000
0010
0000
0000
0000
0000
0000
0000
0000
0000
0000
0100
0000
0000
0000
0000
0000
0000
0000
0000
1000
0000
0000
0000
0000
0000
0000
0000
0000
0000
0001
0000
0000
0000
0000
0000
0000
0000
0000
0000
1000
0000
0000
0000
0000
0000
0000
0000
0000
0010
0000
0000
0000
0000
0000
0000
0000
0000
0000
0100
0000
0000
0000
0000
0000
0000
0000
0000
0001
0000
0000
0000
0000
0000
0000
0000
0000
0000
1000
0000
0000
0000
0000
0000
0000
0000
0000
0000
0100
0000
0000
0000
0000
0000
0000
0000
0000
1000
0000
0000
0000
0000
0000
0000
0000
0000
0000
0001
0000
0000
0000
0000
0000
0000
0000
0000
0100
0000
0000
0000
0000
0000
0000
0000
0000
0000
0001
0000
0000
0000
0000
0000
0000
0000
0000
0000
0010
0000
0000
0000
0000
0000
0000
0000
0000
0100
0000
0000
0000
0000
0000
0000
0000
0000
0000
0010
0000
0000
0000
0000
0000
0000
0000
0000
0001
0000
0000
0000
0000
0000
0000
0000
0000
0000
,
1000
0000
0000
0000
0000
0000
0000
0000
0000
0000
0010
0000
0000
0000
0000
0000
0000
0000
0000
0100
0000
0000
0000
0000
0000
0000
0000
0000
0000
0010
0000
0000
0000
0000
0000
0000
0000
0000
1000
0000
0000
0000
0000
0000
0000
0000
0000
0000
0001
0000
0000
0000
0000
0000
0000
0000
0000
0000
1000
0000
0000
0000
0000
0000
0000
0000
0000
0100
0000
0000
0000
0000
0000
0000
0000
0000
0000
0010
0000
0000
0000
0000
0000
0000
0000
0000
0100
0000
0000
0000
0000
0000
0000
0000
0000
0000
1000
0000
0000
0000
0000
0000
0000
0000
0000
0000
0001
0000
0000
0000
0000
0000
0000
0000
0000
0010
0000
0000
0000
0000
0000
0000
0000
0000
0000
0001
0000
0000
0000
0000
0000
0000
0000
0000
1000
0000
0000
0000
0000
0000
0000
0000
0000
0000
0010
0000
0000
0000
0000
0000
0000
0000
0000
0000
1000
0000
0000
0000
0000
0000
0000
0000
0000
0001
0000
0000
0000
0000
0000
0000
0000
0000
0000
0100
0000
0000
0000
0000
0000
0000
0000
0000
0001
0000
0000
0000
0000
0000
0000
0000
0000
0000
,
1000
0000
0000
0000
0000
0000
0000
0000
0000
0000
0010
0000
0000
0000
0000
0000
0000
0000
0000
0100
0000
0000
0000
0000
0000
0000
0000
0000
0000
0010
0000
0000
0000
0000
0000
0000
0000
0000
1000
0000
0000
0000
0000
0000
0000
0000
0000
0000
0001
0000
0000
0000
0000
0000
0000
0000
0000
0000
1000
0000
0000
0000
0000
0000
0000
0000
0000
0100
0000
0000
0000
0000
0000
0000
0000
0000
0000
0010
0000
0000
0000
0000
0000
0000
0000
0000
0001
0000
0000
0000
0000
0000
0000
0000
0000
0000
1000
0000
0000
0000
0000
0000
0000
0000
0000
0000
0010
0000
0000
0000
0000
0000
0000
0000
0000
1000
0000
0000
0000
0000
0000
0000
0000
0000
0000
0001
0000
0000
0000
0000
0000
0000
0000
0000
0010
0000
0000
0000
0000
0000
0000
0000
0000
0000
0001
0000
0000
0000
0000
0000
0000
0000
0000
0000
0100
0000
0000
0000
0000
0000
0000
0000
0000
0010
0000
0000
0000
0000
0000
0000
0000
0000
0000
0100
0000
0000
0000
0000
0000
0000
0000
0000
0001
0000
0000
0000
0000
0000
0000
0000
0000
0000
,
1000
0000
0000
0000
0000
0000
0000
0000
0000
0000
0100
0000
0000
0000
0000
0000
0000
0000
0000
0010
0000
0000
0000
0000
0000
0000
0000
0000
0000
0100
0000
0000
0000
0000
0000
0000
0000
0000
1000
0000
0000
0000
0000
0000
0000
0000
0000
0000
0001
0000
0000
0000
0000
0000
0000
0000
0000
0000
1000
0000
0000
0000
0000
0000
0000
0000
0000
0010
0000
0000
0000
0000
0000
0000
0000
0000
0000
0100
0000
0000
0000
0000
0000
0000
0000
0000
0010
0000
0000
0000
0000
0000
0000
0000
0000
0000
1000
0000
0000
0000
0000
0000
0000
0000
0000
0000
0001
0000
0000
0000
0000
0000
0000
0000
0000
0100
0000
0000
0000
0000
0000
0000
0000
0000
0000
0001
0000
0000
0000
0000
0000
0000
0000
0000
1000
0000
0000
0000
0000
0000
0000
0000
0000
0000
0100
0000
0000
0000
0000
0000
0000
0000
0000
0000
1000
0000
0000
0000
0000
0000
0000
0000
0000
0001
0000
0000
0000
0000
0000
0000
0000
0000
0000
0010
0000
0000
0000
0000
0000
0000
0000
0000
0001
0000
0000
0000
0000
0000
0000
0000
0000
0000
,
2000
0000
0000
0000
0000
0000
0000
0000
0000
0000
3001
0100
,
0020
0000
0230
0000
,
0302
0000
0000
0000
0000
0000
0000
0000
0000
0000
0013
0001
,
2000
0000
0000
0000
,
3001
0000
0000
0000
0000
0000
0000
0000
0000
0000
0010
0000
0000
0000
0000
0000
0000
0000
0000
0100
0000
0000
0000
0000
0000
0000
0000
0000
0000
0010
0000
0000
0000
0000
0000
0000
0000
0000
0001
0000
0000
0000
0000
0000
0000
0000
0000
0000
1000
0000
0000
0000
0000
0000
0000
0000
0000
0000
0001
0000
0000
0000
0000
0000
0000
0000
0000
0100
0000
0000
0000
0000
0000
0000
0000
0000
0000
0010
0000
0000
0000
0000
0000
0000
0000
0000
1000
0000
0000
0000
0000
0000
0000
0000
0000
0000
0001
0000
0000
0000
0000
0000
0000
0000
0000
0000
0010
0000
0000
0000
0000
0000
0000
0000
0000
0001
0000
0000
0000
0000
0000
0000
0000
0000
0000
1000
0000
0000
0000
0000
0000
0000
0000
0000
0010
0000
0000
0000
0000
0000
0000
0000
0000
0000
1000
0000
0000
0000
0000
0000
0000
0000
0000
0000
0100
0000
0000
0000
0000
0000
0000
0000
0000
0010
0000
0000
0000
0000
0000
0000
0000
0000
0000
0100
0000
0000
0000
0000
0000
0000
0000
0000
1000
0000
0000
0000
0000
0000
0000
0000
0000
0000
,
0001
0000
0000
0000
0000
0000
0000
0000
0000
0000
0100
0000
0000
0000
0000
0000
0000
0000
0000
0010
0000
0000
0000
0000
0000
0000
0000
0000
0000
0100
0000
0000
0000
0000
0000
0000
0000
0000
0001
0000
0000
0000
0000
0000
0000
0000
0000
0000
1000
0000
0000
0000
0000
0000
0000
0000
0000
0000
0001
0000
0000
0000
0000
0000
0000
0000
0000
0010
0000
0000
0000
0000
0000
0000
0000
0000
0000
0100
0000
0000
0000
0000
0000
0000
0000
0000
0010
0000
0000
0000
0000
0000
0000
0000
0000
0000
0001
0000
0000
0000
0000
0000
0000
0000
0000
0000
1000
0000
0000
0000
0000
0000
0000
0000
0000
0100
0000
0000
0000
0000
0000
0000
0000
0000
0000
1000
0000
0000
0000
0000
0000
0000
0000
0000
0001
0000
0000
0000
0000
0000
0000
0000
0000
0000
0100
0000
0000
0000
0000
0000
0000
0000
0000
0000
0001
0000
0000
0000
0000
0000
0000
0000
0000
1000
0000
0000
0000
0000
0000
0000
0000
0000
0000
0010
0000
0000
0000
0000
0000
0000
0000
0000
1000
0000
0000
0000
0000
0000
0000
0000
0000
0000
,
0001
0000
0000
0000
0000
0000
0000
0000
0000
0000
0100
0000
0000
0000
0000
0000
0000
0000
0000
0010
0000
0000
0000
0000
0000
0000
0000
0000
0000
0100
0000
0000
0000
0000
0000
0000
0000
0000
0001
0000
0000
0000
0000
0000
0000
0000
0000
0000
1000
0000
0000
0000
0000
0000
0000
0000
0000
0000
0001
0000
0000
0000
0000
0000
0000
0000
0000
0010
0000
0000
0000
0000
0000
0000
0000
0000
0000
0100
0000
0000
0000
0000
0000
0000
0000
0000
1000
0000
0000
0000
0000
0000
0000
0000
0000
0000
0001
0000
0000
0000
0000
0000
0000
0000
0000
0000
0100
0000
0000
0000
0000
0000
0000
0000
0000
0001
0000
0000
0000
0000
0000
0000
0000
0000
0000
1000
0000
0000
0000
0000
0000
0000
0000
0000
0100
0000
0000
0000
0000
0000
0000
0000
0000
0000
1000
0000
0000
0000
0000
0000
0000
0000
0000
0000
0010
0000
0000
0000
0000
0000
0000
0000
0000
0100
0000
0000
0000
0000
0000
0000
0000
0000
0000
0010
0000
0000
0000
0000
0000
0000
0000
0000
1000
0000
0000
0000
0000
0000
0000
0000
0000
0000
,
0001
0000
0000
0000
0000
0000
0000
0000
0000
0000
0010
0000
0000
0000
0000
0000
0000
0000
0000
0100
0000
0000
0000
0000
0000
0000
0000
0000
0000
0010
0000
0000
0000
0000
0000
0000
0000
0000
0001
0000
0000
0000
0000
0000
0000
0000
0000
0000
1000
0000
0000
0000
0000
0000
0000
0000
0000
0000
0001
0000
0000
0000
0000
0000
0000
0000
0000
0100
0000
0000
0000
0000
0000
0000
0000
0000
0000
0010
0000
0000
0000
0000
0000
0000
0000
0000
0100
0000
0000
0000
0000
0000
0000
0000
0000
0000
0001
0000
0000
0000
0000
0000
0000
0000
0000
0000
1000
0000
0000
0000
0000
0000
0000
0000
0000
0010
0000
0000
0000
0000
0000
0000
0000
0000
0000
1000
0000
0000
0000
0000
0000
0000
0000
0000
0001
0000
0000
0000
0000
0000
0000
0000
0000
0000
0010
0000
0000
0000
0000
0000
0000
0000
0000
0000
0001
0000
0000
0000
0000
0000
0000
0000
0000
1000
0000
0000
0000
0000
0000
0000
0000
0000
0000
0100
0000
0000
0000
0000
0000
0000
0000
0000
1000
0000
0000
0000
0000
0000
0000
0000
0000
0000
,
0002
0000
0203
0000
,
0320
0000
0230
0000
,
0302
0000
2003
0000
,
3200
0000
0320
0000
,
0230
0000
2300
0000
,
3002
0000
0203
0000
,
0320
0000
2030
0000
,
3200
0000
0320
0000
,
0031
1000
0010
1000
0010
0100
0010
0100
0001
0100
0010
1000
,
0001
1000
0010
1000
0010
0100
0010
0100
0001
1000
0100
1000
,
0001
0010
0001
0100
0001
1000
0010
1000
0100
1000
0010
0100
,
0002
0000
0023
0000
,
0031
0000
0100
0000
0010
0000
1000
0000
0001
0010
0001
0100
0001
1000
0010
0100
,
0001
1000
0001
0010
0001
1000
0010
0100
0001
0010
0001
1000
0010
0100
0001
1000
,
0200
0000
0320
0000
,
0032
0000
2003
0000
,
3001
0100
0010
1000
0001
1000
0100
1000
0010
0100
0001
1000
0001
0010
0100
1000
0001
1000
0010
0100
0010
1000
0001
0010
,
0001
1000
0100
1000
0010
0100
0001
1000
0100
1000
0001
1000
0010
0100
0001
1000
0001
0010
0100
0010
0001
0100
0001
1000
,
0010
1000
0001
1000
0100
0010
0001
1000
0010
1000
0100
1000
0001
0100
0010
1000
0001
1000
0100
1000
0001
0100
0010
1000
,
0001
0100
0010
1000
0001
0010
0001
1000
0001
0100
0010
1000
0001
0010
0001
1000
,
0100
0000
0000
0010
0000
0000
0100
0000
0000
1000
0000
0000
0001
0000
0000
0100
0000
0000
0001
0000
0000
1000
0000
0000
0100
0000
0000
0010
0000
0000
0100
0000
0000
1000
0000
0000
0001
0000
1000
0000
0001
0000
0100
0000
0010
0000
1000
0000
,
0001
0010
0001
1000
0010
0100
0010
1000
0001
0010
0001
1000
0010
0100
0010
1000
,
0001
0000
0000
0010
0000
0000
0100
0000
0000
0010
0000
0000
0001
0000
0000
1000
0000
0000
0010
0000
0000
1000
0000
0000
0001
0000
0000
0010
0000
0000
0100
0000
0000
0010
0000
0000
0001
0000
0100
0000
0010
0000
1000
0000
0001
0000
1000
0000
,
0002
0000
0000
0000
,
0000
0000
0000
0000
,
0023
0000
0000
0000
,
0000
0000
0000
0000
,
0230
0000
0000
0000
,
0000
0000
0000
0000
,
2300
0000
0000
0000
,
0010
0000
0000
0000
,
3001
0000
0000
0000
;

//---------------dance-single - Mad Matt----------------
#NOTES:
     dance-single:
     Mad Matt:
     Medium:
     17:
     1.000,1.000,0.008,0.293,1.000,1108.000,1.000,39.000,0.000,0.000:






0000
0000
0000
0000
,
0000
0000
0000
0000
,
0000
0000
0000
0000
,
0000
0000
0000
0000
,
1000
0010
0100
0001
0010
0001
1000
0100
1000
0001
0100
0010
1000
0100
1000
0000
,
0100
1000
0001
0100
0010
1000
0100
1000
0001
0100
0010
0100
0001
0000
0000
0000
,
1000
0100
1000
0010
0100
0001
1000
0100
1000
0001
0010
0001
0100
0010
1000
0001
,
1000
0100
1000
0010
0100
0001
1000
0100
1000
0001
0010
0001
0100
0010
1000
0001
0010
0001
1000
0100
1000
0001
0000
0000
,
0200
0300
0000
0000
0000
0000
0000
0000
0000
0200
0300
0000
0000
0000
0000
0000
0000
0000
0200
0300
0000
0000
0000
0000
0000
0000
0000
0200
0300
0000
0000
0000
0000
0000
0000
0000
0200
0300
0000
0000
0000
0000
0000
0000
0000
0000
0000
0000
,
0001
0000
0100
0000
0001
0000
1000
0000
0100
0000
0010
0000
0100
0000
1000
0000
0010
0000
0100
0000
0001
0000
1000
0000
0001
0000
0000
0100
0000
0000
0010
0000
0000
1000
0000
0000
0001
0000
0000
1000
0000
0000
0100
0000
0000
1000
0000
0000
,
0001
0100
0010
0100
0001
1000
0100
0010
0001
1000
0100
1000
0010
0100
0001
1000
0100
1000
0001
0010
0001
0100
0010
1000
,
0001
0000
1000
0000
0100
0000
0010
0000
0100
0000
1000
0000
0010
0000
0100
0000
0001
0000
0010
0000
0001
0000
1000
0000
0020
0000
0000
0000
0000
0000
0000
0000
0000
0000
0000
0000
0000
0000
0000
0000
0000
0000
0000
0000
0000
0030
0000
0000
,
1000
0010
0100
0001
1000
0100
1000
0001
1000
0010
0100
0001
1000
0100
1000
0001
,
0010
0000
0000
0100
0000
0000
0010
0000
0000
0001
0000
0000
1000
0000
0000
0010
0000
0000
1000
0000
0000
0001
0000
0000
0010
0000
0000
0100
0000
0000
0010
0000
0000
0001
0000
0000
1000
0000
0100
0000
1000
0000
0010
0000
0100
0000
0001
0000
,
1000
0100
1000
0001
0100
0010
0100
0001
1000
0100
1000
0001
0100
0010
0100
0001
,
1000
0000
0000
0100
0000
0000
0010
0000
0000
0100
0000
0000
1000
0000
0000
0001
0000
0000
0100
0000
0000
0001
0000
0000
1000
0000
0000
0100
0000
0000
0010
0000
0000
0100
0000
0000
1000
0000
0010
0000
0100
0000
0001
0000
0010
0000
0001
0000
,
1000
0100
1000
0001
0100
0001
1000
0010
1000
0001
0010
0100
0010
0001
0100
0010
,
1000
0100
1000
0001
1000
0010
0100
0001
1000
0010
1000
0100
0010
0100
1000
0001
0100
0010
0100
0001
1000
0100
0000
0000
,
1000
0010
0100
0001
1000
0100
1000
0001
1000
0010
0100
0001
1000
0100
1000
0001
,
0010
0000
0000
0100
0000
0000
0010
0000
0000
0001
0000
0000
1000
0000
0000
0010
0000
0000
1000
0000
0000
0001
0000
0000
0010
0000
0000
0100
0000
0000
0010
0000
0000
0001
0000
0000
1000
0000
0100
0000
1000
0000
0010
0000
0100
0000
0001
0000
,
1000
0100
0010
0100
1000
0010
0100
0001
1000
0100
1000
0001
0100
0010
1000
0001
1000
0100
0010
0001
0100
0001
1000
0010
,
1000
0100
0010
0001
1000
0010
1000
0001
0010
0001
0100
0010
1000
0001
1000
0100
1000
0001
0200
0000
0000
0300
0000
0000
,
0001
0010
0001
1000
0010
0100
0010
1000
0001
0010
0001
1000
0010
0100
0010
1000
,
0001
0000
0000
0010
0000
0000
0100
0000
0000
0010
0000
0000
0001
0000
0000
1000
0000
0000
0010
0000
0000
1000
0000
0000
0001
0000
0000
0010
0000
0000
0100
0000
0000
0010
0000
0000
0001
0000
0100
0000
0010
0000
1000
0000
0100
0000
1000
0000
,
0001
0000
0100
0000
0001
0000
0000
0100
0001
0000
1000
0000
0010
0000
0100
0000
,
0001
0000
0100
0000
0001
0100
0001
0000
1000
0000
0100
0000
0010
0000
0001
0000
,
0100
0001
1000
0100
1000
0001
0100
0010
1000
0100
1000
0001
0010
0001
0100
0010
,
1000
0100
1000
0100
0010
0100
0010
0001
0010
0001
0100
0001
0100
0010
1000
0001
,
0200
0000
0000
0000
0000
0000
0000
0000
0000
0000
0000
0000
0310
1000
0001
0010
0100
1000
0010
0100
0001
1000
0100
0010
,
0100
1000
0010
0100
0001
1000
0001
0010
0001
0100
0010
1000
0004
0000
0000
0000
0000
0000
0000
0000
0000
0000
0000
0000
,
1003
0000
0000
0001
0000
0000
0010
0000
0000
0100
0000
0000
1000
0000
0000
0100
0000
0000
0010
0000
0000
0001
0000
0000
1000
0000
0010
0000
1000
0000
0100
0000
0010
0000
0001
0000
1000
0000
0001
0000
0100
0000
0010
0000
1000
0000
0100
0000
,
1000
0001
0010
0001
0100
0010
0100
0001
0010
0001
1000
0100
1000
0001
0010
0001
0100
0010
0100
0001
0010
0001
1000
0100
,
1000
0010
0100
0001
0010
0100
1000
0001
1000
0010
0100
0001
1000
0001
0010
0100
1000
0010
0100
0001
1000
0001
0010
0100
,
1000
0001
1000
0010
0100
0001
1000
0001
0010
0100
1000
0010
0100
0001
1000
0100
1000
0001
0010
0100
1000
0010
1000
0001
,
0010
0000
0100
0000
1000
0000
0001
0100
0010
0100
0001
0010
0001
1000
0100
1000
0010
0100
0001
1000
0100
0010
0100
1000
,
0010
0100
0001
1000
0100
1000
0010
0100
0001
1000
0001
0010
0100
0010
0001
0100
0010
1000
0001
0010
0001
0100
0010
1000
,
0001
1000
0100
1000
0010
0100
0001
1000
0001
0010
0001
0100
0010
1000
0100
1000
0001
0100
0010
1000
0100
0010
0100
1000
,
0001
0100
0001
0010
0100
0010
0001
0100
0010
0100
0001
1000
0100
0000
0000
0010
0000
0000
0001
0000
0000
0000
0000
0000
,
1000
0100
0010
0001
1000
0001
0100
0001
1000
0100
0010
0100
1000
0001
0100
0001
,
1000
0100
1000
0001
0100
0010
1000
0001
1000
0100
1000
0001
0100
0010
0100
0001
,
1000
0100
0010
0100
1000
0010
0100
0001
1000
0001
0010
0100
0010
0001
0100
0010
1000
0001
1000
0100
1000
0010
0100
0001
,
1000
0100
1000
0001
0100
0010
0100
0001
0010
0001
1000
0010
0100
0010
1000
0100
1000
0001
0100
0010
1000
0100
1000
0001
,
1000
0000
0000
0001
0100
0001
1000
0000
0000
0001
0010
0001
,
1000
0000
0000
0100
0010
0100
1000
0000
0000
0001
0100
0001
,
1000
0000
0000
0010
0100
0010
1000
0000
0000
0001
0010
0001
,
1000
0000
0000
0010
0100
0010
1000
0000
0000
0001
0010
0001
,
1000
0000
0000
0000
0000
0000
0000
0000
0000
0000
0100
0000
0000
0000
0000
0000
0000
0000
0000
0010
0000
0000
0000
0000
0000
0000
0000
0000
0000
0100
0000
0000
0000
0000
0000
0000
0000
0000
1000
0000
0000
0000
0000
0000
0000
0000
0000
0000
0001
0000
0000
0000
0000
0000
0000
0000
0000
0000
1000
0000
0000
0000
0000
0000
0000
0000
0000
0010
0000
0000
0000
0000
0000
0000
0000
0000
0000
0100
0000
0000
0000
0000
0000
0000
0000
0000
0001
0000
0000
0000
0000
0000
0000
0000
0000
0000
1000
0000
0000
0000
0000
0000
0000
0000
0000
0000
0100
0000
0000
0000
0000
0000
0000
0000
0000
1000
0000
0000
0000
0000
0000
0000
0000
0000
0000
0001
0000
0000
0000
0000
0000
0000
0000
0000
0100
0000
0000
0000
0000
0000
0000
0000
0000
0000
0001
0000
0000
0000
0000
0000
0000
0000
0000
0000
0010
0000
0000
0000
0000
0000
0000
0000
0000
0100
0000
0000
0000
0000
0000
0000
0000
0000
0000
0010
0000
0000
0000
0000
0000
0000
0000
0000
0001
0000
0000
0000
0000
0000
0000
0000
0000
0000
,
1000
0000
0000
0000
0000
0000
0000
0000
0000
0000
0010
0000
0000
0000
0000
0000
0000
0000
0000
0100
0000
0000
0000
0000
0000
0000
0000
0000
0000
0010
0000
0000
0000
0000
0000
0000
0000
0000
1000
0000
0000
0000
0000
0000
0000
0000
0000
0000
0001
0000
0000
0000
0000
0000
0000
0000
0000
0000
1000
0000
0000
0000
0000
0000
0000
0000
0000
0100
0000
0000
0000
0000
0000
0000
0000
0000
0000
0010
0000
0000
0000
0000
0000
0000
0000
0000
0100
0000
0000
0000
0000
0000
0000
0000
0000
0000
1000
0000
0000
0000
0000
0000
0000
0000
0000
0000
0001
0000
0000
0000
0000
0000
0000
0000
0000
0010
0000
0000
0000
0000
0000
0000
0000
0000
0000
0001
0000
0000
0000
0000
0000
0000
0000
0000
1000
0000
0000
0000
0000
0000
0000
0000
0000
0000
0010
0000
0000
0000
0000
0000
0000
0000
0000
0000
1000
0000
0000
0000
0000
0000
0000
0000
0000
0001
0000
0000
0000
0000
0000
0000
0000
0000
0000
0100
0000
0000
0000
0000
0000
0000
0000
0000
0001
0000
0000
0000
0000
0000
0000
0000
0000
0000
,
1000
0000
0000
0000
0000
0000
0000
0000
0000
0000
0010
0000
0000
0000
0000
0000
0000
0000
0000
0100
0000
0000
0000
0000
0000
0000
0000
0000
0000
0010
0000
0000
0000
0000
0000
0000
0000
0000
1000
0000
0000
0000
0000
0000
0000
0000
0000
0000
0001
0000
0000
0000
0000
0000
0000
0000
0000
0000
1000
0000
0000
0000
0000
0000
0000
0000
0000
0100
0000
0000
0000
0000
0000
0000
0000
0000
0000
0010
0000
0000
0000
0000
0000
0000
0000
0000
0001
0000
0000
0000
0000
0000
0000
0000
0000
0000
1000
0000
0000
0000
0000
0000
0000
0000
0000
0000
0010
0000
0000
0000
0000
0000
0000
0000
0000
1000
0000
0000
0000
0000
0000
0000
0000
0000
0000
0001
0000
0000
0000
0000
0000
0000
0000
0000
0010
0000
0000
0000
0000
0000
0000
0000
0000
0000
0001
0000
0000
0000
0000
0000
0000
0000
0000
0000
0100
0000
0000
0000
0000
0000
0000
0000
0000
0010
0000
0000
0000
0000
0000
0000
0000
0000
0000
0100
0000
0000
0000
0000
0000
0000
0000
0000
0001
0000
0000
0000
0000
0000
0000
0000
0000
0000
,
1000
0000
0000
0000
0000
0000
0000
0000
0000
0000
0100
0000
0000
0000
0000
0000
0000
0000
0000
0010
0000
0000
0000
0000
0000
0000
0000
0000
0000
0100
0000
0000
0000
0000
0000
0000
0000
0000
1000
0000
0000
0000
0000
0000
0000
0000
0000
0000
0001
0000
0000
0000
0000
0000
0000
0000
0000
0000
1000
0000
0000
0000
0000
0000
0000
0000
0000
0010
0000
0000
0000
0000
0000
0000
0000
0000
0000
0100
0000
0000
0000
0000
0000
0000
0000
0000
0010
0000
0000
0000
0000
0000
0000
0000
0000
0000
1000
0000
0000
0000
0000
0000
0000
0000
0000
0000
0001
0000
0000
0000
0000
0000
0000
0000
0000
0100
0000
0000
0000
0000
0000
0000
0000
0000
0000
0001
0000
0000
0000
0000
0000
0000
0000
0000
1000
0000
0000
0000
0000
0000
0000
0000
0000
0000
0100
0000
0000
0000
0000
0000
0000
0000
0000
0000
1000
0000
0000
0000
0000
0000
0000
0000
0000
0001
0000
0000
0000
0000
0000
0000
0000
0000
0000
0010
0000
0000
0000
0000
0000
0000
0000
0000
0001
0000
0000
0000
0000
0000
0000
0000
0000
0000
,
2000
0000
0000
0000
0000
0000
0000
0000
0000
0000
3001
0100
,
0020
0000
0230
0000
,
0302
0000
0000
0000
0000
0000
0000
0000
0000
0000
0013
0001
,
2000
0000
0000
0000
,
3001
0000
0000
0000
0000
0000
0000
0000
0000
0000
0010
0000
0000
0000
0000
0000
0000
0000
0000
0100
0000
0000
0000
0000
0000
0000
0000
0000
0000
0010
0000
0000
0000
0000
0000
0000
0000
0000
0001
0000
0000
0000
0000
0000
0000
0000
0000
0000
1000
0000
0000
0000
0000
0000
0000
0000
0000
0000
0001
0000
0000
0000
0000
0000
0000
0000
0000
0100
0000
0000
0000
0000
0000
0000
0000
0000
0000
0010
0000
0000
0000
0000
0000
0000
0000
0000
1000
0000
0000
0000
0000
0000
0000
0000
0000
0000
0001
0000
0000
0000
0000
0000
0000
0000
0000
0000
0010
0000
0000
0000
0000
0000
0000
0000
0000
0001
0000
0000
0000
0000
0000
0000
0000
0000
0000
1000
0000
0000
0000
0000
0000
0000
0000
0000
0010
0000
0000
0000
0000
0000
0000
0000
0000
0000
1000
0000
0000
0000
0000
0000
0000
0000
0000
0000
0100
0000
0000
0000
0000
0000
0000
0000
0000
0010
0000
0000
0000
0000
0000
0000
0000
0000
0000
0100
0000
0000
0000
0000
0000
0000
0000
0000
1000
0000
0000
0000
0000
0000
0000
0000
0000
0000
,
0001
0000
0000
0000
0000
0000
0000
0000
0000
0000
0100
0000
0000
0000
0000
0000
0000
0000
0000
0010
0000
0000
0000
0000
0000
0000
0000
0000
0000
0100
0000
0000
0000
0000
0000
0000
0000
0000
0001
0000
0000
0000
0000
0000
0000
0000
0000
0000
1000
0000
0000
0000
0000
0000
0000
0000
0000
0000
0001
0000
0000
0000
0000
0000
0000
0000
0000
0010
0000
0000
0000
0000
0000
0000
0000
0000
0000
0100
0000
0000
0000
0000
0000
0000
0000
0000
0010
0000
0000
0000
0000
0000
0000
0000
0000
0000
0001
0000
0000
0000
0000
0000
0000
0000
0000
0000
1000
0000
0000
0000
0000
0000
0000
0000
0000
0100
0000
0000
0000
0000
0000
0000
0000
0000
0000
1000
0000
0000
0000
0000
0000
0000
0000
0000
0001
0000
0000
0000
0000
0000
0000
0000
0000
0000
0100
0000
0000
0000
0000
0000
0000
0000
0000
0000
0001
0000
0000
0000
0000
0000
0000
0000
0000
1000
0000
0000
0000
0000
0000
0000
0000
0000
0000
0010
0000
0000
0000
0000
0000
0000
0000
0000
1000
0000
0000
0000
0000
0000
0000
0000
0000
0000
,
0001
0000
0000
0000
0000
0000
0000
0000
0000
0000
0100
0000
0000
0000
0000
0000
0000
0000
0000
0010
0000
0000
0000
0000
0000
0000
0000
0000
0000
0100
0000
0000
0000
0000
0000
0000
0000
0000
0001
0000
0000
0000
0000
0000
0000
0000
0000
0000
1000
0000
0000
0000
0000
0000
0000
0000
0000
0000
0001
0000
0000
0000
0000
0000
0000
0000
0000
0010
0000
0000
0000
0000
0000
0000
0000
0000
0000
0100
0000
0000
0000
0000
0000
0000
0000
0000
1000
0000
0000
0000
0000
0000
0000
0000
0000
0000
0001
0000
0000
0000
0000
0000
0000
0000
0000
0000
0100
0000
0000
0000
0000
0000
0000
0000
0000
0001
0000
0000
0000
0000
0000
0000
0000
0000
0000
1000
0000
0000
0000
0000
0000
0000
0000
0000
0100
0000
0000
0000
0000
0000
0000
0000
0000
0000
1000
0000
0000
0000
0000
0000
0000
0000
0000
0000
0010
0000
0000
0000
0000
0000
0000
0000
0000
0100
0000
0000
0000
0000
0000
0000
0000
0000
0000
0010
0000
0000
0000
0000
0000
0000
0000
0000
1000
0000
0000
0000
0000
0000
0000
0000
0000
0000
,
0001
0000
0000
0000
0000
0000
0000
0000
0000
0000
0010
0000
0000
0000
0000
0000
0000
0000
0000
0100
0000
0000
0000
0000
0000
0000
0000
0000
0000
0010
0000
0000
0000
0000
0000
0000
0000
0000
0001
0000
0000
0000
0000
0000
0000
0000
0000
0000
1000
0000
0000
0000
0000
0000
0000
0000
0000
0000
0001
0000
0000
0000
0000
0000
0000
0000
0000
0100
0000
0000
0000
0000
0000
0000
0000
0000
0000
0010
0000
0000
0000
0000
0000
0000
0000
0000
0100
0000
0000
0000
0000
0000
0000
0000
0000
0000
0001
0000
0000
0000
0000
0000
0000
0000
0000
0000
1000
0000
0000
0000
0000
0000
0000
0000
0000
0010
0000
0000
0000
0000
0000
0000
0000
0000
0000
1000
0000
0000
0000
0000
0000
0000
0000
0000
0001
0000
0000
0000
0000
0000
0000
0000
0000
0000
0010
0000
0000
0000
0000
0000
0000
0000
0000
0000
0001
0000
0000
0000
0000
0000
0000
0000
0000
1000
0000
0000
0000
0000
0000
0000
0000
0000
0000
0100
0000
0000
0000
0000
0000
0000
0000
0000
1000
0000
0000
0000
0000
0000
0000
0000
0000
0000
,
0002
0000
0203
0000
,
0320
0000
0230
0000
,
0302
0000
2003
0000
,
3200
0000
0320
0000
,
0230
0000
2300
0000
,
3002
0000
0203
0000
,
0320
0000
2030
0000
,
3200
0000
0320
0000
,
0031
1000
0010
1000
0010
0100
0010
0100
0001
0100
0010
1000
,
0001
1000
0010
1000
0010
0100
0010
0100
0001
1000
0100
1000
,
0001
0010
0001
0100
0001
1000
0010
1000
0100
1000
0010
0100
,
0002
0000
0023
0000
,
0031
0000
0100
0000
0010
0000
1000
0000
0001
0010
0001
0100
0001
1000
0010
0100
,
0001
1000
0001
0010
0001
1000
0010
0100
0001
0010
0001
1000
0010
0100
0001
1000
,
0200
0000
0320
0000
,
0032
0000
2003
0000
,
3001
0100
0010
0100
0001
0010
0001
1000
0010
0100
0001
1000
0001
0010
0100
0010
0001
0100
0010
1000
0001
1000
0100
0010
,
0001
1000
0100
1000
0010
0100
0010
1000
0100
1000
0001
0100
0010
0100
0001
0010
0001
1000
0010
0100
0010
1000
0100
1000
,
0001
0100
0001
0010
0100
0010
0001
1000
0010
1000
0100
0010
0100
1000
0010
0100
0001
1000
0100
1000
0001
0100
0010
1000
,
0001
0100
0010
1000
0001
0010
0001
1000
0001
0100
0010
1000
0001
0010
0001
1000
,
0100
0000
0000
0010
0000
0000
0100
0000
0000
1000
0000
0000
0001
0000
0000
0100
0000
0000
0001
0000
0000
1000
0000
0000
0100
0000
0000
0010
0000
0000
0100
0000
0000
1000
0000
0000
0001
0000
0010
0000
0001
0000
0100
0000
0010
0000
1000
0000
,
0001
0010
0001
1000
0010
0100
0010
1000
0001
0010
0001
1000
0010
0100
0010
1000
,
0001
0000
0000
0010
0000
0000
0100
0000
0000
0010
0000
0000
0001
0000
0000
1000
0000
0000
0010
0000
0000
1000
0000
0000
0001
0000
0000
0010
0000
0000
0100
0000
0000
0010
0000
0000
0001
0000
0100
0000
0010
0000
1000
0000
0100
0000
1000
0000
,
0002
0000
0000
0000
,
0000
0000
0000
0000
,
0023
0000
0000
0000
,
0000
0000
0000
0000
,
0230
0000
0000
0000
,
0000
0000
0000
0000
,
2300
0000
0000
0000
,
0010
0000
0000
0000
,
3001
0000
0000
0000
;

//---------------dance-single - Mad Matt----------------
#NOTES:
     dance-single:
     Mad Matt:
     Beginner:
     16:
     1.000,1.000,0.008,0.420,1.000,1042.000,1.000,56.000,0.000,0.000:



0000
0000
0000
0000
,
0000
0000
0000
0000
,
0000
0000
0000
0000
,
0000
0000
0000
0000
,
1000
0010
0100
0001
0010
0001
1000
0100
1000
0001
0100
0010
1000
0100
1000
0000
,
0100
1000
0001
0100
0010
1000
0100
1000
0001
0100
0010
0100
0001
0000
0000
0000
,
1000
0100
1000
0010
0100
0001
1000
0100
1000
0001
0010
0001
0100
0010
1000
0001
,
1000
0100
1000
0001
0010
0100
0010
0001
1000
0001
0010
0001
1000
0010
0100
0001
1000
0010
0100
0001
1000
0001
0000
0000
,
0200
0300
0000
0000
0000
0000
0000
0000
0000
0200
0300
0000
0000
0000
0000
0000
0000
0000
0200
0300
0000
0000
0000
0000
0000
0000
0000
0200
0300
0000
0000
0000
0000
0000
0000
0000
0200
0300
0000
0000
0000
0000
0000
0000
0000
0000
0000
0000
,
0001
0000
0100
0000
0001
0000
1000
0000
0001
0000
0010
0000
0100
0000
0010
0000
0001
0000
1000
0000
0100
0000
1000
0000
0001
0000
0000
0100
0000
0000
0010
0000
0000
1000
0000
0000
0001
0000
0000
1000
0000
0000
0100
0000
0000
1000
0000
0000
,
0001
0100
0010
1000
0001
1000
0010
1000
0001
0100
0010
1000
0001
0010
0001
1000
0100
0010
0100
1000
0001
0010
0100
1000
,
0001
0000
0010
0000
0001
0000
1000
0000
0001
0000
0100
0000
0010
0000
1000
0000
0001
0000
0100
0000
0001
0000
1000
0000
0020
0000
0000
0000
0000
0000
0000
0000
0000
0000
0000
0000
0000
0000
0000
0000
0000
0000
0000
0000
0000
0030
0000
0000
,
1000
0010
0100
0001
1000
0100
1000
0001
1000
0010
0100
0001
1000
0100
1000
0001
,
0010
0000
0000
0100
0000
0000
0010
0000
0000
0001
0000
0000
1000
0000
0000
0010
0000
0000
1000
0000
0000
0001
0000
0000
0010
0000
0000
0100
0000
0000
0010
0000
0000
0001
0000
0000
1000
0000
0001
0000
1000
0000
0010
0000
0100
0000
0001
0000
,
1000
0100
1000
0001
0100
0010
0100
0001
1000
0100
1000
0001
0100
0010
0100
0001
,
1000
0000
0000
0100
0000
0000
0010
0000
0000
0100
0000
0000
1000
0000
0000
0001
0000
0000
0100
0000
0000
0001
0000
0000
1000
0000
0000
0100
0000
0000
0010
0000
0000
0100
0000
0000
1000
0000
0010
0000
0100
0000
0001
0000
1000
0000
0001
0000
,
1000
0100
1000
0001
0100
0001
1000
0010
1000
0001
0010
0100
0010
0001
0100
0010
,
1000
0100
1000
0001
1000
0010
0100
0001
1000
0010
1000
0001
0010
0100
0010
0001
1000
0001
0100
0001
1000
0100
0000
0000
,
1000
0010
0100
0001
1000
0100
1000
0001
1000
0010
0100
0001
1000
0100
1000
0001
,
0010
0000
0000
0100
0000
0000
0010
0000
0000
0001
0000
0000
1000
0000
0000
0010
0000
0000
1000
0000
0000
0001
0000
0000
0010
0000
0000
0100
0000
0000
0010
0000
0000
0001
0000
0000
1000
0000
0001
0000
1000
0000
0010
0000
0100
0000
0001
0000
,
1000
0100
0010
0001
1000
0001
0100
0001
1000
0010
1000
0001
1000
0100
0010
0100
1000
0001
0010
0100
1000
0001
1000
0010
,
0100
0001
1000
0100
1000
0001
0100
0010
0100
0001
1000
0010
0100
0001
1000
0010
1000
0001
0200
0000
0000
0300
0000
0000
,
0001
0010
0001
1000
0010
0100
0010
1000
0001
0010
0001
1000
0010
0100
0010
1000
,
0001
0000
0000
0010
0000
0000
0100
0000
0000
0010
0000
0000
0001
0000
0000
1000
0000
0000
0010
0000
0000
1000
0000
0000
0001
0000
0000
0010
0000
0000
0100
0000
0000
0010
0000
0000
0001
0000
0100
0000
0010
0000
1000
0000
0001
0000
1000
0000
,
0001
0000
0100
0000
0001
0000
0000
0100
0001
0000
1000
0000
0010
0000
0100
0000
,
0001
0000
0100
0000
0001
0100
0001
0000
1000
0000
0100
0000
0010
0000
0001
0000
,
0100
0001
1000
0100
1000
0001
0100
0010
1000
0100
1000
0001
0010
0001
0100
0010
,
1000
0100
1000
0100
0010
0100
0010
0001
0010
0001
0100
0001
0100
0010
1000
0001
,
0200
0000
0000
0000
0000
0000
0000
0000
0000
0000
0000
0000
0310
1000
0001
0010
0100
1000
0001
1000
0100
0010
0001
1000
,
0001
0100
0010
1000
0001
1000
0100
0010
0100
1000
0001
0100
0004
0000
0000
0000
0000
0000
0000
0000
0000
0000
0000
0000
,
1003
0000
0000
0001
0000
0000
0010
0000
0000
0100
0000
0000
1000
0000
0000
0100
0000
0000
0010
0000
0000
0001
0000
0000
1000
0000
0001
0000
1000
0000
0100
0000
0010
0000
0001
0000
1000
0000
0001
0000
0100
0000
0010
0000
1000
0000
0001
0000
,
2000
3000
0000
0000
0000
0000
0020
0030
0000
0000
0000
0000
2000
3000
0000
0000
0000
0000
0200
0300
0000
0000
0000
0000
2000
3000
0000
0000
0000
0000
0020
0030
0000
0000
0000
0000
2000
3000
0000
0000
0000
0000
0200
0300
0000
0000
0000
0000
,
1000
0001
0010
0100
1000
0001
4000
0000
0000
0000
0000
3000
0001
0100
0010
1000
0001
1000
0400
0000
0000
0000
0000
0300
,
0020
0000
0000
0000
0000
0000
0000
0000
0030
0001
1000
0010
0200
0000
0000
0000
0000
0000
0000
0000
0300
0001
1000
0100
,
0010
0000
0001
0000
0100
0000
0001
0000
0000
1000
0001
0010
0001
1000
0100
1000
0001
0100
0010
1000
0001
1000
0100
1000
,
0010
0100
0001
1000
0001
0010
0100
0010
0001
1000
0001
0100
0010
1000
0001
0010
0100
0010
0001
1000
0001
0100
0010
1000
,
0002
0000
0000
0003
0000
0000
0000
0000
0000
0100
0001
1000
0100
1000
0010
1000
0001
0010
0001
1000
0100
1000
0010
1000
,
0001
0010
0100
0010
0001
0100
0010
1000
0001
1000
0100
0010
0001
0000
0000
1000
0000
0000
0010
0000
0000
0000
0000
0000
,
1000
0100
0010
0001
1000
0001
0100
0001
1000
0100
0010
0100
1000
0001
0100
0001
,
1000
0100
1000
0001
0100
0010
1000
0001
1000
0100
1000
0001
0100
0010
0100
0001
,
1000
0100
0010
0100
1000
0001
0100
0001
1000
0001
0010
0100
0010
0001
1000
0010
1000
0001
0010
0001
1000
0010
0100
0001
,
1000
0010
1000
0001
0100
0010
1000
0001
1000
0100
0010
0100
1000
0001
1000
0010
1000
0001
0100
0010
1000
0001
0010
0001
,
1000
0000
0000
0001
0100
0001
1000
0000
0000
0001
0010
0001
,
1000
0000
0000
0100
0010
0100
1000
0000
0000
0001
0100
0001
,
1000
0000
0000
0010
0100
0010
1000
0000
0000
0001
0010
0001
,
1000
0000
0000
0010
0100
0010
1000
0000
0000
0001
0010
0001
,
1000
0000
0000
0000
0000
0000
0000
0000
0000
0000
0100
0000
0000
0000
0000
0000
0000
0000
0000
0010
0000
0000
0000
0000
0000
0000
0000
0000
0000
0100
0000
0000
0000
0000
0000
0000
0000
0000
1000
0000
0000
0000
0000
0000
0000
0000
0000
0000
0001
0000
0000
0000
0000
0000
0000
0000
0000
0000
1000
0000
0000
0000
0000
0000
0000
0000
0000
0010
0000
0000
0000
0000
0000
0000
0000
0000
0000
0100
0000
0000
0000
0000
0000
0000
0000
0000
0001
0000
0000
0000
0000
0000
0000
0000
0000
0000
1000
0000
0000
0000
0000
0000
0000
0000
0000
0000
0100
0000
0000
0000
0000
0000
0000
0000
0000
1000
0000
0000
0000
0000
0000
0000
0000
0000
0000
0001
0000
0000
0000
0000
0000
0000
0000
0000
0100
0000
0000
0000
0000
0000
0000
0000
0000
0000
0001
0000
0000
0000
0000
0000
0000
0000
0000
0000
0010
0000
0000
0000
0000
0000
0000
0000
0000
0100
0000
0000
0000
0000
0000
0000
0000
0000
0000
0010
0000
0000
0000
0000
0000
0000
0000
0000
0001
0000
0000
0000
0000
0000
0000
0000
0000
0000
,
1000
0000
0000
0000
0000
0000
0000
0000
0000
0000
0010
0000
0000
0000
0000
0000
0000
0000
0000
0100
0000
0000
0000
0000
0000
0000
0000
0000
0000
0010
0000
0000
0000
0000
0000
0000
0000
0000
1000
0000
0000
0000
0000
0000
0000
0000
0000
0000
0001
0000
0000
0000
0000
0000
0000
0000
0000
0000
1000
0000
0000
0000
0000
0000
0000
0000
0000
0100
0000
0000
0000
0000
0000
0000
0000
0000
0000
0010
0000
0000
0000
0000
0000
0000
0000
0000
0100
0000
0000
0000
0000
0000
0000
0000
0000
0000
1000
0000
0000
0000
0000
0000
0000
0000
0000
0000
0001
0000
0000
0000
0000
0000
0000
0000
0000
0010
0000
0000
0000
0000
0000
0000
0000
0000
0000
0001
0000
0000
0000
0000
0000
0000
0000
0000
1000
0000
0000
0000
0000
0000
0000
0000
0000
0000
0010
0000
0000
0000
0000
0000
0000
0000
0000
0000
1000
0000
0000
0000
0000
0000
0000
0000
0000
0001
0000
0000
0000
0000
0000
0000
0000
0000
0000
0100
0000
0000
0000
0000
0000
0000
0000
0000
0001
0000
0000
0000
0000
0000
0000
0000
0000
0000
,
1000
0000
0000
0000
0000
0000
0000
0000
0000
0000
0010
0000
0000
0000
0000
0000
0000
0000
0000
0100
0000
0000
0000
0000
0000
0000
0000
0000
0000
0010
0000
0000
0000
0000
0000
0000
0000
0000
1000
0000
0000
0000
0000
0000
0000
0000
0000
0000
0001
0000
0000
0000
0000
0000
0000
0000
0000
0000
1000
0000
0000
0000
0000
0000
0000
0000
0000
0100
0000
0000
0000
0000
0000
0000
0000
0000
0000
0010
0000
0000
0000
0000
0000
0000
0000
0000
0001
0000
0000
0000
0000
0000
0000
0000
0000
0000
1000
0000
0000
0000
0000
0000
0000
0000
0000
0000
0010
0000
0000
0000
0000
0000
0000
0000
0000
1000
0000
0000
0000
0000
0000
0000
0000
0000
0000
0001
0000
0000
0000
0000
0000
0000
0000
0000
0010
0000
0000
0000
0000
0000
0000
0000
0000
0000
0001
0000
0000
0000
0000
0000
0000
0000
0000
0000
0100
0000
0000
0000
0000
0000
0000
0000
0000
0010
0000
0000
0000
0000
0000
0000
0000
0000
0000
0100
0000
0000
0000
0000
0000
0000
0000
0000
0001
0000
0000
0000
0000
0000
0000
0000
0000
0000
,
1000
0000
0000
0000
0000
0000
0000
0000
0000
0000
0100
0000
0000
0000
0000
0000
0000
0000
0000
0010
0000
0000
0000
0000
0000
0000
0000
0000
0000
0100
0000
0000
0000
0000
0000
0000
0000
0000
1000
0000
0000
0000
0000
0000
0000
0000
0000
0000
0001
0000
0000
0000
0000
0000
0000
0000
0000
0000
1000
0000
0000
0000
0000
0000
0000
0000
0000
0010
0000
0000
0000
0000
0000
0000
0000
0000
0000
0100
0000
0000
0000
0000
0000
0000
0000
0000
0010
0000
0000
0000
0000
0000
0000
0000
0000
0000
1000
0000
0000
0000
0000
0000
0000
0000
0000
0000
0001
0000
0000
0000
0000
0000
0000
0000
0000
0100
0000
0000
0000
0000
0000
0000
0000
0000
0000
0001
0000
0000
0000
0000
0000
0000
0000
0000
1000
0000
0000
0000
0000
0000
0000
0000
0000
0000
0100
0000
0000
0000
0000
0000
0000
0000
0000
0000
1000
0000
0000
0000
0000
0000
0000
0000
0000
0001
0000
0000
0000
0000
0000
0000
0000
0000
0000
0010
0000
0000
0000
0000
0000
0000
0000
0000
0001
0000
0000
0000
0000
0000
0000
0000
0000
0000
,
2000
0000
0000
0000
0000
0000
0000
0000
0000
0000
3001
0100
,
0020
0000
0230
0000
,
0302
0000
0000
0000
0000
0000
0000
0000
0000
0000
0013
0001
,
2000
0000
0000
0000
,
3001
0000
0000
0000
0000
0000
0000
0000
0000
0000
0010
0000
0000
0000
0000
0000
0000
0000
0000
0100
0000
0000
0000
0000
0000
0000
0000
0000
0000
0010
0000
0000
0000
0000
0000
0000
0000
0000
0001
0000
0000
0000
0000
0000
0000
0000
0000
0000
1000
0000
0000
0000
0000
0000
0000
0000
0000
0000
0001
0000
0000
0000
0000
0000
0000
0000
0000
0100
0000
0000
0000
0000
0000
0000
0000
0000
0000
0010
0000
0000
0000
0000
0000
0000
0000
0000
1000
0000
0000
0000
0000
0000
0000
0000
0000
0000
0001
0000
0000
0000
0000
0000
0000
0000
0000
0000
0010
0000
0000
0000
0000
0000
0000
0000
0000
0001
0000
0000
0000
0000
0000
0000
0000
0000
0000
1000
0000
0000
0000
0000
0000
0000
0000
0000
0010
0000
0000
0000
0000
0000
0000
0000
0000
0000
1000
0000
0000
0000
0000
0000
0000
0000
0000
0000
0100
0000
0000
0000
0000
0000
0000
0000
0000
0010
0000
0000
0000
0000
0000
0000
0000
0000
0000
0100
0000
0000
0000
0000
0000
0000
0000
0000
1000
0000
0000
0000
0000
0000
0000
0000
0000
0000
,
0001
0000
0000
0000
0000
0000
0000
0000
0000
0000
0100
0000
0000
0000
0000
0000
0000
0000
0000
0010
0000
0000
0000
0000
0000
0000
0000
0000
0000
0100
0000
0000
0000
0000
0000
0000
0000
0000
0001
0000
0000
0000
0000
0000
0000
0000
0000
0000
1000
0000
0000
0000
0000
0000
0000
0000
0000
0000
0001
0000
0000
0000
0000
0000
0000
0000
0000
0010
0000
0000
0000
0000
0000
0000
0000
0000
0000
0100
0000
0000
0000
0000
0000
0000
0000
0000
0010
0000
0000
0000
0000
0000
0000
0000
0000
0000
0001
0000
0000
0000
0000
0000
0000
0000
0000
0000
1000
0000
0000
0000
0000
0000
0000
0000
0000
0100
0000
0000
0000
0000
0000
0000
0000
0000
0000
1000
0000
0000
0000
0000
0000
0000
0000
0000
0001
0000
0000
0000
0000
0000
0000
0000
0000
0000
0100
0000
0000
0000
0000
0000
0000
0000
0000
0000
0001
0000
0000
0000
0000
0000
0000
0000
0000
1000
0000
0000
0000
0000
0000
0000
0000
0000
0000
0010
0000
0000
0000
0000
0000
0000
0000
0000
1000
0000
0000
0000
0000
0000
0000
0000
0000
0000
,
0001
0000
0000
0000
0000
0000
0000
0000
0000
0000
0100
0000
0000
0000
0000
0000
0000
0000
0000
0010
0000
0000
0000
0000
0000
0000
0000
0000
0000
0100
0000
0000
0000
0000
0000
0000
0000
0000
0001
0000
0000
0000
0000
0000
0000
0000
0000
0000
1000
0000
0000
0000
0000
0000
0000
0000
0000
0000
0001
0000
0000
0000
0000
0000
0000
0000
0000
0010
0000
0000
0000
0000
0000
0000
0000
0000
0000
0100
0000
0000
0000
0000
0000
0000
0000
0000
1000
0000
0000
0000
0000
0000
0000
0000
0000
0000
0001
0000
0000
0000
0000
0000
0000
0000
0000
0000
0100
0000
0000
0000
0000
0000
0000
0000
0000
0001
0000
0000
0000
0000
0000
0000
0000
0000
0000
1000
0000
0000
0000
0000
0000
0000
0000
0000
0100
0000
0000
0000
0000
0000
0000
0000
0000
0000
1000
0000
0000
0000
0000
0000
0000
0000
0000
0000
0010
0000
0000
0000
0000
0000
0000
0000
0000
0100
0000
0000
0000
0000
0000
0000
0000
0000
0000
0010
0000
0000
0000
0000
0000
0000
0000
0000
1000
0000
0000
0000
0000
0000
0000
0000
0000
0000
,
0001
0000
0000
0000
0000
0000
0000
0000
0000
0000
0010
0000
0000
0000
0000
0000
0000
0000
0000
0100
0000
0000
0000
0000
0000
0000
0000
0000
0000
0010
0000
0000
0000
0000
0000
0000
0000
0000
0001
0000
0000
0000
0000
0000
0000
0000
0000
0000
1000
0000
0000
0000
0000
0000
0000
0000
0000
0000
0001
0000
0000
0000
0000
0000
0000
0000
0000
0100
0000
0000
0000
0000
0000
0000
0000
0000
0000
0010
0000
0000
0000
0000
0000
0000
0000
0000
0100
0000
0000
0000
0000
0000
0000
0000
0000
0000
0001
0000
0000
0000
0000
0000
0000
0000
0000
0000
1000
0000
0000
0000
0000
0000
0000
0000
0000
0010
0000
0000
0000
0000
0000
0000
0000
0000
0000
1000
0000
0000
0000
0000
0000
0000
0000
0000
0001
0000
0000
0000
0000
0000
0000
0000
0000
0000
0010
0000
0000
0000
0000
0000
0000
0000
0000
0000
0001
0000
0000
0000
0000
0000
0000
0000
0000
1000
0000
0000
0000
0000
0000
0000
0000
0000
0000
0100
0000
0000
0000
0000
0000
0000
0000
0000
1000
0000
0000
0000
0000
0000
0000
0000
0000
0000
,
0002
0000
0203
0000
,
0320
0000
0230
0000
,
0302
0000
2003
0000
,
3200
0000
0320
0000
,
0230
0000
2300
0000
,
3002
0000
0203
0000
,
0320
0000
2030
0000
,
3200
0000
0320
0000
,
0031
1000
0010
1000
0010
0100
0010
0100
0001
0100
0010
1000
,
0001
1000
0010
1000
0010
0100
0010
0100
0001
1000
0100
1000
,
0001
0010
0001
0100
0001
1000
0010
1000
0100
1000
0010
0100
,
0002
0000
0023
0000
,
0031
0000
0100
0000
0010
0000
1000
0000
0001
0010
0001
0100
0001
1000
0010
0100
,
0001
1000
0001
0010
0001
1000
0010
0100
0001
0010
0001
1000
0010
0100
0001
1000
,
0200
0000
0320
0000
,
0032
0000
2003
0000
,
3001
0100
0010
1000
0001
1000
0100
1000
0010
0100
0001
1000
0001
0010
0100
1000
0001
1000
0010
0100
0010
1000
0001
0010
,
0001
1000
0100
1000
0010
0100
0001
1000
0100
1000
0001
1000
0010
0100
0001
1000
0001
0010
0100
0010
0001
0100
0001
1000
,
0002
0003
0000
0000
0000
0000
0020
0030
0000
0000
0000
0000
0200
0300
0000
0000
0000
0000
2000
3000
0000
0000
0000
0000
0002
0003
0000
0000
0000
0000
0200
0300
0000
0000
0000
0000
0010
0000
1000
0000
0001
0000
0100
0000
0010
0000
1000
0000
,
0001
0100
0010
1000
0001
0010
0001
1000
0001
0100
0010
1000
0001
0010
0001
1000
,
0100
0000
0000
0010
0000
0000
0100
0000
0000
1000
0000
0000
0001
0000
0000
0100
0000
0000
0001
0000
0000
1000
0000
0000
0100
0000
0000
0010
0000
0000
0100
0000
0000
1000
0000
0000
0001
0000
1000
0000
0001
0000
0100
0000
0010
0000
1000
0000
,
0001
0010
0001
1000
0010
0100
0010
1000
0001
0010
0001
1000
0010
0100
0010
1000
,
0001
0000
0000
0010
0000
0000
0100
0000
0000
0010
0000
0000
0001
0000
0000
1000
0000
0000
0010
0000
0000
1000
0000
0000
0001
0000
0000
0010
0000
0000
0100
0000
0000
0010
0000
0000
0001
0000
0100
0000
0010
0000
1000
0000
0001
0000
1000
0000
,
0002
0000
0000
0000
,
0000
0000
0000
0000
,
0023
0000
0000
0000
,
0000
0000
0000
0000
,
0230
0000
0000
0000
,
0000
0000
0000
0000
,
2300
0000
0000
0000
,
0010
0000
0000
0000
,
3001
0000
0000
0000
;
