#TITLE:W@REZ;
#SUBTITLE:;
#ARTIST:DJ Sharpnel;
#TITLETRANSLIT:;
#SUBTITLETRANSLIT:;
#ARTISTTRANSLIT:;
#CREDIT:;
#BANNER:warez-bn.png;
#BACKGROUND:warez-bg.png;
#LYRICSPATH:;
#CDTITLE:cdtitle.PNG;
#MUSIC:10 W@REZ (DJ CHUCHY REMIX).mp3;
#OFFSET:0.830;
#SAMPLESTART:7.280;
#SAMPLELENGTH:15.000;
#SELECTABLE:YES;
#BPMS:0.000=215.060,196.000=107.530,228.000=216.060,260.000=215.060;
#STOPS:;
#BGCHANGES:;
// cache tags:
#FIRSTBEAT:4.000;
#LASTBEAT:418.000;
#SONGFILENAME:Songs/Fabulously Fresh Flock of Fantastic Files F5/(Zaghurim) W@REZ/W@REZ.sm;
#HASMUSIC:1;
#HASBANNER:1;
#MUSICLENGTH:131.608;
// end cache tags

//---------------dance-single - ----------------
#NOTES:
     dance-single:
     :
     Hard:
     12:
     1.000,1.000,1.000,0.129,0.209,670.000,370.000,17.000,0.000,6.000:
0000
0000
0000
0000
,
1001
0010
0100
0010
,
0000
0000
0000
0000
,
1000
0010
1000
0010
,
0000
0000
0000
0000
0000
0000
0000
0000
1001
0000
0110
0000
1000
0001
1000
0001
,
1100
0001
1000
0001
,
0000
0000
0000
0000
,
1000
0010
1000
0010
,
1100
0000
0000
0000
0000
0000
0001
0010
0100
1000
0100
0010
0001
0000
0000
0001
0010
0100
1000
0100
0010
0001
0000
0000
,
1001
0100
0001
0100
,
0000
0000
0000
0000
,
0001
0100
0001
0100
,
0000
0000
0000
0000
0000
0000
0000
0000
1001
0000
0110
0000
0001
1000
0001
1000
,
0011
1000
0010
1000
,
0000
0000
0000
0000
,
1000
0010
1000
0010
,
0002
0000
0000
0000
0000
0000
0203
0000
0000
0000
0000
0320
0000
0000
0000
0000
2030
0000
0000
0000
0000
0000
0000
0000
3002
0000
0000
0000
0000
0000
0000
0000
,
1013
0101
1010
0101
,
0110
0000
0110
0000
0110
0000
0110
0110
,
1100
0011
1100
0011
,
1010
0000
0000
0000
1001
0000
1001
0000
1001
0000
1001
0000
0001
1000
0001
1000
,
0011
0101
0011
0101
,
1001
0000
1001
0000
1001
0000
1010
1010
,
1010
0101
1010
0101
,
0101
0000
0000
0000
0101
0000
0000
0000
0101
0000
0101
0000
0001
0100
0001
0100
,
0011
0101
1001
0101
,
1001
0000
0011
0000
0011
0000
0011
0011
,
1100
0011
1100
0011
,
1100
0000
0000
0000
0110
0000
0110
0000
1010
0000
1100
0000
1000
0010
1000
0010
,
1100
0101
1100
0101
,
1001
0000
1001
0000
1001
0000
1001
1001
,
1010
0101
1010
0101
,
0001
0010
0100
1000
0001
0100
0010
1000
0010
0000
0000
0000
,
0110
0001
0110
1000
0110
0001
0110
1000
,
0110
0001
1010
0100
0101
1000
1010
0101
,
1010
0100
1001
0100
1010
0100
1001
0100
,
1010
0000
0001
0000
0101
0000
0110
0000
1010
0000
1100
0000
0001
1000
0001
1000
,
0011
0100
0011
0100
1001
0100
0011
0100
,
1001
0100
1010
0010
0101
0001
1010
0110
,
0101
1000
0110
1000
0101
0010
1100
0010
,
1001
0000
0010
0000
1100
0000
1010
0000
0110
0000
0101
0000
0001
0100
0001
0100
,
0011
1000
0101
0010
1001
0100
1010
0100
,
1001
0100
1010
0010
0101
0100
1010
0110
,
0101
1000
0110
0001
0110
1000
0110
0001
,
0110
0000
1000
0000
0101
0000
0110
0000
1010
0000
1100
0000
1000
0010
1000
0010
,
1100
0010
0101
0010
1100
0010
0101
0010
,
1001
0100
1010
0100
1001
0010
0101
0011
,
0101
0010
0101
1000
0101
0010
0101
1000
,
0002
0000
2203
0000
,
3311
0000
0000
0000
,
0000
0000
0000
0000
,
0000
0000
0000
0000
,
0000
0000
0000
0000
,
1001
0000
0010
0000
1000
0000
0010
0000
1000
0100
0010
0000
0001
0000
0010
0000
,
1000
0000
0001
0000
1000
0000
0001
0000
0001
0010
0100
0000
1000
0000
0010
0000
,
1000
0000
0001
0000
1000
0000
0010
0000
1000
0100
0010
0000
0001
0000
0010
0000
,
1000
0000
0000
0000
0010
0000
0000
0000
1000
0000
0000
0000
0010
0000
0000
0000
0002
0000
0203
0000
0000
0320
0000
0000
2030
0000
0000
0000
3002
0000
0000
0000
,
0113
1010
0101
1010
,
1100
0010
1100
0000
1010
0000
0101
1010
,
1100
1001
1100
1001
,
0011
0000
0100
0000
0011
0000
1001
0000
0011
0000
1001
0000
0001
1000
0001
1000
,
0011
1001
0101
1001
,
1010
0100
1010
0000
1100
0000
1010
0110
,
0101
0110
0101
0110
,
0101
0000
0010
0000
0101
0000
1010
0000
0110
0000
0101
0000
1000
0001
1000
0001
,
1100
0011
1100
0011
,
0101
0010
0101
0000
0011
0000
0011
0110
,
1100
0011
1100
0011
,
0110
0000
1000
0000
0110
0000
1010
0000
0110
0000
0101
0000
0010
1000
0010
1000
,
0110
1001
0110
1001
,
0110
0001
0110
0000
0110
0000
0110
1010
,
0110
0101
0110
0101
,
0101
0010
1001
0101
0011
0101
0020
0000
,
1031
0100
1010
0010
0101
0100
1010
0010
,
0101
0101
0101
0010
1010
0100
0101
0110
,
1010
0010
0101
0100
1010
0010
0101
0100
,
0011
0000
0011
0000
0011
0000
1010
0000
0110
0000
0011
0000
1000
0100
0010
0001
,
1100
0010
0011
0100
1100
0010
0011
0100
,
1100
1100
1100
0010
1010
0001
1100
0110
,
0011
0010
0101
1000
0101
0010
0101
1000
,
0011
0000
0011
0000
0011
0000
1001
0000
0011
0000
1001
0000
0010
0100
0001
0100
,
0011
1000
0110
0001
0110
1000
0110
0001
,
0110
0110
0110
1000
0110
1000
0101
0101
,
0101
0010
1100
0010
0101
0010
1100
0010
,
0101
0000
0101
0000
0101
0000
1010
0000
0101
0000
1010
0000
0001
1000
0001
1000
,
0101
0010
1001
0010
0101
0010
1001
0010
,
1001
1001
1001
0010
1001
0100
1001
0101
,
0011
0100
1001
0100
0011
0100
1001
0010
,
0101
0101
0101
0010
1001
1001
0020
0000
,
1031
0010
0101
0100
1010
0010
0101
0100
,
1010
1010
1010
0100
0101
0010
1010
0110
,
0101
0100
1010
0010
0101
0100
1010
0010
,
1100
0000
1100
0000
1100
0000
0101
0000
0110
0000
1100
0000
0001
0010
0100
1000
,
0011
0100
1100
0010
0011
0100
1100
0010
,
0011
0011
0011
0100
0101
1000
0011
0110
,
1100
0100
1010
0001
1010
0100
1010
0001
,
1100
0000
1100
0000
1100
0000
1001
0000
1100
0000
1001
0000
0100
0010
1000
0010
,
1100
0001
0110
1000
0110
0001
0110
1000
,
0110
0110
0110
0001
0110
0001
1010
1010
,
1010
0100
0011
0100
1010
0100
0011
0100
,
1010
0000
1010
0000
1010
0000
0101
0000
1010
0000
0101
0000
1000
0001
1000
0001
,
1010
0100
1001
0100
1010
0100
1001
0100
,
1001
1001
1001
0100
1001
0010
1001
1010
,
1100
0010
1001
0010
1100
0010
1001
0100
,
2000
0002
0000
0000
3003
0000
0000
0000
;

//---------------dance-single - Copied from----------------
#NOTES:
     dance-single:
     Copied from:
     Challenge:
     13:
     1.000,1.000,1.000,0.099,0.308,701.000,380.000,13.000,0.000,3.000:
0000
0000
0000
0000
,
1001
0010
0100
0010
,
0000
0000
0000
0000
,
1000
0010
1000
0010
,
0000
0000
0000
0000
0000
0000
0000
0000
1001
0000
0110
0000
1000
0001
1000
0001
,
1100
0001
1000
0001
,
0000
0000
0000
0000
,
1000
0010
1000
0010
,
1100
0000
0000
0000
0000
0000
0000
0000
0001
0010
0100
1000
0001
0010
0100
1000
0011
0000
0000
0000
0001
0010
0100
1000
0001
0010
0100
1000
0011
0000
0000
0000
,
1001
0100
0001
0100
,
0000
0000
0000
0000
,
0001
0100
0001
0100
,
0000
0000
0000
0000
0000
0000
0000
0000
1001
0000
0110
0000
0001
1000
0001
1000
,
0011
1000
0010
1000
,
0000
0000
0000
0000
,
1000
0010
1000
0010
,
0002
0000
0000
0000
0000
0000
0203
0000
0000
0000
0000
0320
0000
0000
0000
0000
2030
0000
0000
0000
0000
0000
0000
0000
3002
0000
0000
0000
0000
0000
0000
0000
,
1013
0101
1010
0101
,
0110
0000
0110
0000
0110
0000
0110
0110
,
1100
0011
1100
0011
,
1010
0000
0000
0000
1001
0000
1001
0000
1001
0000
1001
0000
0001
1000
0001
1000
,
0011
0101
0011
0101
,
1001
0000
1001
0000
1001
0000
1010
1010
,
1010
0101
1010
0101
,
0101
0000
0000
0000
0101
0000
0000
0000
0101
0000
0101
0000
0001
0100
0001
0100
,
0011
0101
1001
0101
,
1001
0000
0011
0000
0011
0000
0011
0011
,
1100
0011
1100
0011
,
1100
0000
0000
0000
0110
0000
0110
0000
1010
0000
1100
0000
1000
0010
1000
0010
,
1100
0101
1100
0101
,
1001
0000
1001
0000
1001
0000
1001
1001
,
1010
0101
1010
0101
,
0101
1010
0101
1010
0101
0110
1001
0110
1001
0000
0000
0000
,
0110
0001
0110
1000
0110
0001
0110
1000
,
0110
0001
1010
0100
0101
1000
1010
0101
,
1010
0100
1001
0100
1010
0100
1001
0100
,
1010
0000
0001
0000
0101
0000
0110
0000
1010
0000
1100
0000
0001
1000
0001
1000
,
0011
0100
0011
0100
1001
0100
0011
0100
,
1001
0100
1010
0010
0101
0001
1010
0110
,
0101
1000
0110
1000
0101
0010
1100
0010
,
1001
0000
0010
0000
1100
0000
1010
0000
0110
0000
0101
0000
0001
0100
0001
0100
,
0011
1000
0101
0010
1001
0100
1010
0100
,
1001
0100
1010
0010
0101
0100
1010
0110
,
0101
1000
0110
0001
0110
1000
0110
0001
,
0110
0000
1000
0000
0101
0000
0110
0000
1010
0000
1100
0000
1000
0010
1000
0010
,
1100
0010
0101
0010
1100
0010
0101
0010
,
1001
0100
1010
0100
1001
0010
0101
0011
,
0101
0010
0101
1000
0101
0010
0101
1000
,
0002
0000
0000
0000
0000
0000
0000
0000
0000
0000
0000
0000
0000
0000
0000
0000
1003
0100
0010
0001
1000
0100
0010
0001
1000
0100
0010
0001
1000
0100
0010
0001
,
0110
0000
0000
0000
,
0000
0000
0000
0000
,
0000
0000
0000
0000
,
0000
0000
0000
0000
,
1001
0000
0010
0000
1000
0000
0010
0000
1000
0100
0010
0000
0001
0000
0010
0000
,
1000
0000
0001
0000
1000
0000
0001
0000
0001
0010
0100
0000
1000
0000
0010
0000
,
1000
0000
0001
0000
1000
0000
0010
0000
1000
0100
0010
0000
0001
0000
0010
0000
,
1000
0000
0000
0000
0010
0000
0000
0000
1000
0000
0000
0000
0010
0000
0000
0000
0002
0000
0200
0000
0000
0323
0000
0000
2030
0000
0000
0000
0002
0000
0000
0000
,
3113
1010
0101
1010
,
1100
0010
1100
0000
1010
0000
0101
1010
,
1100
1001
1100
1001
,
0011
0000
0100
0000
0011
0000
1001
0000
0011
0000
1001
0000
0001
1000
0001
1000
,
0011
1001
0101
1001
,
1010
0100
1010
0000
1100
0000
1010
0110
,
0101
0110
0101
0110
,
0101
0000
0010
0000
0101
0000
1010
0000
0110
0000
0101
0000
1000
0001
1000
0001
,
1100
0011
1100
0011
,
0101
0010
0101
0000
0011
0000
0011
0110
,
1100
0011
1100
0011
,
0110
0000
1000
0000
0110
0000
1010
0000
0110
0000
0101
0000
0010
1000
0010
1000
,
0110
1001
0110
1001
,
0110
0001
0110
0000
0110
0000
0110
1010
,
0110
0101
0110
0101
,
0101
0000
0000
0010
0000
0000
0101
0000
0000
1001
0000
0000
0101
0000
0000
0011
0000
1000
0100
0010
0001
1000
0100
0010
,
1001
0100
1010
0010
0101
0100
1010
0010
,
0101
0101
0101
0010
1010
0100
0101
0110
,
1010
0010
0101
0100
1010
0010
0101
0100
,
0011
0000
0011
0000
0011
0000
1010
0000
0110
0000
0011
0000
1000
0100
0010
0001
,
1100
0010
0011
0100
1100
0010
0011
0100
,
1100
1100
1100
0010
1010
0001
1100
0110
,
0011
0010
0101
1000
0101
0010
0101
1000
,
0011
0000
0011
0000
0011
0000
1001
0000
0011
0000
1001
0000
0010
0100
0001
0100
,
0011
1000
0110
0001
0110
1000
0110
0001
,
0110
0110
0110
1000
0110
1000
0101
0101
,
0101
0010
1100
0010
0101
0010
1100
0010
,
0101
0000
0101
0000
0101
0000
1010
0000
0101
0000
1010
0000
0001
1000
0001
1000
,
0101
0010
1001
0010
0101
0010
1001
0010
,
1001
1001
1001
0010
1001
0100
1001
0101
,
0011
0100
1001
0100
0011
0100
1001
0010
,
0101
0000
0000
0101
0000
0000
0101
0000
0000
1000
0000
0000
0110
0000
0000
0110
0000
1000
0100
0010
0001
1000
0100
0010
,
1001
0010
0101
0100
1010
0010
0101
0100
,
1010
1010
1010
0100
0101
0010
1010
0110
,
0101
0100
1010
0010
0101
0100
1010
0010
,
1100
0000
1100
0000
1100
0000
0101
0000
0110
0000
1100
0000
0001
0010
0100
1000
,
0011
0100
1100
0010
0011
0100
1100
0010
,
0011
0011
0011
0100
0101
1000
0011
0110
,
1100
0100
1010
0001
1010
0100
1010
0001
,
1100
0000
1100
0000
1100
0000
1001
0000
1100
0000
1001
0000
0100
0010
1000
0010
,
1100
0001
0110
1000
0110
0001
0110
1000
,
0110
0110
0110
0001
0110
0001
1010
1010
,
1010
0100
0011
0100
1010
0100
0011
0100
,
1010
0000
1010
0000
1010
0000
0101
0000
1010
0000
0101
0000
1000
0001
1000
0001
,
1010
0100
1001
0100
1010
0100
1001
0100
,
1001
1001
1001
0100
1001
0010
1001
1010
,
1100
0010
1001
0010
1100
0010
1001
0100
,
2000
0002
0000
0000
3003
0000
0000
0000
;
