#TITLE:Poke Her Face Again;
#SUBTITLE:;
#ARTIST:Loffciamcore;
#TITLETRANSLIT:;
#SUBTITLETRANSLIT:;
#ARTISTTRANSLIT:;
#CREDIT:Rynker;
#BANNER:Bn-Poke.png;
#BACKGROUND:Bg-Poke.png;
#LYRICSPATH:;
#CDTITLE:;
#MUSIC:Loffciamcore - Poke Her Face Again.ogg;
#OFFSET:0.009;
#SAMPLESTART:55.999;
#SAMPLELENGTH:12.000;
#SELECTABLE:YES;
#BPMS:0.000=240.000;
#STOPS:;
#BGCHANGES:;
// cache tags:
#FIRSTBEAT:0.000;
#LASTBEAT:563.000;
#SONGFILENAME:Songs/SPEEEDCOOOORE/Poke Her Face Again - [Rynker]/Poke Her Face Again.sm;
#HASMUSIC:1;
#HASBANNER:1;
#MUSICLENGTH:141.992;
// end cache tags

//---------------dance-single - Rynker----------------
#NOTES:
     dance-single:
     Rynker:
     Challenge:
     13:
     0.995,1.000,0.373,0.113,0.331,920.000,53.000,16.000,13.000,0.000:

M000
M000
00M0
00M0
,
M000
M000
000M
000M
,
0M00
0M00
00M0
00M0
,
000M
1000
1000
1000
,
2000
3100
0010
0001
,
1000
0001
0100
0010
1000
0001
0010
0100
,
0010
0000
0000
0000
0100
0000
1000
0000
0001
0100
0001
0100
0001
1000
0001
1000
,
0200
1300
0002
0103
,
0010
0100
0001
1000
0100
0010
0001
0010
,
0100
1000
0010
0100
0001
0010
0100
0010
,
0001
0000
1000
0000
0001
0000
0100
0100
,
0020
0130
0020
0130
,
1001
1000
0100
0000
0010
0000
0001
0000
,
1000
0000
0010
0100
0001
0000
1000
0000
,
1100
0100
0010
0001
1000
0010
1000
0001
,
0100
0010
1000
0100
0010
0001
1000
0001
,
0100
0010
1010
1000
0001
0010
0001
0000
,
0011
0000
0000
0000
0001
0000
0010
0000
0100
1000
0100
1000
0001
1000
0001
1000
,
0010
0000
1000
1000
0010
0000
0100
0100
,
0001
0001
0010
0000
0100
0000
1000
0000
,
0001
0001
1001
0000
1000
0100
0010
0100
,
1000
1001
0001
1001
,
1010
1000
0010
0100
0001
0100
0001
0000
,
1000
0000
0100
0000
0010
0000
0001
0000
1000
0100
1000
0100
1000
0001
1000
0001
,
0100
0001
0010
0100
1000
0000
0001
0000
,
1000
0010
1000
0001
0010
0001
0010
0100
,
1000
0100
0100
0000
0010
0001
0001
0000
,
1001
0000
1000
0000
0010
0100
0001
0010
,
0011
0010
0100
1100
,
1010
0000
1000
0000
1000
0001
0010
0001
,
0011
0010
0100
1000
,
0001
0000
0000
0000
1000
0000
0000
0000
0010
1000
0010
1000
0001
1000
0001
1000
,
0100
0000
0010
0100
1000
0001
1000
0010
,
0100
0010
1000
0001
0010
0100
1000
0001
,
0100
0001
0100
0010
1000
0010
1000
0010
,
0100
0001
0100
0010
1000
0001
0010
0100
,
0010
0001
1000
1010
,
0110
0000
0010
0000
0100
0001
1000
0001
,
1001
0000
1000
0000
0100
0000
0010
0001
,
1000
0000
0010
0000
1000
0100
0010
0001
,
1000
0010
1000
0010
1000
0000
0001
0100
,
0010
1000
0001
1000
0100
0010
0100
1000
,
0001
1000
0010
0100
0001
0000
1000
0000
,
0100
0000
0000
0000
0010
0000
0001
0000
1000
0010
0100
0010
0100
0001
1000
0001
,
1000
0001
0010
0000
0001
0000
1010
0000
,
1000
0100
0010
1001
,
0001
0010
0001
0000
0100
0000
0001
0000
,
1100
0000
0000
0000
0001
0000
0000
0000
1000
0010
1000
0010
1000
0000
0001
0000
,
0100
0100
0010
0010
1000
0001
0010
0001
,
0200
0310
1000
0001
,
1000
0010
1000
0001
0010
0100
1000
0001
,
1000
0000
0010
0000
0100
0000
0001
0000
0010
0001
0010
0001
1000
0100
0010
0001
,
1000
0001
0001
0000
0100
0000
0100
0000
,
0001
0010
0010
0010
,
0100
1000
0001
0000
1000
0000
0010
0000
,
0100
0000
0000
0000
0001
0000
1000
0000
0001
0100
0001
0100
0010
1000
0001
0100
,
0001
0010
0010
0100
,
0100
1000
0010
0010
1000
0000
0001
0100
,
0001
1000
0100
0010
0001
1000
0001
0100
,
0010
0000
1000
0000
0001
0000
1000
0000
0001
0010
0001
0010
0100
1000
0001
1000
,
0100
0000
1000
0001
1001
0000
0001
0000
,
0100
0010
0010
0010
,
1000
0100
0010
0001
,
1000
0001
0100
0001
1000
0100
0010
0001
,
1000
0001
1000
0001
1000
0001
1000
0001
0100
0000
0000
0000
0001
0000
0000
0000
,
0001
1000
0100
0010
,
0001
0000
0100
0010
1000
0000
0001
0000
,
1000
0100
0010
0001
1000
0100
0010
0001
,
1000
0001
0011
0110
,
1100
1010
1000
1001
,
0011
0000
0110
0000
1100
0000
0001
1000
,
0010
0000
0100
0000
0001
0100
0001
0000
,
1000
0010
1000
0001
0010
0100
1000
0100
,
0010
0000
0000
0000
0001
0000
1000
0000
0010
1000
0010
1000
0001
1000
0001
1000
,
0100
0000
0010
0100
1000
0001
0100
0001
,
0100
0000
0010
1000
0010
0000
1000
0000
,
1001
1000
0010
0100
0010
1000
0001
0010
,
0001
1000
1010
0001
,
0010
0010
0100
1000
0001
1000
0010
0100
,
0010
1000
0001
0010
0100
1000
0001
1000
,
0010
1000
1001
0000
0001
1000
0010
0100
,
0001
1000
0001
1000
,
0100
1000
0100
1000
0001
1000
0001
1000
0001
0000
1000
0000
0100
0000
0010
0000
,
0001
0000
1000
0000
0010
0000
0100
0000
0010
1000
0010
1000
0010
0000
0100
0000
,
0001
0000
1000
0000
0100
1000
0100
1000
0100
0000
0010
0000
0001
0000
1000
0000
,
0001
0000
0001
0000
0100
0000
0010
1000
,
0010
0000
0100
0000
0001
0000
1000
0100
,
0010
0001
0100
0001
1000
0100
0010
0001
,
1000
0001
0101
0100
0010
1000
0001
0010
,
0100
0000
0000
0000
0100
0000
1000
0000
0001
0100
0001
0100
0010
1000
0001
0100
,
0001
1000
0100
1000
0100
0000
1000
0000
,
0001
0010
0002
0000
,
0203
0000
0310
1000
,
0010
0000
0100
0000
0001
1000
0100
0010
,
0001
0100
0100
0000
0010
0000
1000
0000
,
0001
0000
0010
0000
0100
1000
0010
0100
,
0001
0100
0001
1000
,
0100
0000
0100
0000
0010
0000
0010
0000
0001
0010
0100
1000
0001
1000
0100
0010
,
0001
0100
0001
0100
0001
1000
0100
0010
,
0001
0000
1000
0000
0001
0000
0100
0000
0010
0100
0010
0100
0001
1000
0100
0010
,
0001
1000
0100
0010
,
0011
0000
0001
0000
0101
0001
0100
0010
,
1000
0010
0100
0100
,
0100
0000
0001
0000
1000
0000
0100
0010
,
0110
0010
0001
1000
,
0001
0000
0100
0000
0010
1000
0010
0100
,
0001
0000
1000
0100
1000
0100
0010
0100
,
1000
0100
1000
0001
0100
0001
0100
0001
,
0101
0000
0110
0000
1001
0000
0001
1000
,
1100
0000
0000
0000
1001
0000
0000
0000
0001
1000
0001
1000
0001
1000
0001
1000
,
0010
0100
0001
1000
0010
0100
0010
1000
0001
1000
0100
0010
0001
1000
0001
0010
,
0001
1000
0010
0100
0001
1000
0001
0100
0010
1000
0001
1000
0100
0010
0001
1000
,
0001
1000
0100
0010
0001
0010
0100
1000
,
0001
0100
0010
0100
0001
1000
0100
0010
,
0200
1300
0001
0100
,
0010
0100
0001
1000
0100
0000
0010
0001
,
0010
0000
0001
0001
0100
0000
0020
0000
,
0030
1000
0100
0020
,
0030
0001
0001
0100
,
0020
0030
2000
3000
,
0020
0030
0100
0002
,
1003
0000
0100
0000
0010
0001
0010
0001
,
1000
0001
0100
0001
0100
0010
1000
0010
,
1000
0001
0010
0001
0010
0100
1000
0100
,
1000
0000
0001
0100
0110
0000
0100
0000
,
0001
0010
0100
1001
,
1000
0010
0100
0001
0010
0001
1000
0100
,
1000
0010
0100
0001
1000
0001
0100
0010
1000
0001
0010
0001
1000
0100
0010
0001
,
1000
0001
0100
0000
0010
0000
1000
0000
,
0100
0010
0100
0000
1000
0000
0001
0100
,
0001
1000
0100
0010
0001
0010
0100
1000
,
0001
0100
0010
0100
0001
1000
0100
1000
,
0100
0010
0110
0000
0110
0000
0011
0000
,
1001
0000
0101
0001
1000
0000
1010
0000
,
0110
0000
0101
0000
1100
0000
0100
0010
,
0001
1000
0010
0101
,
1000
0001
1001
0000
1000
0001
0100
0000
,
0001
0100
0010
0100
0001
1000
0100
0010
,
0001
0100
0100
0001
,
0001
1000
0001
1000
0001
1000
0001
1000
0001
0000
1000
0000
0100
0000
0010
0000
,
0002
0000
0000
0003
;
