#TITLE:to Luv me I *** for u;
#SUBTITLE:;
#ARTIST:t+pazolite;
#TITLETRANSLIT:;
#SUBTITLETRANSLIT:;
#ARTISTTRANSLIT:;
#CREDIT:;
#BANNER:../bn.png;
#BACKGROUND:../veyron.png;
#LYRICSPATH:;
#CDTITLE:;
#MUSIC:to Luv me I ___ for you.ogg;
#OFFSET:-0.040;
#SAMPLESTART:151.659;
#SAMPLELENGTH:17.660;
#SELECTABLE:YES;
#DISPLAYBPM:220.000;
#BPMS:0.000=180.000,60.000=174.532,61.000=176.467,62.000=177.606,63.000=179.090,64.000=182.080,65.000=183.436,66.000=185.278,67.000=186.288,68.000=188.526,69.000=190.052,70.000=193.287,71.000=195.058,72.000=196.793,73.000=197.803,74.000=207.115,75.000=212.600,76.000=219.980,276.000=219.980,340.000=219.980,388.000=219.990,404.000=220.000,472.000=219.980,532.000=219.980,868.000=160.000,927.958=40.000,928.000=80.000;
#STOPS:;
#BGCHANGES:;
// cache tags:
#FIRSTBEAT:0.000;
#LASTBEAT:928.000;
#SONGFILENAME:Songs/Cirque du Veyron/Zaia - to Luv me I ___ for u/14 t+pazolite - to Luv me I ___ for u.sm;
#HASMUSIC:1;
#HASBANNER:1;
#MUSICLENGTH:271.584;
// end cache tags

//---------------dance-single - Zaia----------------
#NOTES:
     dance-single:
     Zaia:
     Challenge:
     16:
     1.000,1.000,0.265,0.906,0.867,1872.000,72.000,246.000,0.000,7.000:
2000
3000
0000
0000
0000
0000
0000
0000
0000
0000
0000
0000
0000
0000
0000
0000
0002
0003
0000
0000
0000
0000
0000
0000
0000
0000
0000
0000
0000
0000
0000
0000
,
0200
0300
0000
0000
0000
0000
0000
0000
0000
0000
0000
0000
0000
0000
0000
0000
0020
0030
0000
0000
0000
0000
0000
0000
0000
0000
0000
0000
0000
0000
0000
0000
,
0200
0300
0000
0000
0000
0000
0000
0000
0000
0000
0000
0000
0000
0000
0000
0000
0002
0003
0000
0000
0000
0000
0000
0000
0020
0030
0000
0000
0000
0000
0000
0000
,
0200
0300
0000
0000
0000
0000
0000
0000
0000
0000
0000
0000
0000
0000
0000
0000
2000
3000
0000
0000
0000
0000
0000
0000
0000
0000
0000
0000
0002
0003
0200
0300
,
0020
0030
0000
0000
0000
0000
0000
0000
0000
0000
0000
0000
0000
0000
0000
0000
0200
0300
0000
0000
0000
0000
0000
0000
0000
0000
0000
0000
0000
0000
0000
0000
,
0002
0003
0000
0000
0000
0000
0000
0000
0000
0000
0000
0000
0000
0000
0000
0000
2000
3000
0000
0000
0000
0000
0000
0000
0000
0000
0000
0000
0000
0000
0000
0000
,
0200
0300
0000
0000
0000
0000
0000
0000
0000
0000
0000
0000
0000
0000
0000
0000
0020
0030
0000
0000
0000
0000
0000
0000
0002
0003
0000
0000
0000
0000
0000
0000
,
2000
3000
0000
0000
0000
0000
0000
0000
0000
0000
0000
0000
0000
0000
0000
0000
0020
0030
0000
0000
0000
0000
0000
0000
0000
0000
0000
0000
0000
0000
0000
0000
,
0200
0300
0000
0000
0000
0000
0000
0000
0000
0000
0000
0000
0000
0000
0000
0000
0002
0003
0000
0000
0000
0000
0000
0000
0000
0000
0000
0000
0000
0000
0000
0000
,
0200
0300
0000
0000
0000
0000
0000
0000
0000
0000
0000
0000
0000
0000
0000
0000
0020
0030
0000
0000
0000
0000
0000
0000
0000
0000
0000
0000
0000
0000
0000
0000
,
2000
3000
0000
0000
0000
0000
0000
0000
0000
0000
0000
0000
0000
0000
0000
0000
0002
0003
0000
0000
0000
0000
0000
0000
0020
0030
0000
0000
0000
0000
0000
0000
,
0200
0300
0000
0000
0000
0000
0000
0000
0000
0000
0000
0000
0000
0000
0000
0000
2000
3000
0000
0000
0000
0000
0000
0000
0000
0000
0000
0000
0000
0000
0000
0000
,
0200
0300
0000
0000
0000
0000
0000
0000
0000
0000
0000
0000
0000
0000
0000
0000
2000
3000
0000
0000
0000
0000
0000
0000
0020
0030
0000
0000
0000
0000
0000
0000
,
0200
0300
0000
0000
0000
0000
0000
0000
0000
0000
0000
0000
0000
0000
0000
0000
0002
0003
0000
0000
0000
0000
0000
0000
0000
0000
0000
0000
0000
0000
0000
0000
,
2000
3000
0000
0000
0000
0000
0000
0000
0000
0000
0000
0000
0000
0000
0000
0000
0200
0300
0000
0000
0000
0000
0000
0000
0000
0000
0000
0000
2000
3000
0020
0030
,
0200
0300
0000
0000
0000
0000
0000
0000
0000
0000
0000
0000
0000
0000
0000
0000
0000
0000
0000
0000
0000
0000
0000
0000
0000
0000
0000
0000
0000
0000
0000
0000
,
0000
0000
0000
0000
,
0000
0000
0000
0000
,
0000
0000
0000
0000
,
1001
0000
0110
0000
0001
0001
1000
1000
,
0001
0100
0001
0000
1000
0000
0010
0000
0100
0010
0100
0000
0001
0000
1000
0000
,
0100
0010
0100
1000
0010
0100
0001
0010
,
0100
1000
0100
0000
1000
0000
0010
0000
0100
0001
0100
0000
0010
0000
1000
0000
,
0001
0010
0100
0010
0001
1000
0010
0100
,
0001
1000
0001
0000
0010
0000
0100
0000
0010
0001
0010
0000
0100
0000
1000
0000
,
0010
0100
0010
1000
0001
0010
0100
0010
,
0001
1000
0001
0000
0100
0000
0010
0000
1000
0010
1000
0000
0001
0000
0010
0000
,
0110
0000
1001
0000
1000
1000
0001
0001
,
0100
0010
0100
0000
0001
0000
1000
0000
0100
1000
0100
0000
0010
0000
0100
0000
,
1000
0010
0100
0001
0100
0010
1000
0001
,
0010
0100
0010
0000
0100
0000
1000
0000
0001
1000
0001
0000
0100
0000
0010
0000
,
1000
0001
0010
0100
1000
0010
0100
0001
,
1000
0010
1000
0000
0001
0000
0100
0000
0001
0100
0001
0000
0010
0000
0100
0000
,
1000
0001
0100
0010
0100
0001
0010
0100
,
1000
0100
0010
0001
1000
0100
1000
0001
0010
0100
0010
0001
1000
0001
1000
0100
,
1000
0010
0100
0001
1000
0010
0100
0010
1000
0001
0100
0010
1000
0100
0010
0001
,
1000
0000
0001
0100
0010
0100
0002
0000
0000
0000
0013
0100
1000
0001
1000
0001
,
0100
0100
0010
1000
0001
0001
0010
0100
,
1000
0000
0001
0000
0100
0000
0010
0000
0100
0000
0001
0000
0010
0000
0100
1000
,
0001
0001
1000
0010
0100
0100
0001
1000
,
0001
0100
0002
0000
1003
0100
2000
0000
3001
0100
0002
0000
2003
0000
3010
0100
,
0001
0001
1000
0100
0010
0010
0100
1000
,
0010
0000
0100
0000
0001
0000
0010
0000
0001
0000
0100
0000
0010
0000
1000
0100
,
0010
0010
0100
1000
0001
0001
0100
0010
,
1000
0000
0001
0100
0010
1000
0001
0010
0200
0000
0310
0001
1000
0010
1000
0010
,
0100
0100
0001
0010
0100
0100
1000
0010
,
0100
0000
0001
0000
0100
0000
0010
0000
1000
0000
0100
0000
0010
0000
0100
1000
,
0001
0001
1000
0010
0100
0100
0001
1000
,
0001
0010
0002
0000
1003
0010
2000
0000
3001
0010
0002
0000
2003
0000
3010
0100
,
0001
0001
0010
0001
1000
1000
0010
0100
,
0001
0000
1000
0000
0100
0000
0010
0000
0100
0000
1000
0000
0010
0000
0100
0001
,
1000
1000
0001
0010
0100
0100
1000
0001
,
1000
0100
0010
0001
1000
0010
0100
0001
2000
0000
3010
0100
0001
1000
0001
1000
,
0100
0000
1000
0000
0001
0100
0000
0001
1000
0000
0001
0010
0000
0100
1000
0000
,
0010
0000
0100
0000
0001
1000
0000
0001
0010
0000
0001
0100
0000
0010
1000
0000
,
0001
0000
0010
0000
0100
1000
0000
0100
0010
0000
0001
1000
0000
0010
0100
0000
,
0001
0000
0100
0000
0010
1000
0000
0001
0100
0000
0001
1000
0000
0100
0010
0000
,
0001
0000
1000
0000
0001
0010
0000
0001
1000
0000
0001
0100
0000
0010
1000
0000
,
0100
0000
0010
0000
0001
1000
0000
0001
0100
0000
0001
0010
0000
0100
1000
0000
,
0001
0000
0100
0000
0010
1000
0000
0010
0100
0000
0001
1000
0000
0100
0010
0000
,
0001
0000
0010
0000
0100
1000
0000
0001
0010
0000
0001
1000
0000
0010
0100
0000
,
0101
0001
0010
0100
,
1100
1000
0010
0100
,
0101
0001
0010
0100
,
1100
1000
0001
0100
,
1001
1000
0100
0010
,
0011
0001
0100
0010
,
1010
1000
0100
0010
,
0011
0001
1000
0010
,
1000
0001
1000
0100
1000
0010
1000
0100
,
1000
0001
0100
0001
1000
0001
0010
0001
,
0100
0010
1000
0001
1000
0100
1000
0010
,
0100
0001
0010
0001
0100
0001
1000
1000
,
0001
1000
0001
0100
0001
0010
0001
0100
,
0001
1000
0100
1000
0001
1000
0010
1000
,
0100
0010
0001
1000
0001
0100
0001
0010
,
0001
0000
0001
0000
1000
0000
0000
0000
0010
0000
1000
0001
1000
0000
0100
0000
,
0110
0010
0001
1000
0001
0010
0001
0100
,
0010
1000
0100
1000
0001
1000
0010
0100
,
0001
0010
0001
1000
0001
0100
0001
1000
,
0100
0010
0100
0010
0001
1000
0100
0100
,
1000
0010
1000
0001
1000
0010
1000
0100
,
0010
0001
0100
0001
1000
0001
0010
0100
,
1000
0000
0001
0000
1000
0000
0000
0000
0001
0000
0000
0010
0000
0000
0100
0000
,
1000
0000
0000
0000
0000
0000
0000
0000
0002
0003
0000
0000
0002
0003
0000
0000
,
1000
0100
0010
0100
1000
0001
0010
0001
0010
0100
1000
0010
0100
0001
0100
0001
,
1000
0010
0100
0001
0010
0001
1000
0100
1000
0001
0010
0100
1000
0001
1000
0001
,
0100
0000
0010
1000
0000
0001
0100
0000
0010
0000
1000
0001
0010
0000
0100
0000
,
1000
0001
0200
0000
0310
0010
2000
0000
,
3001
0100
0001
1000
0010
0100
0001
0010
0100
0010
0100
1000
0001
1000
0010
0100
,
0001
1000
0100
0010
0001
1000
0100
1000
0010
1000
0001
0100
0010
1000
0001
1000
,
0100
0000
0010
0001
0000
1000
0100
0000
0010
0000
0001
0100
0010
0000
1000
0000
,
0001
0000
1000
0000
0020
0000
0000
0000
0130
0001
1000
0001
1000
0001
0010
0100
,
1000
0010
0100
0010
1000
0001
0100
0001
0100
0010
1000
0100
0010
0001
0010
0001
,
1000
0100
0010
0001
0100
0001
1000
0010
1000
0001
0100
0010
1000
0001
1000
0001
,
0010
0000
0100
1000
0000
0001
0010
0000
0100
0000
1000
0001
0100
0000
0010
0000
,
2000
0000
3010
0100
0002
0000
2003
0000
,
3001
0010
0001
1000
0100
0010
0001
0100
0010
0100
0010
1000
0001
1000
0100
0010
,
0001
1000
0010
0100
0001
1000
0010
1000
0100
0010
0001
0010
0100
1000
0001
1000
,
0010
0000
0100
0001
0000
1000
0010
0000
0100
0000
0001
0010
0100
0000
1000
0000
,
0001
0010
0001
0010
0100
1000
0001
0100
0010
1000
0010
1000
0100
1000
0001
0010
,
0100
0000
0000
0000
,
0000
0000
0000
0000
,
1000
0000
0000
0010
0000
0100
0001
0000
0000
0010
0000
0100
,
1000
0000
0001
1000
0000
0010
0100
0000
0000
0001
0000
0000
,
1000
0000
0000
0100
0000
0010
0100
0000
0000
1000
0000
0001
,
0100
0000
0010
1000
0000
0010
0100
0000
0000
0001
0000
0000
,
0010
0000
0000
0100
0000
1000
0001
0000
0000
0010
0000
0100
,
0010
0000
0001
1000
0000
0001
0100
0000
0000
0010
0000
0000
,
1000
0000
0000
0001
0000
0010
0100
0000
0000
1000
0000
0100
,
0010
0000
0001
0010
0000
0001
0100
0000
0001
1000
0000
0000
,
0010
0000
0000
0100
0000
0001
1000
0000
0000
0100
0000
0010
,
0100
0000
1000
0100
0000
1000
0001
0000
0000
0100
0000
0000
,
0010
0000
0000
1000
0000
0001
0010
0000
0000
0100
0000
0010
,
0001
0000
1000
0001
0000
0100
0001
0000
0000
1000
0000
0000
,
0010
0000
0000
0100
0000
0001
0100
0000
0000
0001
0000
0010
,
0100
0000
1000
0010
0000
0100
0001
0000
1000
0001
0000
0000
,
0200
0000
0000
0000
0000
0000
0000
0000
0301
0000
0000
0000
0000
0000
1000
0001
,
0100
0010
0100
0000
0001
1000
0001
0000
0010
0000
0010
0000
0001
0000
0100
0000
,
0010
0000
1000
0000
0001
0010
0100
0010
0001
0000
1000
0000
0010
0000
0000
0000
,
0100
0000
0001
0000
1000
0000
0100
1000
0100
1000
0001
0000
1000
0000
0010
0000
,
0100
0000
0010
0000
1000
0000
0001
1000
0100
1000
0001
0000
0100
0000
0010
0000
,
1000
0010
0100
0000
0001
1000
0100
0000
0010
0001
0010
0001
1000
0010
0100
0010
,
0100
0000
0001
0000
1000
0000
0100
1000
0001
1000
0100
0000
0010
0000
0001
0000
,
1000
0010
1000
0000
0001
0000
0100
0001
0100
0010
0100
0000
0001
1000
0001
0000
,
0100
0000
0010
0000
1000
0000
0001
0010
0100
0010
0001
0000
1000
0000
0100
0000
,
1000
0000
0001
0000
0100
0000
0001
1000
0001
0000
1000
0010
1000
0001
1000
0001
,
0010
0000
0001
0000
1000
0010
0100
0010
1000
0000
0001
0000
0010
0000
0100
0000
,
0010
0000
0001
0000
1000
0000
0010
1000
0010
1000
0001
0000
1000
0000
0100
0000
,
0010
0000
0100
0000
1000
0000
0001
1000
0010
1000
0001
0000
0010
0000
0100
0000
,
1000
0100
0010
0000
0001
1000
0010
0000
0100
0001
0100
0001
1000
0100
0010
0100
,
0010
0000
0001
0000
1000
0000
0010
1000
0001
1000
0010
0000
0100
0000
0001
0000
,
1000
0100
1000
0000
0001
0000
1000
0001
1000
0010
1000
0000
0010
0100
0001
0000
,
1000
0000
0000
0000
,
0002
0000
0203
0000
0310
0010
0100
0100
,
0002
0003
0020
0030
0002
0003
0200
0300
0020
0030
2000
3000
0200
0300
2000
3000
,
0002
0003
2000
3000
0200
0300
2000
3000
0020
0030
0200
0300
0002
0003
0020
0030
,
0200
0300
0020
0030
0002
0003
2000
3000
0002
0003
0200
0300
0002
0003
2000
3000
,
0020
0030
2000
3000
0002
0003
2000
3000
0200
0300
0020
0030
0002
0003
0010
0100
,
2000
3000
0002
0003
0200
0300
0020
0030
2000
3000
0002
0003
0020
0030
0200
0300
,
2000
3000
0200
0300
0020
0030
0002
0003
0200
0300
0020
0030
2000
3000
0002
0003
,
0200
0300
0002
0003
2000
3000
0002
0003
0020
0030
0200
0300
2000
3000
0020
0030
,
2000
3000
0002
0003
2000
3000
0200
0300
0020
0030
0200
0300
2000
3000
0001
0000
,
1001
0000
2000
3000
0002
0003
0020
0030
0200
0300
2000
3000
0020
0030
2000
3000
,
0002
0003
2000
3000
0020
0030
2000
3000
0200
0300
0020
0030
0002
0003
0200
0300
,
0020
0030
0200
0300
0002
0003
2000
3000
0002
0003
0020
0030
0002
0003
2000
3000
,
0200
0300
2000
3000
0002
0003
2000
3000
0020
0030
0200
0300
0002
0003
0200
0300
,
0020
0030
2000
3000
0002
0003
2000
3000
0200
0300
2000
3000
0020
0030
2000
3000
,
0002
0003
0200
0300
0002
0003
0020
0030
0002
0003
2000
3000
0002
0003
0200
0300
,
0020
0030
2000
3000
0020
0030
0200
0300
0002
0003
2000
3000
0002
0003
0010
0001
,
2000
0000
3002
0000
1003
1000
0001
0001
,
0101
0110
1010
1100
,
0011
0000
0000
0000
1001
0000
0000
0000
0101
0000
0000
0000
0002
0000
0000
0003
,
1010
1001
0011
0110
,
1001
0000
0000
0000
0000
0000
1000
0000
0000
0000
0000
0000
0020
0000
0000
0000
0000
0000
0000
0000
0000
0030
0000
0000
0101
0000
0000
0000
0000
0000
0000
0000
0000
0000
0000
0000
2001
0000
0000
0000
3000
0000
0000
0000
0000
0000
0000
0000
,
0011
0110
1100
1001
,
1010
0000
0000
0000
0000
0000
0000
0000
0000
0000
0000
0000
0101
0000
0000
0000
0000
0000
0001
0000
0000
0000
0000
0000
0100
0000
0000
0000
0000
0000
0000
0000
0000
0000
0000
0000
0120
0030
0000
0000
0000
0000
0000
0000
0000
0000
0000
0000
,
1010
1001
1100
0011
,
0110
0100
2000
3000
0011
0000
0002
2003
,
3010
0000
0000
0000
0000
0000
0000
0000
0000
0000
0000
0000
0000
0000
0000
0000
0000
0000
0000
0000
0000
0000
0000
0000
0000
0000
0000
0000
0000
0000
0000
0000
0000
0000
0000
0000
0000
0000
0000
0000
0000
0000
0000
0000
0000
0000
0000
0000
0020
0000
0000
0030
0000
0000
0000
0000
0000
0000
0000
0000
0000
0000
0000
0000
0000
0000
0000
0000
0000
0000
0000
0000
0000
0000
0000
0000
0000
0000
0000
0000
0000
0000
0000
0000
0000
0000
0000
0000
0000
0000
0000
0000
0000
0000
0000
0000
0020
0000
0000
0000
0030
0000
0000
0000
0000
0000
0000
0000
0000
0000
0000
0000
0000
0000
0000
0000
0000
0000
0000
0000
0000
0000
0000
0000
0000
0000
0000
0000
0000
0000
0000
0000
0000
0000
0000
0000
0000
0000
0000
0000
0000
0000
0000
0000
0020
0000
0000
0000
0000
0000
0000
0000
0030
0000
0000
0000
0000
0000
0000
0000
0000
0000
0000
0000
0000
0000
0000
0000
0000
0000
0000
0000
0000
0000
0000
0000
0000
0000
0000
0000
0000
0000
0000
0000
0000
0000
0000
0000
0000
0000
0000
0000
,
0020
0000
0000
0000
0030
0000
0000
0000
0000
0000
0000
0000
0020
0000
0000
0000
0000
0000
0030
0000
0000
0000
0000
0000
0020
0000
0000
0000
0000
0000
0000
0000
0000
0030
0000
0000
1111
0000
0000
0000
0000
0000
0000
0000
0000
0000
0000
0000
,
1111
0000
0000
0000
0000
0000
0000
0000
0000
0000
0000
0000
0000
0000
0000
0000
0000
0000
0000
0000
0000
0000
0000
0000
0000
0000
0000
0000
0000
0000
0000
0000
0000
0000
0000
0000
0000
0000
0000
0000
0000
0000
0000
0000
0000
0000
0000
0000
0200
0000
0000
0300
0000
0000
0000
0000
0000
0000
0000
0000
0000
0000
0000
0000
0000
0000
0000
0000
0000
0000
0000
0000
0000
0000
0000
0000
0000
0000
0000
0000
0000
0000
0000
0000
0000
0000
0000
0000
0000
0000
0000
0000
0000
0000
0000
0000
0200
0000
0000
0000
0300
0000
0000
0000
0000
0000
0000
0000
0000
0000
0000
0000
0000
0000
0000
0000
0000
0000
0000
0000
0000
0000
0000
0000
0000
0000
0000
0000
0000
0000
0000
0000
0000
0000
0000
0000
0000
0000
0000
0000
0000
0000
0000
0000
0200
0000
0000
0000
0000
0000
0000
0000
0300
0000
0000
0000
0000
0000
0000
0000
0000
0000
0000
0000
0000
0000
0000
0000
0000
0000
0000
0000
0000
0000
0000
0000
0000
0000
0000
0000
0000
0000
0000
0000
0000
0000
0000
0000
0000
0000
0000
0000
,
0200
0000
0000
0000
0300
0000
0000
0000
0000
0000
0000
0000
0200
0000
0000
0000
0000
0000
0300
0000
0000
0000
0000
0000
0200
0000
0000
0000
0000
0000
0000
0000
0000
0300
0000
0000
1111
0000
0000
0000
0000
0000
0000
0000
0000
0000
0000
0000
,
1111
1001
1111
0110
,
1111
1001
1111
0110
,
1001
1001
1001
1001
,
0001
0000
1000
0100
2000
0000
3001
0100
0002
0000
1003
0100
2000
0000
3001
0100
,
0020
0000
1030
0001
1000
0010
0100
0010
2000
0000
3010
0100
0001
1000
0001
1000
,
0100
0010
0100
0000
1000
0000
0010
0000
0100
0010
0100
0000
0001
0000
1000
0000
,
0100
0010
0100
1000
0010
0100
0001
0010
,
0100
1000
0100
0000
1000
0000
0010
0000
0100
0001
0100
0000
0010
0000
1000
0000
,
0001
0010
0100
0010
0001
1000
0010
0100
,
0001
1000
0001
0000
0010
0000
0100
0000
0010
0001
0010
0000
0100
0000
1000
0000
,
0010
0100
0010
1000
0001
0010
0100
0010
,
0001
1000
0001
0000
0100
0000
0010
0000
1000
0010
1000
0000
0001
0000
0010
0000
,
0110
0000
1001
0000
1000
1000
0001
0001
,
0100
0010
0100
0000
0001
0000
1000
0000
0100
1000
0100
0000
0010
0000
0100
0000
,
1000
0010
0100
0001
0100
0010
1000
0001
,
0010
0100
0010
0000
0100
0000
1000
0000
0001
1000
0001
0000
0100
0000
0010
0000
,
1000
0001
0010
0100
1000
0010
0100
0001
,
1000
0010
1000
0000
0001
0000
0100
0000
0001
0100
0001
0000
0010
0000
0100
0000
,
1000
0001
0100
0010
0100
0001
0010
0100
,
1000
0001
1000
0000
0010
0000
0100
0000
0001
1000
0001
0000
0010
0000
0100
0000
,
2000
0000
3002
0000
0103
0100
0010
0010
,
1000
0000
0001
1000
0010
1000
0001
0000
0020
0030
0100
0010
0001
1000
0001
1000
,
0010
0100
0001
0100
0010
1000
0001
0100
0001
1000
0010
0100
0010
1000
0001
1000
,
0001
0010
0100
1000
0001
1000
0100
0010
0001
1000
0100
0010
0100
1000
0001
1000
,
0001
0100
0010
1000
0001
0100
0001
1000
0010
0100
0001
0100
0010
1000
0010
1000
,
0001
0100
0002
0000
1003
0100
2000
0000
3001
0010
0002
0000
1003
0000
0010
0000
,
1000
0001
0010
0100
1000
0001
0010
0001
1000
0100
1000
0001
0010
0001
1000
0001
,
1000
0010
0100
0010
1000
0001
0100
0010
1000
0010
0100
0001
1000
0001
0100
0001
,
1000
0100
0010
0100
1000
0001
0010
0100
1000
0100
1000
0100
0010
0100
1000
0001
,
1000
0000
0010
0100
0010
0100
0002
0000
0000
0003
0010
0100
1000
0001
1000
0001
,
0100
0010
1000
0001
0100
0010
1000
0001
1000
0010
0100
0001
1000
0010
1000
0010
,
0100
0001
1000
0100
1000
0001
0010
0100
1000
0001
0010
0001
0010
0100
1000
0001
,
1000
0010
0100
0001
1000
0010
1000
0001
0100
0010
1000
0001
0100
0010
1000
0001
,
1000
0010
2000
0000
3001
0010
0002
0000
1003
0010
2000
0000
3010
0000
0100
0000
,
0001
1000
0100
0010
0001
1000
0001
0010
0100
1000
0001
0010
0100
1000
0001
1000
,
0001
0100
0010
1000
0001
0100
0001
0100
0010
0100
0001
1000
0001
0100
0010
1000
,
0001
0010
0100
1000
0001
1000
0100
1000
0001
0010
0001
1000
0100
0010
0001
1000
,
0020
0000
0130
0001
1000
0001
0020
0000
0000
0030
0100
0010
0001
1000
0001
1000
,
0010
0000
0110
0000
,
0101
0101
0101
0000
,
1001
0000
1100
0000
,
0110
0000
1100
0100
1000
0000
0000
0000
,
1001
0010
1001
0100
,
1001
0001
0100
0001
1000
0000
0002
0003
,
0110
0000
0001
1000
0110
0000
0001
0010
,
0110
0000
0100
0000
1000
0000
0001
0000
1000
0000
0010
0000
1000
0001
1000
0001
,
0100
0010
0100
0001
1000
0010
1000
0001
0100
0010
1000
0010
0100
0001
1000
0001
,
1000
0100
0010
0100
1000
0001
0010
0100
1000
0001
0010
0001
1000
0100
0010
0001
,
1000
0010
0100
0001
1000
0010
1000
0001
0100
0010
1000
0010
0100
0001
1000
0010
,
1000
0001
1000
0100
0010
0100
1000
0001
1000
0100
1000
0100
0010
0001
0010
0100
,
1000
0010
0100
0001
0010
0001
0100
0010
1000
0001
0010
0100
0010
0001
1000
0010
,
0100
0010
1000
0100
0010
0001
0100
0010
0100
0001
0010
0100
1000
0010
1000
0001
,
0100
0010
1000
0001
1000
0001
0100
0010
1000
0001
1000
0001
0100
0010
1000
0001
,
1000
0001
0010
0100
1000
0001
1000
0001
0010
0100
1000
0001
1000
0001
0010
0100
,
1000
0000
0000
0000
,
0000
0000
0000
0000
0000
0000
0000
0000
0000
0000
0000
0000
0000
0000
0000
0000
0002
0003
0000
0000
0000
0000
0000
0000
0000
0000
0000
0000
0000
0000
0000
0000
,
2000
3000
0000
0000
0000
0000
0000
0000
0000
0000
0000
0000
0000
0000
0000
0000
0020
0030
0000
0000
0000
0000
0000
0000
0000
0000
0000
0000
0000
0000
0000
0000
,
0200
0300
0000
0000
0000
0000
0000
0000
0000
0000
0000
0000
0000
0000
0000
0000
0002
0003
0000
0000
0000
0000
0000
0000
0000
0000
0000
0000
0000
0000
0000
0000
,
0020
0030
0000
0000
0000
0000
0000
0000
0200
0300
0000
0000
0000
0000
0000
0000
2000
3000
0000
0000
0000
0000
0000
0000
0000
0000
0000
0000
0000
0000
0000
0000
,
0000
0000
0000
0000
0000
0000
0000
0000
0000
0000
0000
0000
0002
0003
0200
0300
0020
0030
0000
0000
0000
0000
0000
0000
0000
0000
0000
0000
0000
0000
0000
0000
,
0200
0300
0000
0000
0000
0000
0000
0000
0000
0000
0000
0000
0000
0000
0000
0000
0002
0003
0000
0000
0000
0000
0000
0000
0000
0000
0000
0000
0000
0000
0000
0000
,
2000
3000
0000
0000
0000
0000
0000
0000
0000
0000
0000
0000
0000
0000
0000
0000
0200
0300
0000
0000
0000
0000
0000
0000
0000
0000
0000
0000
0000
0000
0000
0000
,
2000
3000
0000
0000
0000
0000
0000
0000
0020
0030
0000
0000
0000
0000
0000
0000
0200
0300
0000
0000
0000
0000
0000
0000
0000
0000
0000
0000
0000
0000
0000
0000
,
0000
0000
0000
0000
0000
0000
0000
0000
0000
0000
0000
0000
0000
0000
0000
0000
0002
0003
0000
0000
0000
0000
0000
0000
0000
0000
0000
0000
0000
0000
0000
0000
,
0020
0030
0000
0000
0000
0000
0000
0000
0000
0000
0000
0000
0000
0000
0000
0000
0200
0300
0000
0000
0000
0000
0000
0000
0000
0000
0000
0000
0000
0000
0000
0000
,
0020
0030
0000
0000
0000
0000
0000
0000
0000
0000
0000
0000
0000
0000
0000
0000
0002
0003
0000
0000
0000
0000
0000
0000
0000
0000
0000
0000
0000
0000
0000
0000
,
0200
0300
0000
0000
0000
0000
0000
0000
0020
0030
0000
0000
0000
0000
0000
0000
2000
3000
0000
0000
0000
0000
0000
0000
0000
0000
0000
0000
0000
0000
0000
0000
,
0000
0000
0000
0000
0000
0000
0000
0000
0000
0000
0000
0000
0000
0000
0000
0000
0200
0300
0000
0000
0000
0000
0000
0000
0000
0000
0000
0000
0000
0000
0000
0000
,
2000
3000
0000
0000
0000
0000
0000
0000
0020
0030
0000
0000
0000
0000
0000
0000
0200
0300
0000
0000
0000
0000
0000
0000
0000
0000
0000
0000
0000
0000
0000
0000
,
0001
0000
0000
0000
;
