#TITLE:Quadraphinix;
#SUBTITLE:;
#ARTIST:Sharkey & Arkitech;
#TITLETRANSLIT:;
#SUBTITLETRANSLIT:;
#ARTISTTRANSLIT:;
#CREDIT:;
#BANNER:../banner.png;
#BACKGROUND:../bg.png;
#LYRICSPATH:;
#CDTITLE:;
#MUSIC:Quadraphinix.ogg;
#OFFSET:-0.012;
#SAMPLESTART:58.618;
#SAMPLELENGTH:21.540;
#SELECTABLE:YES;
#BPMS:0.000=180.212;
#STOPS:;
#BGCHANGES:;
// cache tags:
#FIRSTBEAT:32.000;
#LASTBEAT:500.000;
#SONGFILENAME:Songs/Cirque du Lykan/Quadraphinix - [Zaia]/Quadraphinix.sm;
#HASMUSIC:1;
#HASBANNER:1;
#MUSICLENGTH:169.090;
// end cache tags

//---------------dance-single - Zaia - 15(low)----------------
#NOTES:
     dance-single:
     Zaia - 15(low):
     Challenge:
     15:
     1.000,1.000,0.124,0.166,1.000,1389.000,21.000,28.000,0.000,0.000:
0000
0000
0000
0000
,
0000
0000
0000
0000
,
0000
0000
0000
0000
,
0000
0000
0000
0000
,
0000
0000
0000
0000
,
0000
0000
0000
0000
,
0000
0000
0000
0000
,
0000
0000
0000
0000
,
1000
0000
0000
0001
0100
0000
0010
1000
,
0001
1000
0000
0100
1000
0000
0001
0010
,
0001
1000
0000
0010
0100
0000
0001
1000
,
0100
1000
0000
0001
0010
0000
0001
1000
,
0010
1000
0001
1000
0100
1000
0001
0010
0001
1000
0001
0100
0010
0100
0001
1000
,
0100
0010
0001
1000
0001
0010
0001
1000
0010
1000
0001
1000
0100
0010
0100
1000
,
0001
0100
0010
0100
0001
1000
0010
0100
0001
1000
0100
0010
0100
1000
0001
0010
,
0001
1000
0010
0100
0001
1000
0001
0010
0100
1000
0001
1000
0010
1000
0001
0010
,
0100
0000
1000
0000
0001
0000
1000
0000
0010
0000
1000
0000
0001
0000
1000
0100
,
1000
0000
0001
0000
0100
0000
0001
0000
0010
0000
0001
0000
1000
0000
0001
0100
,
0001
0000
1000
0000
0010
0000
1000
0000
0100
0000
1000
0000
0001
0000
1000
0010
,
1000
0000
0001
0000
0010
0000
0001
0000
0100
0000
0001
0000
1000
0000
0001
0010
,
0001
0000
1000
0000
0001
0000
1000
0000
0100
0000
1000
0000
0001
0000
1000
0010
,
1000
0000
0001
0000
0010
0000
0001
0000
0100
0000
0001
0000
1000
0000
0001
0010
,
0001
0000
1000
0000
0100
0000
1000
0000
0010
0000
1000
0000
0001
0000
1000
0100
,
1000
0000
0001
0000
0100
0000
0001
0000
0010
0000
0001
0000
1000
0000
0001
0100
,
0001
0000
1000
0010
0100
0000
0001
0100
0010
1000
0001
1000
0100
0000
0010
0001
,
1000
0000
0001
0010
0100
0000
1000
0100
0010
0001
1000
0001
0100
0000
0010
1000
,
0001
0000
1000
0100
0010
0000
0001
0010
0100
1000
0001
1000
0010
0000
0100
0001
,
1000
0000
0001
0100
0010
0000
1000
0010
0100
0001
1000
0001
0010
0000
0100
1000
,
0001
0010
0001
1000
0001
0100
0010
0100
0001
1000
0100
0010
0001
0010
0100
1000
,
0001
0100
0001
1000
0001
0010
0100
0010
0001
1000
0010
0100
0001
0100
0010
1000
,
0001
0010
0001
1000
0001
0100
0010
0100
0001
1000
0100
0010
0001
0010
0100
1000
,
0001
0100
0001
1000
0001
0010
0100
0010
0001
1000
0010
0100
0001
0100
0010
1000
,
0001
0000
0000
0001
0000
0000
0001
0000
,
0000
0001
0000
0000
0001
0000
0001
0000
,
1000
0000
0000
1000
0000
0000
1000
0000
,
0000
1000
0000
0000
1000
0000
1000
0000
,
0020
0000
0000
0000
,
0000
0000
0000
0000
,
0230
0000
0000
0000
,
0302
0000
0000
0000
,
1003
0010
0100
0001
1000
0001
0100
0010
0100
0001
1000
0010
0100
0001
1000
0010
,
1000
0100
0010
0001
1000
0100
1000
0001
0010
0100
1000
0001
0010
0100
0010
0001
,
0100
0010
1000
0001
1000
0010
0100
0001
0010
0100
1000
0001
1000
0100
0010
0100
,
1000
0010
0100
0001
1000
0100
0010
0001
1000
0010
0100
0001
1000
0100
0010
0001
,
1000
0010
1000
0100
1000
0001
0010
0001
1000
0100
1000
0001
0100
0010
0100
0001
,
1000
0100
1000
0010
1000
0001
0100
0001
1000
0010
1000
0001
0010
0100
0010
0001
,
1000
0010
1000
0100
1000
0001
0010
0001
1000
0100
1000
0001
0100
0010
0100
0001
,
1000
0100
1000
0010
1000
0001
0100
0001
1000
0010
1000
0001
0010
0100
0010
0001
,
1000
0001
0100
0001
0010
0001
1000
0100
1000
0001
0010
0001
1000
0010
0100
0010
,
1000
0001
0010
0001
0100
0001
1000
0010
1000
0001
0100
0001
1000
0100
0010
0100
,
1000
0001
0100
0001
0010
0001
1000
0100
1000
0001
0010
0001
1000
0010
0100
0010
,
1000
0001
0010
0001
0100
0001
1000
0010
1000
0001
0010
0001
1000
0001
0100
0010
,
1000
0100
1000
0010
1000
0001
0100
0001
1000
0010
1000
0001
0010
0100
0010
0001
,
1000
0010
1000
0100
1000
0001
0010
0001
1000
0100
1000
0001
0100
0010
0100
0001
,
1000
0100
1000
0010
1000
0001
0100
0001
1000
0010
1000
0001
0010
0100
0010
0001
,
1000
0010
1000
0100
1000
0001
0010
0001
1000
0100
1000
0001
0100
0010
0100
0001
,
1000
0001
0010
0001
0100
0001
1000
0010
1000
0001
0100
0001
1000
0100
0010
0100
,
1000
0001
0100
0001
0010
0001
1000
0100
1000
0001
0010
0001
1000
0010
0100
0010
,
1000
0001
0010
0001
0100
0001
1000
0010
1000
0001
0100
0001
1000
0100
0010
0100
,
1000
0001
0100
0001
0010
0001
1000
0100
1000
0001
0100
0001
1000
0001
0010
0100
,
1000
0001
0100
0010
1000
0100
1000
0001
0010
0001
0100
0001
1000
0010
1000
0001
,
0100
0001
0010
0100
1000
0010
1000
0001
0100
0001
0010
0001
1000
0100
1000
0001
,
0010
0001
1000
0010
0100
0001
0010
0001
1000
0100
1000
0010
1000
0001
0100
0001
,
1000
0010
1000
0100
0010
0001
0100
0001
1000
0010
1000
0100
1000
0001
0010
0001
,
1000
0001
0010
0100
1000
0010
1000
0001
0100
0001
0010
0001
1000
0100
1000
0001
,
0010
0001
0100
0010
1000
0100
1000
0001
0010
0001
0100
0001
1000
0010
1000
0001
,
0100
0001
1000
0100
0010
0001
0100
0001
1000
0010
1000
0100
1000
0001
0010
0001
,
1000
0100
1000
0010
0100
0001
0010
0001
1000
0100
1000
0010
1000
0001
0010
0001
,
1000
0001
0100
0010
1000
0100
1000
0001
0010
0001
0100
0001
1000
0010
1000
0001
,
0100
0001
0010
0100
1000
0010
1000
0001
0100
0001
0010
0001
1000
0100
1000
0001
,
0010
0001
1000
0010
0100
0001
0010
0001
1000
0100
1000
0010
1000
0001
0100
0001
,
1000
0010
1000
0100
0010
0001
0100
0001
1000
0010
1000
0100
1000
0001
0010
0001
,
1000
0001
0010
0100
1000
0010
1000
0001
0100
0001
0010
0001
1000
0100
1000
0001
,
0010
0001
0100
0010
1000
0100
1000
0001
0010
0001
0100
0001
1000
0010
1000
0001
,
0100
0001
1000
0100
0010
0001
0100
0001
1000
0010
1000
0100
1000
0001
0010
0001
,
1000
0000
0000
0000
0001
0000
0000
1000
0000
0001
0000
0000
1000
0001
1000
0001
,
1000
0020
0000
0230
0000
0302
0000
0013
,
0100
2000
0000
3002
0000
0203
0000
0310
,
1000
0002
0000
0203
0000
0320
0000
1030
,
0100
0020
0000
0230
0000
2300
0000
3010
,
0100
0002
0000
0023
0000
0230
0000
1300
,
0001
0200
0000
0320
0000
2030
0000
3001
,
0010
0200
0000
0320
0000
0032
0000
1003
,
0010
0200
0000
0302
0000
2003
0000
3001
,
0101
0110
1010
1001
,
0011
0110
1100
1001
,
0101
0110
1010
1001
,
0011
0110
1100
1001
,
0001
0000
0100
0000
0001
0000
1000
0000
0001
0000
0100
0000
0010
1000
0100
1000
,
0001
0000
1000
0000
0100
0000
1000
0000
0010
0000
1000
0000
0100
1000
0010
1000
,
0001
0100
0004
4003
3100
1000
0004
0403
,
0310
0000
1000
0001
0000
1000
0100
0000
0010
0001
1000
0001
0010
0100
1000
0000
,
0001
0100
0010
1000
0001
1000
0100
1000
0001
0100
0001
1000
0001
1000
0010
0100
,
0001
0010
0100
1000
0001
1000
0010
1000
0001
0010
0001
1000
0001
1000
0100
0010
,
0001
0100
0010
1000
0001
1000
0100
1000
0001
0100
0001
1000
0001
1000
0010
0100
,
0001
0010
0100
1000
0001
0000
0100
0000
0001
0010
0001
1000
0001
0000
0100
0000
,
0001
0010
0100
1000
0001
1000
0010
1000
0001
0010
0001
1000
0001
1000
0100
0010
,
0001
0100
0010
1000
0001
1000
0100
1000
0001
0100
0001
1000
0001
1000
0010
0100
,
0001
0010
0100
1000
0001
1000
0010
1000
0001
0010
0001
1000
0001
1000
0100
0010
,
0001
0000
0000
1001
0000
0000
1100
0000
0110
0000
0000
0010
0000
0000
0001
0000
,
1000
0100
0010
0001
0100
0001
1000
0010
1000
0100
1000
0001
1000
0001
0010
0100
,
1000
0010
0100
0001
0010
0001
1000
0100
1000
0010
1000
0001
1000
0001
0100
0010
,
1000
0100
0010
0001
0100
0001
1000
0010
1000
0100
1000
0001
1000
0001
0010
0100
,
1000
0010
0100
0001
0010
0001
1000
0100
1000
0010
1000
0001
1000
0001
0100
0010
,
1000
0100
0010
0001
0100
0001
1000
0010
1000
0100
1000
0001
0100
0001
0010
0100
,
1000
0010
0100
0001
0010
0001
1000
0100
1000
0010
1000
0001
0010
0001
0100
0010
,
1000
0100
0010
0001
0100
0001
1000
0010
1000
0100
1000
0001
0100
0001
0010
0100
,
1000
0000
0000
0001
0000
0000
0100
0000
0010
0000
0000
1000
0000
0000
0001
0000
,
0010
0000
0001
1000
0001
0000
1000
0100
1000
0000
0001
0100
0001
0000
0100
0010
,
0100
0000
0010
1000
0010
0000
1000
0001
1000
0000
0001
0010
0001
0000
0010
0100
,
0010
0000
0001
1000
0001
0000
1000
0010
1000
0000
0001
0010
0001
0000
1000
0100
,
1000
0000
0001
0000
0001
0000
0100
0010
1000
0000
0001
0010
0001
0010
0100
0000
,
0010
0000
0001
1000
0001
0000
1000
0010
1000
0000
0001
0010
0001
0000
0010
0100
,
0010
0000
0100
1000
0100
0000
1000
0001
1000
0000
0001
0100
0001
0000
0100
0010
,
0100
0000
0001
1000
0001
0000
1000
0100
1000
0000
0001
0100
0001
0000
1000
0010
,
1000
0000
0001
0000
1000
0000
0100
0000
1000
0001
1000
0001
1000
0001
1000
0001
,
0010
0000
0100
1000
0001
0000
0100
0010
1000
0000
0001
0010
0100
0000
0010
0001
,
1000
0000
0010
1000
0001
0000
0010
0100
1000
0000
0001
0000
1000
0000
0010
1000
,
0001
0000
0010
0001
1000
0000
0010
0100
0001
0000
1000
0100
0010
0000
0100
1000
,
0001
0000
1000
0000
0100
0000
0010
0100
1000
0000
0001
1000
0001
1000
0001
1000
,
0100
0010
0001
0100
0001
1000
0010
1000
0001
0100
0001
1000
0100
0010
0100
1000
,
0001
0100
0001
0010
0001
1000
0100
1000
0001
0010
0001
1000
0010
0100
0010
1000
,
0001
0010
0001
0100
0001
1000
0010
1000
0001
0100
0001
1000
0100
0010
0100
1000
,
0001
0100
0001
0010
0001
1000
0100
1000
0001
0010
0001
1000
0010
0100
0010
1000
,
0002
0000
0000
0000
,
0003
0000
0000
0000
;

//---------------dance-single - Zaia - 12(mid-high)----------------
#NOTES:
     dance-single:
     Zaia - 12(mid-high):
     Hard:
     12:
     0.982,1.000,0.124,0.166,0.902,1111.000,21.000,28.000,0.000,0.000:
0000
0000
0000
0000
,
0000
0000
0000
0000
,
0000
0000
0000
0000
,
0000
0000
0000
0000
,
0000
0000
0000
0000
,
0000
0000
0000
0000
,
0000
0000
0000
0000
,
0000
0000
0000
0000
,
1000
0000
0000
0001
0100
0000
0010
1000
,
0001
1000
0000
0100
1000
0000
0001
0010
,
0001
1000
0000
0010
0100
0000
0001
1000
,
0100
1000
0000
0001
0010
0000
0001
1000
,
0010
1000
0001
1000
0100
1000
0001
0010
0001
1000
0001
0100
0010
0100
0001
1000
,
0100
0010
0001
1000
0001
0010
0001
1000
0010
1000
0001
1000
0100
0010
0100
1000
,
0001
0100
0010
0100
0001
1000
0010
0100
0001
1000
0100
0010
0100
1000
0001
0010
,
0001
1000
0010
0100
0001
1000
0001
0010
0100
1000
0001
1000
0010
1000
0001
0010
,
0100
0000
1000
0000
0001
0000
1000
0000
0010
0000
1000
0000
0001
0000
1000
0100
,
1000
0000
0001
0000
0100
0000
0001
0000
0010
0000
0001
0000
1000
0000
0001
0100
,
0001
0000
1000
0000
0010
0000
1000
0000
0100
0000
1000
0000
0001
0000
1000
0010
,
1000
0000
0001
0000
0010
0000
0001
0000
0100
0000
0001
0000
1000
0000
0001
0010
,
0001
0000
1000
0000
0001
0000
1000
0000
0100
0000
1000
0000
0001
0000
1000
0010
,
1000
0000
0001
0000
0010
0000
0001
0000
0100
0000
0001
0000
1000
0000
0001
0010
,
0001
0000
1000
0000
0100
0000
1000
0000
0010
0000
1000
0000
0001
0000
1000
0100
,
1000
0000
0001
0000
0100
0000
0001
0000
0010
0000
0001
0000
1000
0000
0001
0100
,
0001
0000
1000
0010
0100
0000
0001
0100
0010
1000
0001
1000
0100
0000
0010
0001
,
1000
0000
0001
0010
0100
0000
1000
0100
0010
0001
1000
0001
0100
0000
0010
1000
,
0001
0000
1000
0100
0010
0000
0001
0010
0100
1000
0001
1000
0010
0000
0100
0001
,
1000
0000
0001
0100
0010
0000
1000
0010
0100
0001
1000
0001
0010
0000
0100
1000
,
0001
0010
0001
1000
0001
0100
0010
0100
0001
1000
0100
0010
0001
0010
0100
1000
,
0001
0100
0001
1000
0001
0010
0100
0010
0001
1000
0010
0100
0001
0100
0010
1000
,
0001
0010
0001
1000
0001
0100
0010
0100
0001
1000
0100
0010
0001
0010
0100
1000
,
0001
0100
0001
1000
0001
0010
0100
0010
0001
1000
0010
0100
0001
0100
0010
1000
,
0001
0000
0000
0001
0000
0000
0001
0000
,
0000
0001
0000
0000
0001
0000
0001
0000
,
1000
0000
0000
1000
0000
0000
1000
0000
,
0000
1000
0000
0000
1000
0000
1000
0000
,
0020
0000
0000
0000
,
0000
0000
0000
0000
,
0230
0000
0000
0000
,
0302
0000
0000
0000
,
1003
0010
0100
0001
1000
0001
0100
0010
0100
0001
1000
0010
0100
0001
1000
0010
,
1000
0100
0010
0001
1000
0100
1000
0001
0010
0100
1000
0001
0010
0100
0010
0001
,
0100
0010
1000
0001
1000
0010
0100
0001
0010
0100
1000
0001
1000
0100
0010
0100
,
1000
0010
0100
0001
1000
0100
0010
0001
1000
0010
0100
0001
1000
0100
0010
0001
,
1000
0010
1000
0001
1000
0100
1000
0010
,
0100
0001
0010
0001
1000
0001
0100
0001
,
1000
0100
1000
0001
1000
0010
1000
0100
,
1000
0001
0100
0001
1000
0001
0010
0001
,
0100
0010
1000
0001
1000
0100
1000
0010
,
0100
0001
0010
0001
1000
0001
0100
0001
,
1000
0100
1000
0001
1000
0010
1000
0100
,
1000
0001
0100
0001
1000
0001
0010
0100
,
0010
0001
0100
0001
1000
0001
0010
0001
,
0100
0010
1000
0100
1000
0001
1000
0010
,
1000
0001
0010
0001
1000
0001
0100
0001
,
0010
0001
1000
0010
1000
0001
1000
0100
,
1000
0010
0100
0001
1000
0001
0010
0001
,
0100
0010
1000
0100
1000
0001
1000
0010
,
1000
0001
0010
0001
1000
0001
0100
0001
,
0010
0001
1000
0010
1000
0001
1000
0100
,
0010
0100
1000
0001
1000
0100
1000
0010
,
0100
0001
0010
0001
1000
0001
0100
0001
,
1000
0100
1000
0001
1000
0010
1000
0100
,
1000
0001
0100
0001
1000
0001
0010
0001
,
0100
0010
1000
0001
1000
0100
1000
0010
,
0100
0001
0010
0001
1000
0001
0100
0001
,
1000
0100
1000
0001
1000
0010
1000
0100
,
1000
0001
0100
0001
1000
0001
0010
0100
,
0010
0000
0000
0000
0001
0000
0000
0000
1000
0000
0000
0000
0010
0000
0100
0001
,
1000
0000
0000
0000
0100
0000
0000
0000
0010
0000
0100
0000
0010
0000
0100
1000
,
0001
0000
0000
0000
1000
0000
0000
0000
0010
0000
0000
0000
0100
0000
0001
0100
,
0010
0000
1000
0000
0010
0000
1000
0000
0001
0100
0010
0100
0001
0000
1000
0001
,
1000
0001
0010
0100
1000
0010
1000
0001
0100
0001
0010
0001
1000
0100
1000
0001
,
0010
0001
0100
0010
1000
0100
1000
0001
0010
0001
0100
0001
1000
0010
1000
0001
,
0100
0001
1000
0100
0010
0001
0100
0001
1000
0010
1000
0100
1000
0001
0010
0001
,
1000
0000
0000
0000
0001
0000
0000
1000
0000
0001
0000
0000
1000
0001
1000
0001
,
1000
0020
0000
0230
0000
0302
0000
0013
,
0100
2000
0000
3002
0000
0203
0000
0310
,
1000
0002
0000
0203
0000
0320
0000
1030
,
0100
0020
0000
0230
0000
2300
0000
3010
,
0100
0002
0000
0023
0000
0230
0000
1300
,
0001
0200
0000
0320
0000
2030
0000
3001
,
0010
0200
0000
0320
0000
0032
0000
1003
,
0010
0200
0000
0302
0000
2003
0000
3001
,
0101
0110
1010
1001
,
0011
0110
1100
1001
,
0101
0110
1010
1001
,
0011
0110
1100
1001
,
0001
0000
0100
0000
0001
0000
1000
0000
0001
0000
0100
0000
0010
1000
0100
1000
,
0001
0000
1000
0000
0100
0000
1000
0000
0010
0000
1000
0000
0100
1000
0010
1000
,
0001
0100
0004
4003
3100
1000
0004
0403
,
0310
0000
1000
0001
0000
1000
0100
0000
0010
0001
1000
0001
0010
0100
1000
0000
,
0001
0100
0010
1000
0001
1000
0001
0010
,
0001
0100
0010
1000
0001
1000
0001
0010
,
0001
0100
0010
1000
0001
1000
0001
0010
,
0001
0100
0001
0001
1000
0100
1000
1000
,
0001
0010
0100
1000
0001
1000
0001
0100
,
0001
0010
0100
1000
0001
1000
0001
0100
,
0001
0010
0100
1000
0001
1000
0001
0100
,
0001
0000
0000
1001
0000
0000
1100
0000
0110
0000
0000
0010
0000
0000
0001
0000
,
1000
0100
0010
0001
0100
0001
1000
0010
1000
0100
1000
0001
1000
0001
0010
0100
,
1000
0010
0100
0001
0010
0001
1000
0100
1000
0010
1000
0001
1000
0001
0100
0010
,
1000
0100
0010
0001
0100
0001
1000
0010
1000
0100
1000
0001
1000
0001
0010
0100
,
1000
0010
0100
0001
0010
0001
1000
0100
1000
0010
1000
0001
1000
0001
0100
0010
,
1000
0100
0010
0001
0100
0001
1000
0010
1000
0100
1000
0001
0100
0001
0010
0100
,
1000
0010
0100
0001
0010
0001
1000
0100
1000
0010
1000
0001
0010
0001
0100
0010
,
1000
0100
0010
0001
0100
0001
1000
0010
1000
0100
1000
0001
0100
0001
0010
0100
,
1000
0000
0000
0001
0000
0000
0100
0000
0010
0000
0000
1000
0000
0000
0001
0000
,
0010
0000
0001
1000
0001
0000
1000
0100
1000
0000
0001
0100
0001
0000
0100
0010
,
0100
0000
0010
1000
0010
0000
1000
0001
1000
0000
0001
0010
0001
0000
0010
0100
,
0010
0000
0001
1000
0001
0000
1000
0010
1000
0000
0001
0010
0001
0000
1000
0100
,
1000
0000
0001
0000
0001
0000
0100
0010
1000
0000
0001
0010
0001
0010
0100
0000
,
0010
0000
0001
1000
0001
0000
1000
0010
1000
0000
0001
0010
0001
0000
0010
0100
,
0010
0000
0100
1000
0100
0000
1000
0001
1000
0000
0001
0100
0001
0000
0100
0010
,
0100
0000
0001
1000
0001
0000
1000
0100
1000
0000
0001
0100
0001
0000
1000
0010
,
1000
0000
0001
0000
1000
0000
0100
0000
1000
0001
1000
0001
1000
0001
1000
0001
,
0010
0000
0100
1000
0001
0000
0100
0010
1000
0000
0001
0010
0100
0000
0010
0001
,
1000
0000
0010
1000
0001
0000
0010
0100
1000
0000
0001
0000
1000
0000
0010
1000
,
0001
0000
0010
0001
1000
0000
0010
0100
0001
0000
1000
0100
0010
0000
0100
1000
,
0001
0000
1000
0000
0100
0000
0010
0100
1000
0000
0001
1000
0001
1000
0001
1000
,
0100
0010
0001
0100
0001
1000
0010
1000
0001
0100
0001
1000
0100
0010
0100
1000
,
0001
0100
0001
0010
0001
1000
0100
1000
0001
0010
0001
1000
0010
0100
0010
1000
,
0001
0010
0001
0100
0001
1000
0010
1000
0001
0100
0001
1000
0100
0010
0100
1000
,
0001
0100
0001
0010
0001
1000
0100
1000
0001
0010
0001
1000
0010
0100
0010
1000
,
0002
0000
0000
0000
,
0003
0000
0000
0000
;

//---------------dance-single - Zaia - 10(mid-high)----------------
#NOTES:
     dance-single:
     Zaia - 10(mid-high):
     Medium:
     10:
     0.798,0.998,0.124,0.166,0.260,894.000,21.000,28.000,0.000,0.000:
0000
0000
0000
0000
,
0000
0000
0000
0000
,
0000
0000
0000
0000
,
0000
0000
0000
0000
,
0000
0000
0000
0000
,
0000
0000
0000
0000
,
0000
0000
0000
0000
,
0000
0000
0000
0000
,
1000
0000
0000
0001
0100
0000
0010
1000
,
0001
1000
0000
0100
1000
0000
0001
0010
,
0001
1000
0000
0010
0100
0000
0001
1000
,
0100
1000
0000
0001
0010
0000
0001
1000
,
0010
0100
0001
1000
0100
0010
0100
1000
,
0001
1000
0010
0100
0001
1000
0001
0010
,
0100
1000
0001
0100
0001
1000
0100
1000
,
0001
0010
0100
1000
0010
0100
0001
1000
,
0100
0000
1000
0000
0001
0000
1000
0000
0010
0000
1000
0000
0001
0000
1000
0100
,
1000
0000
0001
0000
0100
0000
0001
0000
0010
0000
0001
0000
1000
0000
0001
0100
,
0001
0000
1000
0000
0010
0000
1000
0000
0100
0000
1000
0000
0001
0000
1000
0010
,
1000
0000
0001
0000
0010
0000
0001
0000
0100
0000
0001
0000
1000
0000
0001
0010
,
0001
0000
1000
0000
0001
0000
1000
0000
0100
0000
1000
0000
0001
0000
1000
0010
,
1000
0000
0001
0000
0010
0000
0001
0000
0100
0000
0001
0000
1000
0000
0001
0010
,
0001
0000
1000
0000
0100
0000
1000
0000
0010
0000
1000
0000
0001
0000
1000
0100
,
1000
0000
0001
0000
0100
0000
0001
0000
0010
0000
0001
0000
1000
0000
0001
0100
,
0001
0000
1000
0010
0100
0000
0001
0100
0010
1000
0001
1000
0010
0000
0100
0001
,
1000
0000
0001
0010
0100
0000
1000
0100
0010
0001
1000
0001
0010
0000
0100
1000
,
0001
0000
1000
0010
0100
0000
0001
0100
0010
1000
0001
1000
0010
0000
0100
0001
,
1000
0000
0001
0010
0100
0000
1000
0100
0010
0001
1000
0001
0010
0000
0100
1000
,
0001
0100
0010
1000
0100
1000
0001
0100
,
0010
1000
0100
1000
0010
0100
0001
0010
,
0001
1000
0010
0100
0001
0010
0001
1000
,
0100
0010
0001
0100
0001
1000
0100
0010
,
0001
0000
0000
0001
0000
0000
0001
0000
,
0000
0001
0000
0000
0001
0000
0001
0000
,
1000
0000
0000
1000
0000
0000
1000
0000
,
0000
1000
0000
0000
1000
0000
1000
0000
,
0020
0000
0000
0000
,
0000
0000
0000
0000
,
0230
0000
0000
0000
,
0302
0000
0000
0000
,
1003
0100
0010
0001
1000
0100
1000
0001
,
1000
0010
0100
0001
1000
0001
0100
0010
,
1000
0100
0010
0001
1000
0010
0100
0001
,
1000
0100
1000
0001
0100
0001
0010
0100
,
1000
0010
1000
0001
1000
0100
1000
0010
,
0100
0001
0010
0001
1000
0001
0100
0001
,
1000
0100
1000
0001
1000
0010
1000
0100
,
1000
0001
0100
0001
1000
0001
0010
0001
,
0100
0010
1000
0001
1000
0100
1000
0010
,
0100
0001
0010
0001
1000
0001
0100
0001
,
1000
0100
1000
0001
1000
0010
1000
0100
,
1000
0001
0100
0001
1000
0001
0010
0100
,
0010
0001
0100
0001
1000
0001
0010
0001
,
0100
0010
1000
0100
1000
0001
1000
0010
,
1000
0001
0010
0001
1000
0001
0100
0001
,
0010
0001
1000
0010
1000
0001
1000
0100
,
1000
0010
0100
0001
1000
0001
0010
0001
,
0100
0010
1000
0100
1000
0001
1000
0010
,
1000
0001
0010
0001
1000
0001
0100
0001
,
0010
0001
1000
0010
1000
0001
1000
0100
,
0010
0100
1000
0001
1000
0100
1000
0010
,
0100
0001
0010
0001
1000
0001
0100
0001
,
1000
0100
1000
0001
1000
0010
1000
0100
,
1000
0001
0100
0001
1000
0001
0010
0001
,
0100
0010
1000
0001
1000
0100
1000
0010
,
0100
0001
0010
0001
1000
0001
0100
0001
,
1000
0100
1000
0001
1000
0010
1000
0100
,
1000
0001
0100
0001
1000
0001
0010
0100
,
0010
0000
0000
0000
0001
0000
0000
0000
1000
0000
0000
0000
0010
0000
0100
0001
,
1000
0000
0000
0000
0100
0000
0000
0000
0010
0000
0100
0000
0010
0000
0100
1000
,
0001
0000
0000
0000
1000
0000
0000
0000
0010
0000
0000
0000
0100
0000
0001
0100
,
0010
0000
1000
0000
0010
0000
1000
0000
0001
0100
0010
0100
0001
0000
1000
0001
,
1000
0100
0010
0100
1000
0001
0100
0010
,
0100
0001
1000
0100
1000
0001
0100
0001
,
1000
0010
0100
0001
0010
0100
1000
0010
,
1000
0000
0000
0000
0001
0000
0000
1000
0000
0001
0000
0000
1000
0001
1000
0001
,
1000
0020
0000
0230
0000
0302
0000
0013
,
0100
2000
0000
3002
0000
0203
0000
0310
,
1000
0002
0000
0203
0000
0320
0000
1030
,
0100
0020
0000
0230
0000
2300
0000
3010
,
0100
0002
0000
0023
0000
0230
0000
1300
,
0001
0200
0000
0320
0000
2030
0000
3001
,
0010
0200
0000
0320
0000
0032
0000
1003
,
0010
0200
0000
0302
0000
2003
0000
3001
,
0101
0110
1010
1001
,
0011
0110
1100
1001
,
0101
0110
1010
1001
,
0011
0110
1100
1001
,
0001
0000
0100
0000
0001
0000
1000
0000
0001
0000
0100
0000
0010
1000
0010
1000
,
0001
0000
1000
0000
0100
0000
1000
0000
0010
0000
1000
0000
0100
1000
0100
1000
,
0001
0100
0004
4003
3100
1000
0004
0403
,
0310
0000
1000
0001
0000
1000
0001
0000
0010
0001
1000
0001
1000
0001
1000
0000
,
0001
0100
0010
1000
0001
1000
0001
0010
,
0001
0100
0010
1000
0001
1000
0001
0010
,
0001
0100
0010
1000
0001
1000
0001
0010
,
0001
0100
0001
0001
1000
0100
1000
1000
,
0001
0010
0100
1000
0001
1000
0001
0100
,
0001
0010
0100
1000
0001
1000
0001
0100
,
0001
0010
0100
1000
0001
1000
0001
0100
,
0001
0000
0000
1001
0000
0000
1100
0000
0110
0000
0000
0010
0000
0000
0001
0000
,
1000
0100
0010
0001
1000
0001
1000
0010
,
1000
0100
0010
0001
1000
0001
1000
0010
,
1000
0100
0010
0001
1000
0001
1000
0010
,
1000
0100
0010
0001
1000
0001
1000
0001
,
1000
0010
0100
0001
1000
0001
1000
0100
,
1000
0010
0100
0001
1000
0001
1000
0100
,
1000
0010
0100
0001
1000
0001
1000
0100
,
1000
0000
0000
0001
0000
0000
0100
0000
0010
0000
0000
1000
0000
0000
0001
0000
,
0010
0000
0001
1000
0001
0000
1000
0100
1000
0000
0001
0100
0001
0000
0100
0010
,
0100
0000
0010
1000
0010
0000
1000
0001
1000
0000
0001
0010
0001
0000
0010
0100
,
0010
0000
0001
1000
0001
0000
1000
0010
1000
0000
0001
0010
0001
0000
1000
0100
,
1000
0000
0001
0000
0001
0000
0100
0010
1000
0000
0001
0000
1000
0000
0001
0000
,
0010
0000
0001
1000
0001
0000
1000
0010
1000
0000
0001
0010
0001
0000
0010
0100
,
0010
0000
0100
1000
0100
0000
1000
0001
1000
0000
0001
0100
0001
0000
0100
0010
,
0100
0000
0001
1000
0001
0000
1000
0100
1000
0000
0001
0100
0001
0000
1000
0010
,
1000
0001
1000
0100
1000
0001
1000
0001
,
0010
0000
0100
1000
0001
0000
0100
0010
1000
0000
0001
0010
0100
0000
0010
0001
,
1000
0000
0010
1000
0001
0000
0010
0100
1000
0000
0001
0000
1000
0000
0010
1000
,
0001
0000
0010
0001
1000
0000
0010
0100
0001
0000
1000
0100
0010
0000
0100
1000
,
0001
0000
1000
0000
0100
0000
0010
0100
1000
0000
0001
0000
1000
0000
0001
0000
,
0100
0010
1000
0001
1000
0100
1000
0010
,
0100
0001
0010
0001
1000
0001
0100
0001
,
1000
0100
1000
0001
1000
0010
1000
0100
,
1000
0001
0100
0001
1000
0001
0010
0001
,
2000
0000
0000
0000
,
3000
0000
0000
0000
;
