#TITLE:Z;
#SUBTITLE:;
#ARTIST:DM Ashura;
#TITLETRANSLIT:;
#SUBTITLETRANSLIT:;
#ARTISTTRANSLIT:;
#CREDIT:;
#BANNER:z.png;
#BACKGROUND:Z-bg.png;
#LYRICSPATH:;
#CDTITLE:!irkedcdtitle.png;
#MUSIC:Z.mp3;
#OFFSET:-6.439;
#SAMPLESTART:92.794;
#SAMPLELENGTH:11.720;
#SELECTABLE:YES;
#BPMS:0.000=150.000;
#STOPS:;
#BGCHANGES:;
// cache tags:
#FIRSTBEAT:0.000;
#LASTBEAT:296.000;
#SONGFILENAME:Songs/toune 3/Z/Z.sm;
#HASMUSIC:1;
#HASBANNER:1;
#MUSICLENGTH:131.270;
// end cache tags

//---------------dance-single - ----------------
#NOTES:
     dance-single:
     :
     Hard:
     10:
     0.973,0.987,1.000,0.000,0.651,604.000,290.000,0.000,0.000,0.000:
1100
0000
1100
0000
0000
0000
0011
0100
0000
0010
1100
0000
1001
0000
0110
0000
,
0011
0000
0011
0000
0000
0000
1100
0010
0000
0100
0011
0000
1001
0000
0110
0000
,
0101
0000
0101
0000
0000
0000
1010
0100
0000
0010
0101
0000
1001
0000
0110
0000
,
1010
0000
1010
0000
0000
0000
0101
0010
0000
0100
1010
0000
1001
0000
0110
0000
,
0011
0000
0011
0000
0000
0000
1010
0100
0000
0100
1010
0000
0110
0000
1001
0000
,
1100
0000
1100
0000
0000
0000
0101
0010
0000
0010
0101
0000
0110
0000
1001
0000
,
0101
0000
0101
0000
0000
0000
1010
0100
0000
0010
0101
0000
0110
0000
1001
0000
,
1010
0000
1010
0000
0000
0000
0101
0010
0000
0100
1010
0000
0110
0000
1001
0000
,
0101
0000
0101
0000
0010
0000
1100
0010
0000
0100
0011
0000
1001
0000
0110
0000
,
1010
0000
1010
0000
0100
0000
0011
0100
0000
0010
1100
0000
1001
0000
0110
0000
,
0101
0000
0101
0000
0010
0000
1010
0100
0000
0010
0101
0000
0110
0000
1001
0000
,
1010
0000
1010
0000
0100
0000
0101
0010
0000
0100
1010
0000
0110
0000
1001
0000
,
0011
0000
0011
0000
0100
0000
1010
0100
0000
0010
0101
0000
0011
0000
1100
0000
,
0011
0000
0011
0000
0100
0000
1010
0100
0000
0010
0101
0000
0011
0000
1100
0000
,
1001
0000
1001
0000
0010
0000
1100
0010
0000
0100
0011
0000
1001
0000
0110
0000
,
1001
0000
1001
0000
0100
0000
0011
0100
0000
0010
1100
0000
1001
0000
0110
0000
,
0110
0000
0000
0000
0000
0000
0101
0000
0000
0000
0000
0000
0000
0000
1000
0100
,
0010
0000
0000
0000
0000
0000
0101
0000
0000
0000
0110
0000
1010
0000
0001
0010
,
0100
0000
0000
0000
0000
0000
1010
0000
0000
0000
0000
0000
0000
0000
1000
0100
,
0010
0000
0101
0000
0000
0000
0110
0000
0000
0000
1010
0000
1001
0000
0001
0010
,
0100
0000
0000
0000
0000
0000
1010
0000
0000
0000
0000
0000
0000
0000
1000
0100
,
0010
0000
0000
0000
0000
0000
0011
0000
0000
0000
0110
0000
1100
0000
0001
0010
,
0100
0000
0000
0000
0000
0000
1010
0000
0000
0000
0000
0000
0000
0000
1000
0100
,
0010
0000
0101
0000
0000
0000
0110
0000
0000
0000
1010
0000
1001
0000
0001
0010
,
0100
0000
0000
0000
0000
0000
1010
0000
0000
0000
0000
0000
0000
0000
1000
0100
,
0010
0000
0000
0000
0000
0000
0011
0000
0000
0000
0110
0000
1100
0000
0001
0010
,
0100
0000
0000
0000
0000
0000
1010
0000
0000
0000
0000
0000
0000
0000
1000
0100
,
0010
0000
0101
0000
0000
0000
0110
0000
0000
0000
1010
0000
1001
0000
1000
0100
,
0010
0000
0001
0010
0100
0000
1000
0100
0010
0001
0010
0100
1001
0110
0001
0010
,
0100
0000
1000
0100
0010
0000
0001
0010
0100
1000
0100
0010
1001
0110
1000
0100
,
0010
0000
0001
0100
0010
0000
1000
0010
0100
0001
0100
0010
1000
0001
0010
0100
,
1000
0100
0010
0001
1000
0010
0100
0001
1000
0100
0010
0001
0010
0100
1000
0100
,
1010
0000
0000
0000
,
0000
0000
0000
0000
,
0110
0000
0000
0000
0110
0101
0110
1010
,
0110
1001
0101
1010
0011
0110
1100
1001
,
0110
0000
0000
0000
0001
0010
0100
0000
0000
0000
0100
0000
0010
0000
0000
0000
,
1000
0100
0010
0001
0010
0100
1000
0100
0010
0001
0000
0000
0110
0000
0000
0000
,
1001
0000
0000
0110
0000
0000
0101
0110
,
1010
1001
0000
0101
0000
0000
0110
0000
,
0101
1000
0100
0010
0001
0010
0100
1000
0100
0010
0001
1000
0010
0100
0001
1000
,
0100
0010
0001
0010
0100
0010
0001
0010
0100
1000
0100
0010
0100
1000
0010
0100
,
1001
0000
0000
0000
0011
0110
1100
1010
,
0101
0000
1001
0000
0110
0000
1010
0000
0101
0000
0011
0000
0110
0000
1100
0010
,
0001
0010
0100
1000
0100
0010
0001
0010
0100
1000
0010
0100
0001
1000
0010
0100
,
0001
1000
0010
0100
0001
1000
0010
0100
0001
0010
0100
1000
0110
0000
0000
0000
,
0011
0000
0000
1100
0000
0000
0101
0110
,
1010
1001
0011
0110
1100
1010
0101
0110
,
1001
0100
0010
0001
0010
0100
1000
0001
0100
0010
1000
0100
0010
0001
0010
0100
,
1000
0001
0010
0100
1000
0100
0010
0001
1000
0010
0100
0001
1000
0010
0100
0001
,
1010
0000
1010
0000
0000
0000
0011
0100
0000
0010
1100
0000
1001
0000
0110
0000
,
0101
0000
0101
0000
0000
0000
1100
0010
0000
0100
0011
0000
1001
0000
0110
0000
,
0011
0000
0011
0000
0000
0000
1010
0100
0000
0010
0101
0000
1001
0000
0110
0000
,
1100
0000
1100
0000
0000
0000
0101
0010
0000
0100
1010
0000
1001
0000
0110
0000
,
0101
0000
0101
0000
0000
0000
1010
0100
0000
0010
0101
0000
1001
0000
0110
0000
,
1010
0000
1010
0000
0000
0000
0101
0010
0000
0100
1010
0000
1001
0000
0110
0000
,
0011
0000
0011
0000
0000
0000
1100
0010
0000
0100
0011
0000
1001
0000
0110
0000
,
1100
0000
1100
0000
0000
0000
0011
0100
0000
0010
1100
0000
1001
0000
0110
0000
,
0101
0000
0101
0000
0010
0000
1100
0010
0000
0100
0011
0000
1001
0000
0110
0000
,
1010
0000
1010
0000
0100
0000
0011
0100
0000
0010
1100
0000
1001
0000
0110
0000
,
0011
0000
0011
0000
0100
0000
1010
0100
0000
0010
0101
0000
1001
0000
0110
0000
,
1100
0000
1100
0000
0010
0000
0101
0010
0000
0100
1010
0000
1001
0000
0110
0000
,
0101
0000
0101
0000
0010
0000
1010
0100
0000
0010
0101
0000
1001
0000
0110
0000
,
1010
0000
1010
0000
0100
0000
0101
0010
0000
0100
1010
0000
1001
0000
0110
0000
,
0011
0000
0011
0000
0100
0000
1100
0010
0000
0100
0011
0000
1001
0000
0110
0000
,
1100
0000
1100
0000
0010
0000
0011
0100
0000
0010
1100
0000
1001
0000
0101
0010
,
0100
0000
0000
0000
0000
0000
1010
0000
0000
0000
0000
0000
0000
0000
1000
0100
,
0010
0000
0000
0000
0000
0000
0011
0000
0000
0000
0110
0000
1100
0000
0001
0010
,
0100
0000
0000
0000
0000
0000
1010
0000
0000
0000
0000
0000
0000
0000
1000
0100
,
0010
0000
0101
0000
0000
0000
0110
0000
0000
0000
1010
0000
1001
0000
0001
0010
,
0100
0000
0000
0000
0000
0000
1010
0000
0000
0000
0000
0000
0000
0000
1000
0100
,
0010
0000
0000
0000
0000
0000
0011
0000
0000
0000
0110
0000
1100
0000
0001
0010
,
0100
0000
0000
0000
0000
0000
1010
0000
0000
0000
0000
0000
0000
0000
1000
0100
,
0010
0001
1000
0100
0010
0001
0010
0100
1000
0001
0010
0100
1000
0001
0100
0010
,
1000
0000
0000
0000
;
