#TITLE:PARANOiA;
#SUBTITLE:-Respect-;
#ARTIST:.3k;
#TITLETRANSLIT:;
#SUBTITLETRANSLIT:;
#ARTISTTRANSLIT:;
#CREDIT:;
#BANNER:PARANOiA -Respect-.png;
#BACKGROUND:PARANOiA -Respect--bg.png;
#LYRICSPATH:PARANOiA -Respect-.lrc;
#CDTITLE:./CDTITLES/DANCE DANCE REVOLUTION PARTY COLLECTION.PNG;
#MUSIC:PARANOiA -Respect-.mp3;
#OFFSET:-3.501;
#SAMPLESTART:33.910;
#SAMPLELENGTH:12.000;
#SELECTABLE:YES;
#DISPLAYBPM:300.000;
#BPMS:0.000=300.000;
#STOPS:52.000=0.600
,83.000=0.200
,176.000=0.400
,240.000=0.400
,307.000=0.800
;
#BGCHANGES:;
// cache tags:
#FIRSTBEAT:4.000;
#LASTBEAT:461.000;
#SONGFILENAME:Songs/new cc/1072paranoia_respect copy/PARANOiA -Respect-.sm;
#HASMUSIC:1;
#HASBANNER:1;
#MUSICLENGTH:101.459;
// end cache tags

//---------------dance-double - ----------------
#NOTES:
     dance-double:
     :
     Hard:
     10:
     0.803,0.845,0.325,0.128,0.000,524.000,33.000,13.000,0.000,0.000:
00000000
00000000
00000000
00000000
,
00011000
00000010
00010000
00001000
,
00010000
00001000
00100000
00010000
,
00110000
00001000
00010000
00001000
,
00010000
00000010
00010000
00001000
,
00011000
01000000
00001000
00010000
,
00001000
00010000
00000010
00001000
,
00001010
00010000
00001000
00010000
,
00000100
00010000
00001000
00100000
,
00101000
00010000
00100000
00001000
,
00010000
00001000
00010000
00000100
,
00010100
00001000
00000100
00010000
,
00001000
00010000
00000010
00000100
,
00000000
00000000
00001010
00000000
00000001
00000100
00000001
00000000
,
00000010
00000000
00000100
00001000
00000100
00000000
00000010
00000000
,
00000001
00000100
00001000
00000000
00010000
00000000
00001000
00010000
,
00001000
00100000
00110000
01000000
,
11000000
00000000
00010000
00000000
00100000
00010000
00100000
00000000
,
00001000
00000000
00010000
00001000
00010000
00000000
00000010
00000000
,
00001000
00000001
00000100
00000000
00000010
00000000
00001000
00000001
,
00001000
00000001
00001100
00000000
00011000
00000000
00110000
00000000
,
10010000
00000000
10000000
01000000
10000000
00000000
00100000
00000000
,
01000000
00010000
01000000
00000000
00100000
00000000
10000000
01000000
,
00010000
00000000
00001000
00000000
00010000
00001000
00010000
00000000
,
00000010
00001010
00000100
00000101
,
00001000
00000000
00000010
00001000
00000010
00000000
00010000
00000000
,
00001000
00010000
00001000
00000000
00100000
00000000
00010000
10000000
,
01000000
00000000
00100000
00000000
00010000
10000000
00010000
00000000
,
01000000
00100000
10000000
01000000
00100000
00010000
01000000
00100000
,
10000000
10000000
01000000
01000000
,
00010000
00000000
00010000
00000000
00001000
00010000
00001000
00000000
,
00000010
00000010
00000001
00000001
,
00000100
00000000
00001000
00010000
00000000
00010000
01000000
00000000
,
10000000
10000000
00100000
00100000
,
01000000
00000000
00010000
10000000
01000000
00100000
00010000
00000000
,
00110000
00000000
00000010
00001010
,
00000000
00000000
00000001
00000010
00000100
00001000
00000010
00000000
,
00000100
00000100
00000001
00000001
,
00001000
00000000
00001000
00000000
00000100
00001000
00000100
00000000
,
00010000
00010000
00001000
00001000
,
00100000
00010000
00100000
00000000
01000000
00000000
01000000
00000000
,
10000000
10000000
00100000
00100000
,
01000000
00010000
01000000
00000000
00001000
00010000
00001000
00010000
,
00000010
00010000
00001000
00101000
,
00000000
00000000
11000000
00100000
,
00001000
00000000
00010000
00000000
00000010
00001000
00000010
00000000
,
00000100
00000001
00000101
00000010
,
00000100
00000000
00010000
00000000
00001000
01000000
00010000
00000000
,
01010000
10000000
11000000
00100000
,
00010000
00000000
01000000
00000000
10000000
01000000
10000000
00000000
,
01000000
00100000
10100000
10000000
,
01000000
00000000
00010000
00000000
00001000
00010000
00001000
00000000
,
00100000
00010000
00110000
00001000
,
00010000
00000000
00000010
00000000
00001000
00000010
00001000
00000000
,
00000001
00000010
00000011
00000100
,
00001000
00000000
00000010
00000000
00010000
00001000
00010000
00000000
,
00001000
01000000
01001000
00010000
,
10000000
00000000
01000000
00000000
00100000
01000000
00100000
00000000
,
00010000
01000000
01010000
00100000
,
10000000
00000000
00010000
00100000
00001000
00010000
00000100
00001000
,
00000001
00000000
00000010
00000001
00000000
00000001
00000100
00000000
,
00000100
00001000
00000000
00001000
00010000
00000000
00000000
00000000
,
00000000
00000000
01000000
10000000
00000000
10000000
00010000
00000000
,
00010000
01000000
00000000
01000000
00100000
00000000
10000000
00000000
,
00000000
00000000
01000000
00010000
00000000
00010000
00001000
00000000
,
00001000
00000100
00000000
00000100
00000001
00000000
00000000
00000000
,
00000000
00000000
00000010
00000100
00000000
00000100
00001000
00000000
,
00001000
00000001
00000000
00000001
00000100
00000000
00000010
00000000
,
00001000
00000010
00001000
00000000
00000010
00000000
00010000
00000000
,
00001000
00010000
00001000
00000000
00100000
00000000
00010000
00000000
,
00100000
00010000
00100000
00000000
01000000
00000000
10000000
00000000
,
00100000
10000000
00100000
00000000
01000000
00000000
00010000
00000000
,
00100000
00010000
00100000
00000000
00001000
00000000
00010000
00000000
,
00000010
00010000
00000010
00000000
00001000
00000000
00000100
00000000
,
00000010
00000100
00000010
00000000
00000001
00000010
00000001
00000000
,
00001000
00000001
00001000
00000000
00000001
00000100
00000010
00001000
,
00000100
00010000
00001000
00100000
00010000
10000000
01000000
00000000
,
21000000
00000000
01000000
00000000
,
01000000
00000000
32000000
00000000
,
00010000
00000000
00010000
00000000
,
00010000
00000000
03020000
00000000
,
00001000
00000000
00001000
00000000
,
00100000
00000000
00130000
00000000
,
00100000
10000000
00000000
10000000
01000000
00000000
01000000
00010000
,
00000000
00010000
00001000
00000000
00000100
00000000
00000001
00000000
,
00000102
00000000
00000100
00000000
,
00000100
00000000
00000100
00000000
,
00000010
00000000
00000010
00000000
,
00000010
00000000
00000010
00000000
,
00000023
00000000
00002030
00000000
,
00023000
00000000
00100000
00000000
,
00032000
00000000
00203000
00000000
,
02300000
03020000
00032000
00003200
,
00000300
00000000
00000000
00000000
,
00000001
00001000
00000100
00000010
00000001
00000100
00001000
00000100
,
00000001
00001000
00000100
00000010
00000001
00000000
00001000
00000000
,
00000001
00000100
00000010
00001000
00000010
00010000
00001000
01000000
,
00010000
10000000
00100000
10000000
01000000
00000000
00000000
00000000
,
10000000
00010000
01000000
00100000
10000000
01000000
00010000
01000000
,
10000000
00010000
01000000
00100000
10000000
00000000
00010000
00000000
,
10000000
01000000
00100000
00010000
00100000
00001000
00010000
00000100
,
00001000
00000001
00000010
00000001
00000100
00000000
00000000
00000000
,
00000001
00001000
00000010
00000100
00000001
00000010
00001000
00000010
,
00000001
00001000
00000010
00000100
00000001
00000000
00001000
00000000
,
00000001
00000010
00000100
00001000
00000100
00010000
00001000
00100000
,
00010000
10000000
01000000
10000000
00100000
00000000
00000000
00000000
,
10000000
00010000
00100000
01000000
10000000
00100000
00010000
00100000
,
10000000
00010000
00100000
01000000
10000000
00000000
00010000
00000000
,
10000000
00100000
01000000
00010000
01000000
00001000
00010000
00000010
,
00001000
00000001
00000100
00000001
00000010
00000000
00000000
00000001
,
00000000
00001000
00000000
00000001
00000000
00001000
00000000
00000001
,
00000000
00001000
00000000
00000001
00000000
00000000
00000010
00000001
,
00000000
00000011
00000000
00000000
00000001
00000100
00000000
00000101
,
00000000
00000000
00000100
00001000
00000000
00011000
00000000
00000000
,
00100000
11000000
00000000
00000000
;

//---------------dance-single - Copied from Copied f----------------
#NOTES:
     dance-single:
     Copied from Copied f:
     Challenge:
     13:
     1.000,1.000,0.493,0.355,0.079,750.000,50.000,36.000,0.000,0.000:
0000
0000
0000
0000
,
1001
0000
1000
0100
0000
0011
0000
0001
,
0010
0100
1000
0010
0100
1000
0100
0010
,
0110
0000
0010
1000
0000
1100
0000
0100
,
0010
0001
0010
1000
0010
0001
1000
0010
,
1010
0000
1000
0001
0000
0101
0000
0001
,
0010
0100
1000
0010
0100
0010
1000
0100
,
1100
0000
0100
0010
0000
0011
0000
0001
,
0010
1000
0010
0001
0100
1000
0100
0010
,
0110
0000
0100
0001
0000
1001
0000
1000
,
0100
0010
0100
0001
0100
0010
0001
0100
,
0101
0000
0001
1000
0000
1010
0000
0010
,
1000
0001
0010
1000
0010
0001
0100
0010
,
2000
0000
3000
1000
0100
0001
0100
1000
,
0000
0001
0100
1000
0100
0001
0000
0001
,
0010
0100
1000
0000
0010
0100
0001
0010
,
0100
1000
0100
0000
0010
0001
1000
0010
,
0100
0001
0000
1000
0010
0001
0010
1000
,
0000
0001
0010
1000
0010
0001
0000
0001
,
0011
0000
0110
0000
0100
1000
0001
0100
,
0010
1000
0100
0010
0001
0100
0202
0000
,
0303
0001
0100
1000
0100
0001
0000
1000
,
0100
0001
0100
1000
0000
0010
1000
0001
,
0100
0000
0001
0010
0001
0100
0010
1000
,
0100
0000
1000
0010
1000
0100
0010
0001
,
0000
0001
0010
1000
0010
0001
0000
1000
,
0010
0001
0010
1000
0000
1000
0010
0100
,
0001
0010
0100
1000
0100
0010
0001
0100
,
0010
1000
0100
0010
0001
0100
0010
1000
,
1020
0000
1030
0100
0000
0001
0100
1000
,
0020
0000
0001
0030
0010
0000
1000
0100
,
0001
0100
1000
0020
0000
0130
1000
0200
,
0010
0000
0010
0000
0310
0000
1000
0010
,
0002
0000
1003
0100
0000
0010
1000
0100
,
0002
0000
0100
0003
0010
0000
0001
0100
,
0101
0000
0001
1000
0100
1000
1100
0000
,
0100
1000
0010
0100
0001
0010
0100
1000
,
1200
0000
1300
0010
0000
0001
0010
1000
,
0200
0000
0001
0300
0100
0000
1000
0010
,
0001
0010
1000
0200
0000
0310
1000
0020
,
0100
0000
0100
0000
0130
0000
1000
0100
,
0002
0000
1003
0010
0000
0100
1000
0010
,
0002
0000
0010
0003
0100
0000
0001
0010
,
0011
0000
0001
1000
0010
1000
2020
0000
,
0000
3030
0000
0000
0000
0000
0000
0000
1001
0000
0001
0000
0010
0000
0100
0000
,
1000
0010
0100
0001
1000
0100
0010
0001
,
0100
0010
0000
0000
0110
0010
1000
0100
,
0010
0001
0100
0010
0100
0001
0010
0100
,
1000
0100
0000
0000
1100
0100
1000
0010
,
0100
0001
0010
0001
0100
0001
0010
0100
,
1000
0010
0000
0000
1010
0010
1000
0001
,
0010
0100
1000
0001
0100
0010
1000
0100
,
0010
0001
0010
0001
0011
0010
0001
0100
,
0010
1000
0100
0010
0100
1000
0010
0100
,
0001
0010
0000
0000
0011
0001
1000
0100
,
0010
0100
1000
0010
0100
0001
0010
0100
,
1000
0001
0000
0000
1001
0001
0010
0100
,
1000
0100
1000
0010
0100
0001
0010
0100
,
1000
0010
0000
0000
1010
0010
1000
0001
,
0010
0100
1000
0010
0100
0001
0100
0000
,
0010
0000
0000
0101
0000
0001
1000
0100
,
0010
0001
0010
0100
1000
0010
0100
0000
,
1001
0000
0000
1100
0000
0100
0010
0100
,
1000
0010
0100
0001
0010
0001
0100
0000
,
0101
0000
0000
1100
0000
1000
0100
1000
,
0010
0100
0001
0010
0001
1000
0010
0000
,
1010
0000
0000
0011
0000
0001
0010
0100
,
1000
0001
0100
0010
1000
0100
1000
0000
,
1100
0000
0000
0110
0000
0010
0001
0100
,
0010
1000
0100
0010
0001
0100
0010
0000
,
0110
0000
0000
0101
0000
0001
1000
0100
,
0010
0001
1000
0010
0100
0001
0010
0000
,
0011
0000
0000
1100
0000
1000
0100
1000
,
0010
0100
0001
0010
0001
0100
0010
0000
,
0110
0000
0000
1001
0000
0001
0010
0100
,
1000
0010
0100
0010
1000
0100
0010
0100
,
1000
0010
0100
0001
0010
0001
0200
0300
,
2001
0000
3002
0100
0000
0203
2000
0000
,
0300
0002
3000
0023
2000
0030
3100
0000
,
1002
0000
2003
0010
0000
3020
0002
0000
,
0030
2000
0003
3200
0002
0300
0013
0000
,
0011
0000
0001
0100
0000
0001
0010
0000
,
0100
1000
0000
0010
0100
0001
1000
0100
,
1000
0000
1000
0100
0000
0100
0001
0000
,
0001
0100
0000
0010
0001
0100
0010
0100
,
0110
0000
0020
0001
0000
0130
0010
1000
,
0100
0000
0001
0100
0000
0010
0001
0100
,
1000
0000
0100
0010
0000
1000
0100
0010
,
0001
0000
0001
0100
0000
0010
1000
0100
,
0010
0100
1000
0010
0100
0001
0010
0001
,
0100
0010
1000
0100
0010
0100
1000
0001
,
1000
0001
0100
0001
1000
0100
0010
0100
0010
0001
0010
0001
,
1000
0100
0010
0100
1000
0100
0010
0100
0010
0001
1000
0001
,
2000
0000
0001
0000
0001
0000
0001
3000
,
0100
0001
1000
0100
0010
0100
0001
0100
,
0010
1000
0010
0100
1000
0100
1000
0010
,
0100
1000
0100
0010
1000
0100
0001
0100
,
0010
0001
0100
1000
0100
0010
1000
0100
,
0010
0100
0001
0100
0010
1000
0010
0100
,
0010
0001
1000
0010
0100
0001
0010
0100
,
1000
0100
0001
0100
0010
0001
0010
1000
,
0010
0001
0100
0010
1000
0100
1000
0010
,
0100
0010
0100
0001
0010
0100
0001
0100
,
0010
0001
1000
0010
0100
0001
0010
0100
,
1000
0010
0100
1000
0100
0001
1000
0100
,
0001
0100
1000
0001
0100
0010
1000
0100
,
0010
0001
0010
1000
0010
0001
1000
0010
,
0001
0010
1000
0001
0010
0100
1000
0010
,
0100
0001
0010
0100
0010
1000
0010
0100
,
0010
0001
0100
1000
0100
0010
1000
0001
,
0000
0010
0001
0010
0000
0010
1000
0010
,
0000
0010
0100
0010
0000
0000
0010
0001
,
0100
0010
0000
0000
0100
0010
1000
0100
,
0000
0000
0001
0100
1000
0001
0000
0000
,
0110
2002
0000
0000
,
0000
3003
0000
0000
;
