#TITLE:He He He;
#SUBTITLE:;
#ARTIST:Cardboard Box;
#TITLETRANSLIT:;
#SUBTITLETRANSLIT:;
#ARTISTTRANSLIT:;
#CREDIT:;
#BANNER:../ban - Jawn2.png;
#BACKGROUND:../Jawn2 - bg.png;
#LYRICSPATH:;
#CDTITLE:../CDa.png;
#MUSIC:He He He.ogg;
#OFFSET:0.009;
#SAMPLESTART:49.350;
#SAMPLELENGTH:15.174;
#SELECTABLE:YES;
#BPMS:0.000=253.000;
#STOPS:;
#BGCHANGES:;
// cache tags:
#FIRSTBEAT:16.000;
#LASTBEAT:486.375;
#SONGFILENAME:Songs/Jimmy Jawns 2/He He He - [Aoreo]/He He He.sm;
#HASMUSIC:1;
#HASBANNER:1;
#MUSICLENGTH:116.968;
// end cache tags

//---------------dance-single - J. Nero----------------
#NOTES:
     dance-single:
     J. Nero:
     Challenge:
     23:
     1.000,1.000,0.051,0.316,1.000,1488.000,6.000,37.000,7.000,0.000:




0000
0000
0000
0000
,
0000
0000
0000
0000
,
0000
0000
0000
0000
,
0000
0000
0000
0000
,
1100
1000
0101
0001
,
1100
0000
1000
0100
0000
0100
0010
0000
,
0011
0001
1010
1000
,
0011
0000
0001
1000
0000
1000
0010
0000
,
0100
0001
0010
0001
1000
0100
0010
0100
,
1000
0010
0100
0010
1000
0100
0010
0001
,
0100
0001
0010
0001
1000
0100
0010
0100
,
1000
0001
0100
0001
1000
0100
1000
0001
,
0100
0001
0010
0001
1000
0100
0010
0100
,
1000
0010
0100
0010
1000
0100
0010
0001
,
0100
0010
0100
0001
1000
0100
0010
0001
,
0100
0001
1000
0100
0010
0100
1000
0010
,
0000
2000
3200
0320
,
0032
0000
0000
2003
0000
0000
3020
0030
,
0000
2000
3200
0320
,
0230
0000
0000
2300
0000
0000
3020
0030
,
0000
0200
0302
0023
,
0230
0000
0000
2300
0000
0000
3020
0030
,
0000
0200
0302
0023
,
0230
0000
1300
0020
0030
1000
0002
0003
,
0000
0000
1000
1000
0010
0010
0100
0100
,
0001
0000
0010
0000
0001
0000
0100
0000
0010
0000
1000
0000
0001
1000
0100
0010
,
0001
1000
0000
0010
0000
0100
0000
0002
,
0000
0000
0000
0000
0000
0000
0000
0000
1003
0100
1000
0001
0100
0010
0100
0001
,
2000
3200
0320
0032
,
1003
0000
0100
0000
0100
0000
0001
0000
0100
0000
0100
0000
1000
0001
1000
0010
,
0100
0001
1000
0100
0010
0000
0001
0000
0000
0000
0001
0000
0000
0000
1000
0010
,
1000
0001
0010
0100
1000
0001
0100
0010
0100
0001
1000
0100
0010
0001
1000
0001
,
0100
0000
0000
0010
0000
0000
1000
0000
0000
0001
0000
0000
1000
0000
0000
0000
0100
0000
0000
0000
0010
0000
0000
0000
0100
0000
0000
0000
1000
0000
0000
0000
0010
0000
0000
0000
0100
0000
0000
0000
0001
0000
0000
0000
1000
0000
0000
0000
,
0001
1000
0001
0010
0100
1000
0001
1000
0010
0100
0001
1000
0001
0010
0001
1000
,
0100
0010
0001
1000
0001
0100
0010
1000
0001
1000
0100
1000
0001
0100
0010
0100
,
0001
0000
1000
0000
0100
0000
0010
0001
1000
0001
0100
0010
1000
0010
0100
0001
,
1000
0100
0010
0001
0100
0001
1000
0010
0100
0010
1000
0001
0010
0100
0010
0001
,
1000
0001
0100
0010
1000
0010
0100
0001
1000
0001
0010
0100
1000
0001
1000
0010
,
0100
0001
0010
0100
1000
0001
0100
0000
,
0001
1000
0001
0010
0100
1000
0001
1000
0010
0100
0001
0010
0001
1000
0010
0100
,
0001
1000
0001
0010
0100
0010
0001
1000
0001
0100
0010
1000
0010
0100
0001
1000
,
0001
0010
0100
1000
0010
1000
0001
0100
0001
1000
0100
0010
0001
0100
0001
1000
,
0010
0100
0010
1000
0001
0010
0100
0010
0001
1000
0001
0100
0010
1000
0010
0100
,
0001
1000
0010
1000
0100
0010
0001
0100
0001
1000
0001
0010
0100
1000
0001
1000
,
0010
0100
0010
1000
0001
0010
0100
0010
0001
1000
0010
0100
0001
0100
0010
1000
,
0001
0010
0100
1000
0010
1000
0001
0100
0001
0010
0100
1000
0001
1000
0010
0100
,
0001
1000
0001
0010
0100
0010
0001
1000
0001
0100
0010
1000
0010
0100
0001
1000
,
0100
0010
0001
0100
0001
1000
0010
1000
0100
0010
0001
1000
0001
0100
0010
0100
,
0001
1000
0100
0010
0100
1000
0001
1000
0010
0100
0010
1000
0001
1000
0100
0010
,
0001
1000
0001
0010
0100
1000
0010
0100
0001
1000
0100
0010
0001
0100
0001
1000
,
0010
1000
0001
0010
0100
0010
0001
1000
0001
0100
0010
1000
0010
0100
0001
1000
,
0100
0010
0001
0100
0001
1000
0010
1000
0100
0010
0001
1000
0001
0100
0010
0100
,
0001
1000
0001
0010
0100
0010
0001
1000
0001
0100
0010
0100
0001
1000
0100
0010
,
0001
0100
0001
1000
0010
1000
0001
0100
0001
0010
0100
1000
0001
0100
0010
0100
,
0001
1000
0001
0010
0100
1000
0001
1000
0010
0100
0010
1000
0001
1000
0100
0010
,
0001
0100
0001
1000
0100
0010
0100
1000
0010
0100
0001
1000
0100
0010
0001
0100
,
0002
0000
0000
1003
0100
0100
1000
1000
,
0001
0000
0001
0000
0100
0000
0100
0000
0010
0000
0010
0000
1000
0001
1000
0100
,
0010
0000
0000
0000
0001
0100
0001
1000
0100
0000
0000
0000
0010
0001
1000
0001
,
0100
0000
0000
0000
0001
1000
0001
0010
0100
1000
0001
1000
0010
0100
0010
1000
,
0001
0100
0001
1000
0100
0010
0100
1000
0001
1000
0010
0100
0010
1000
0001
0100
,
0001
1000
0100
0010
0001
1000
0001
0100
0020
0000
0000
0000
0000
0000
0000
0000
,
1030
0000
0000
0000
0001
0000
0000
0000
1000
0000
0000
0000
0100
0000
0000
0000
0010
0000
0000
0000
0100
0000
0000
0000
1000
0000
0000
0000
0001
0000
0000
0000
0100
0000
0000
0000
0010
0000
0000
1000
0000
0000
0001
0000
0000
1000
0000
0000
,
0100
0010
0001
1000
0001
0100
0010
1000
0010
0100
0001
1000
0100
0010
0100
1000
,
0000
0000
0000
0000
0000
0000
0000
0000
0000
0000
0000
0000
0000
0000
0000
0002
0000
0000
0000
0000
0000
0000
0000
0000
0000
0000
0000
0000
0000
0000
0000
0000
2003
0000
0000
0000
0000
0000
0000
0000
0000
0000
0000
0000
0000
0000
0000
0000
3200
0000
0000
0000
0000
0000
0000
0000
0000
0000
0000
0000
0000
0000
0000
0000
,
1300
0000
0001
0000
0001
0000
0100
0000
0010
1000
0010
0100
0002
0000
0000
0000
,
0000
1003
0100
0100
0001
0100
0100
1000
,
0001
0000
0100
0000
0001
0000
1000
0010
1000
0001
0010
0100
0010
0001
1000
0001
,
0100
0010
1000
0010
0100
0001
1000
0001
0010
0100
1000
0001
1000
0010
0100
0010
,
1000
0001
1000
0100
0010
0100
1000
0001
1000
0010
0100
0001
0100
0010
1000
0001
,
1000
0100
0010
0001
0100
0001
1000
0010
1000
0100
0010
0100
1000
0001
1000
0010
,
0100
0001
1000
0100
0010
0001
1000
0001
0100
0010
1000
0100
0010
0001
0100
0001
,
1000
0010
1000
0100
0010
0001
1000
0001
0010
0100
0010
0001
0100
0010
1000
0010
,
0100
0001
1000
0100
0010
0001
1000
0010
1000
0001
0010
0100
0010
0001
0100
0010
,
1000
0010
0100
0001
1000
0100
0010
0100
1000
0010
0100
0001
1000
0100
0010
0001
,
0100
0001
1000
0010
1000
0001
0010
0100
0010
0001
0100
0010
1000
0001
1000
0100
,
0010
0001
0100
0001
1000
0010
0100
0001
0010
0100
0010
0001
1000
0010
0100
0010
,
1000
0001
1000
0100
0010
0001
0100
0001
1000
0010
0100
0010
1000
0001
0010
0100
,
0010
0001
0100
0001
1000
0010
0100
0010
1000
0001
1000
0100
0010
0001
0100
0001
,
1000
0010
0100
0010
1000
0001
0010
0100
0010
0001
0100
0001
1000
0010
0100
0001
,
1000
0001
0010
0100
1000
0010
1000
0001
0100
0010
0100
0001
0010
0100
1000
0001
,
1000
0010
0100
0010
1000
0001
0010
0100
0010
0001
0100
0001
1000
0100
0010
0001
,
1000
0001
0100
0010
1000
0001
1000
0100
0010
0001
0100
0001
1000
0010
0100
0010
,
1000
0001
0010
0100
0010
0001
0100
0001
1000
0010
1000
0001
0100
0010
0100
0001
,
1000
0100
0010
0001
0100
0001
1000
0010
0100
0010
1000
0001
0010
0100
0010
0001
,
1000
0001
0100
0010
1000
0100
1000
0001
0100
0001
1000
0100
0010
0100
1000
0001
,
0100
0010
0100
0001
1000
0001
0010
0100
1000
0010
0100
0010
1000
0001
0010
0100
,
1000
0001
1000
0100
0010
0001
1000
0001
0100
0010
1000
0100
1000
0001
0100
0010
,
1000
0001
1000
0100
0010
0100
1000
0001
1000
0010
0100
0001
0100
0010
1000
0001
,
1000
0100
0010
0001
0100
0001
1000
0010
1000
0001
0010
0100
1000
0010
1000
0001
,
0100
0010
0100
0001
1000
0100
0010
0100
1000
0001
1000
0010
0100
0001
0100
0010
,
1000
0001
0100
0001
0010
0100
1000
0010
1000
0001
1000
0100
0010
0001
1000
0001
,
0100
0010
0100
0001
1000
0100
0010
0100
1000
0001
0100
0010
1000
0010
0100
0001
,
1000
0100
0010
0001
0100
0001
1000
0010
1000
0100
0010
0001
1000
0001
0100
0010
,
1000
0001
1000
0100
0010
0100
1000
0001
1000
0010
0100
0001
0100
0010
1000
0001
,
0010
0100
1000
0010
1000
0001
0100
0001
0010
0100
1000
0001
1000
0010
0100
0010
,
1000
0001
0010
0100
0010
0001
1000
0001
0100
0010
0100
0001
1000
0001
0010
0100
,
1000
0001
1000
0100
0010
0001
0100
0010
1000
0001
0010
0100
1000
0010
1000
0001
,
0100
0001
1000
0100
0010
0100
1000
0001
1000
0010
0100
0001
0100
0010
1000
0001
,
0010
0100
1000
0010
1000
0001
0100
0001
0010
0100
1000
0001
1000
0010
0100
0010
,
1000
0001
1000
0100
0010
0100
1000
0001
1000
0010
0100
0010
1000
0001
0010
0100
,
1000
0010
1000
0001
0100
0001
1000
0010
1000
0100
0010
0001
1000
0010
0100
0010
,
1000
0001
1000
0100
0010
0001
1000
0001
0100
0010
0100
0001
1000
0001
0010
0100
,
2000
0000
0000
0000
0000
0000
0000
3000
,
0001
1000
0010
0100
0001
1000
0001
0010
0100
0010
0001
1000
0001
0100
0010
1000
,
0010
0100
0001
1000
0001
0010
0100
1000
0010
1000
0001
0100
0001
1000
0100
0010
,
0001
0100
0001
1000
0010
0100
0010
1000
0001
0010
0100
0010
0001
1000
0001
0100
,
0010
1000
0010
0100
0001
1000
0010
1000
0100
0010
0001
0100
0001
1000
0001
0010
,
0100
1000
0001
1000
0010
0100
0010
1000
0001
0010
0100
0010
0001
1000
0010
0100
,
0001
0100
0010
1000
0001
0010
0100
1000
0010
1000
0001
0100
0001
0010
0100
1000
,
0001
1000
0010
0100
0001
1000
0001
0010
0100
0010
0001
1000
0001
0100
0010
1000
,
0010
0100
0001
1000
0100
0010
0001
0100
0001
1000
0010
1000
0100
0010
0001
1000
,
0001
0100
0010
0100
0001
1000
0100
0010
0100
1000
0001
1000
0010
0100
0010
1000
,
0001
1000
0100
0010
0001
1000
0001
0010
0100
1000
0010
0100
0001
1000
0100
0010
,
0001
0100
0001
1000
0010
1000
0001
0010
0100
0010
0001
1000
0001
0100
0010
1000
,
0010
0100
0001
1000
0100
0010
0001
0100
0001
1000
0010
1000
0100
0010
0001
1000
,
0001
0100
0010
0100
0001
1000
0001
0010
0100
0010
0001
1000
0001
0100
0010
0100
,
0001
1000
0100
0010
0001
0100
0001
1000
0010
1000
0001
0100
0001
0010
0100
1000
,
0001
0100
0010
0100
0001
1000
0001
0010
0100
1000
0001
1000
0010
0100
0010
1000
,
0001
1000
0100
0010
0001
0100
0001
1000
0100
0010
0100
1000
0010
0100
0001
1000
,
0002
0000
0000
0000
0003
0000
0000
0000
0000
0000
0000
0000
0000
0000
0000
0000
00M0
0000
0000
0000
0000
0000
0000
0000
0000
0000
00M0
0000
0000
0000
0000
00M0
,
0000
0000
0000
0000
00M0
0000
0000
0000
0000
00M0
0000
0000
0000
0000
00M0
0000
0000
0000
0000
00M0
0000
0000
0000
0000
0000
0000
0000
0000
0000
0000
0000
0000
;

//---------------dance-single - J. Nero----------------
#NOTES:
     dance-single:
     J. Nero:
     Hard:
     21:
     1.000,1.000,0.051,0.710,1.000,1294.000,6.000,83.000,7.000,0.000:

0000
0000
0000
0000
,
0000
0000
0000
0000
,
0000
0000
0000
0000
,
0000
0000
0000
0000
,
1100
1000
0101
0001
,
1100
0000
1000
0100
0000
0100
0010
0000
,
0011
0001
1010
1000
,
0011
0000
0001
1000
0000
1000
0010
0000
,
0100
0001
0010
0001
1000
0100
0010
0100
,
1000
0010
0100
0010
1000
0100
0010
0001
,
0100
0001
0010
0001
1000
0100
0010
0100
,
1000
0001
0100
0001
1000
0100
1000
0001
,
0100
0001
0010
0001
1000
0100
0010
0100
,
1000
0010
0100
0010
1000
0100
0010
0001
,
0100
0010
0100
0001
1000
0100
0010
0001
,
0100
0001
1000
0100
0010
0100
1000
0010
,
0000
2000
3200
0320
,
0032
0000
0000
2003
0000
0000
3020
0030
,
0000
2000
3200
0320
,
0230
0000
0000
2300
0000
0000
3020
0030
,
0000
0200
0302
0023
,
0230
0000
0000
2300
0000
0000
3020
0030
,
0000
0200
0302
0023
,
0230
0000
1300
0020
0030
1000
0002
0003
,
0000
0000
1000
1000
0010
0010
0100
0100
,
0001
0000
0010
0000
0001
0000
0100
0000
0010
0000
1000
0000
0001
1000
0100
0010
,
0001
1000
0000
0010
0000
0100
0000
0002
,
0000
0000
0000
0000
0000
0000
0000
0000
1003
0100
1000
0001
0100
0010
0100
0001
,
2000
3200
0320
0032
,
1003
0000
0100
0000
0100
0000
0001
0000
0100
0000
0100
0000
1000
0001
1000
0010
,
0100
0001
1000
0100
0010
0000
0001
0000
0000
0000
0001
0000
0000
0000
1000
0010
,
1000
0001
0010
0100
1000
0001
0100
0010
0100
0001
1000
0100
0010
0001
1000
0001
,
0100
0000
0000
0010
0000
0000
1000
0000
0000
0001
0000
0000
1000
0000
0000
0000
0100
0000
0000
0000
0010
0000
0000
0000
0100
0000
0000
0000
1000
0000
0000
0000
0010
0000
0000
0000
0100
0000
0000
0000
0001
0000
0000
0000
1000
0000
0000
0000
,
0001
1000
0001
0010
0100
1000
0001
1000
0010
0100
0001
1000
0001
0010
0001
1000
,
0100
0010
0001
1000
0001
0100
0010
1000
0001
1000
0100
1000
0001
0100
0010
0100
,
0001
0000
1000
0000
0100
0000
0010
0001
1000
0001
0100
0010
1000
0010
0100
0001
,
1000
0100
0010
0001
0100
0001
1000
0010
0100
0010
1000
0001
0010
0100
0010
0001
,
1000
0001
0100
0010
1000
0010
0100
0001
1000
0001
0010
0100
1000
0001
1000
0010
,
0100
0001
0010
0100
1000
0001
0100
0000
,
0001
1000
0001
0010
0100
1000
0001
1000
0010
0100
0001
0010
0001
1000
0010
0100
,
0001
1000
0001
0010
0100
0010
0001
1000
0001
0100
0010
1000
0010
0100
0001
1000
,
0001
0010
0100
1000
0010
1000
0001
0100
0001
1000
0100
0010
0001
0100
0001
1000
,
0010
0100
0010
1000
0001
0010
0100
0010
0001
1000
0001
0100
0010
1000
0010
0100
,
0001
1000
0010
1000
0100
0010
0001
0100
0001
1000
0001
0010
0100
1000
0001
1000
,
0010
0100
0010
1000
0001
0010
0100
0010
0001
1000
0010
0100
0001
0100
0010
1000
,
0001
0010
0100
1000
0010
1000
0001
0100
0001
0010
0100
1000
0001
1000
0010
0100
,
0001
1000
0001
0010
0100
0010
0001
1000
0001
0100
0010
1000
0010
0100
0001
1000
,
0100
0010
0001
0100
0001
1000
0010
1000
0100
0010
0001
1000
0001
0100
0010
0100
,
0001
1000
0100
0010
0100
1000
0001
1000
0010
0100
0010
1000
0001
1000
0100
0010
,
0001
1000
0001
0010
0100
1000
0010
0100
0001
1000
0100
0010
0001
0100
0001
1000
,
0010
1000
0001
0010
0100
0010
0001
1000
0001
0100
0010
1000
0010
0100
0001
1000
,
0100
0010
0001
0100
0001
1000
0010
1000
0100
0010
0001
1000
0001
0100
0010
0100
,
0001
1000
0001
0010
0100
0010
0001
1000
0001
0100
0010
0100
0001
1000
0100
0010
,
0001
0100
0001
1000
0010
1000
0001
0100
0001
0010
0100
1000
0001
0100
0010
0100
,
0001
1000
0001
0010
0100
1000
0001
1000
0010
0100
0010
1000
0001
1000
0100
0010
,
0001
0100
0001
1000
0100
0010
0100
1000
0010
0100
0001
1000
0100
0010
0001
0100
,
0002
0000
0000
1003
0100
0100
1000
1000
,
0001
0000
0001
0000
0100
0000
0100
0000
0010
0000
0010
0000
1000
0001
1000
0100
,
0010
0000
0000
0000
0001
0100
0001
1000
0100
0000
0000
0000
0010
0001
1000
0001
,
0100
0000
0000
0000
0001
1000
0001
0010
0100
1000
0001
1000
0010
0100
0010
1000
,
0001
0100
0001
1000
0100
0010
0100
1000
0001
1000
0010
0100
0010
1000
0001
0100
,
0001
1000
0100
0010
0001
1000
0001
0100
0020
0000
0000
0000
0000
0000
0000
0000
,
1030
0000
0000
0000
0001
0000
0000
0000
1000
0000
0000
0000
0100
0000
0000
0000
0010
0000
0000
0000
0100
0000
0000
0000
1000
0000
0000
0000
0001
0000
0000
0000
0100
0000
0000
0000
0010
0000
0000
1000
0000
0000
0001
0000
0000
1000
0000
0000
,
0100
0010
0001
1000
0001
0100
0010
1000
0010
0100
0001
1000
0100
0010
0100
1000
,
0000
0000
0000
0000
0000
0000
0000
0000
0000
0000
0000
0000
0000
0000
0000
0002
0000
0000
0000
0000
0000
0000
0000
0000
0000
0000
0000
0000
0000
0000
0000
0000
2003
0000
0000
0000
0000
0000
0000
0000
0000
0000
0000
0000
0000
0000
0000
0000
3200
0000
0000
0000
0000
0000
0000
0000
0000
0000
0000
0000
0000
0000
0000
0000
,
1300
0000
0001
0000
0001
0000
0100
0000
0010
1000
0010
0100
0002
0000
0000
0000
,
0000
1003
0100
0100
0001
0100
0100
1000
,
0001
0000
0100
0000
0001
0000
1000
0010
1000
0001
0010
0100
0010
0001
1000
0001
,
0100
0010
1000
0010
0100
0001
1000
0001
0010
0100
1000
0001
1000
0010
0100
0010
,
1000
0001
1000
0100
0010
0100
1000
0001
1000
0010
0100
0001
0100
0010
1000
0001
,
1000
0100
0010
0001
0100
0001
1000
0010
1000
0100
0010
0100
1000
0001
1000
0010
,
0100
0001
1000
0100
0010
0001
1000
0001
0100
0010
1000
0100
0010
0001
0100
0001
,
2000
3020
0230
0302
,
0023
0000
0000
0230
0000
0000
2300
0000
,
0000
3002
0203
0320
,
2030
0000
0000
3002
0000
0000
0023
0000
,
0000
0032
2003
3020
,
0230
0000
0000
0302
0000
0000
0023
0000
,
0000
0230
2300
3002
,
0203
0000
0000
0320
0000
0000
2030
0000
,
0000
3200
0320
0032
,
0203
0000
0000
0320
0000
0000
2030
0000
,
0000
3002
0023
0230
,
2300
0000
0000
3002
0000
0000
0203
0000
,
0000
0320
2030
3200
,
0320
0000
0000
0032
0000
0000
0203
0000
,
0000
0000
0320
0000
2030
0000
3002
0003
,
1000
0001
1000
0100
0010
0001
1000
0001
0100
0010
1000
0100
1000
0001
0100
0010
,
1000
0001
1000
0100
0010
0100
1000
0001
1000
0010
0100
0001
0100
0010
1000
0001
,
1000
0100
0010
0001
0100
0001
1000
0010
1000
0001
0010
0100
1000
0010
1000
0001
,
0100
0010
0100
0001
1000
0100
0010
0100
1000
0001
1000
0010
0100
0001
0100
0010
,
1000
0001
0100
0001
0010
0100
1000
0010
1000
0001
1000
0100
0010
0001
1000
0001
,
0100
0010
0100
0001
1000
0100
0010
0100
1000
0001
0100
0010
1000
0010
0100
0001
,
1000
0100
0010
0001
0100
0001
1000
0010
1000
0100
0010
0001
1000
0001
0100
0010
,
1000
0001
1000
0100
0010
0100
1000
0001
1000
0010
0100
0001
0100
0010
1000
0001
,
0010
0100
1000
0010
1000
0001
0100
0001
0010
0100
1000
0001
1000
0010
0100
0010
,
1000
0001
0010
0100
0010
0001
1000
0001
0100
0010
0100
0001
1000
0001
0010
0100
,
1000
0001
1000
0100
0010
0001
0100
0010
1000
0001
0010
0100
1000
0010
1000
0001
,
0100
0001
1000
0100
0010
0100
1000
0001
1000
0010
0100
0001
0100
0010
1000
0001
,
0010
0100
1000
0010
1000
0001
0100
0001
0010
0100
1000
0001
1000
0010
0100
0010
,
1000
0001
1000
0100
0010
0100
1000
0001
1000
0010
0100
0010
1000
0001
0010
0100
,
1000
0010
1000
0001
0100
0001
1000
0010
1000
0100
0010
0001
1000
0010
0100
0010
,
1000
0001
1000
0100
0010
0001
1000
0001
0100
0010
0100
0001
1000
0001
0010
0100
,
2000
0000
0000
0000
0000
0000
0000
3000
,
0001
1000
0010
0100
0001
1000
0001
0010
0100
0010
0001
1000
0001
0100
0010
1000
,
0010
0100
0001
1000
0001
0010
0100
1000
0010
1000
0001
0100
0001
1000
0100
0010
,
0001
0100
0001
1000
0010
0100
0010
1000
0001
0010
0100
0010
0001
1000
0001
0100
,
0010
1000
0010
0100
0001
1000
0010
1000
0100
0010
0001
0100
0001
1000
0001
0010
,
0100
1000
0001
1000
0010
0100
0010
1000
0001
0010
0100
0010
0001
1000
0010
0100
,
0001
0100
0010
1000
0001
0010
0100
1000
0010
1000
0001
0100
0001
0010
0100
1000
,
0001
1000
0010
0100
0001
1000
0001
0010
0100
0010
0001
1000
0001
0100
0010
1000
,
0010
0100
0001
1000
0100
0010
0001
0100
0001
1000
0010
1000
0100
0010
0001
1000
,
0001
0100
0010
0100
0001
1000
0100
0010
0100
1000
0001
1000
0010
0100
0010
1000
,
0001
1000
0100
0010
0001
1000
0001
0010
0100
1000
0010
0100
0001
1000
0100
0010
,
0001
0100
0001
1000
0010
1000
0001
0010
0100
0010
0001
1000
0001
0100
0010
1000
,
0010
0100
0001
1000
0100
0010
0001
0100
0001
1000
0010
1000
0100
0010
0001
1000
,
0001
0100
0010
0100
0001
1000
0001
0010
0100
0010
0001
1000
0001
0100
0010
0100
,
0001
1000
0100
0010
0001
0100
0001
1000
0010
1000
0001
0100
0001
0010
0100
1000
,
0001
0100
0010
0100
0001
1000
0001
0010
0100
1000
0001
1000
0010
0100
0010
1000
,
0001
1000
0100
0010
0001
0100
0001
1000
0100
0010
0100
1000
0010
0100
0001
1000
,
0002
0000
0000
0000
0003
0000
0000
0000
0000
0000
0000
0000
0000
0000
0000
0000
00M0
0000
0000
0000
0000
0000
0000
0000
0000
0000
00M0
0000
0000
0000
0000
00M0
,
0000
0000
0000
0000
00M0
0000
0000
0000
0000
00M0
0000
0000
0000
0000
00M0
0000
0000
0000
0000
00M0
0000
0000
0000
0000
0000
0000
0000
0000
0000
0000
0000
0000
;

//---------------dance-single - J. Nero----------------
#NOTES:
     dance-single:
     J. Nero:
     Medium:
     18:
     1.000,1.000,0.051,0.710,1.000,1063.000,6.000,83.000,7.000,0.000:

0000
0000
0000
0000
,
0000
0000
0000
0000
,
0000
0000
0000
0000
,
0000
0000
0000
0000
,
1100
1000
0101
0001
,
1100
0000
1000
0100
0000
0100
0010
0000
,
0011
0001
1010
1000
,
0011
0000
0001
1000
0000
1000
0010
0000
,
0100
0001
0010
0001
1000
0100
0010
0100
,
1000
0010
0100
0010
1000
0100
0010
0001
,
0100
0001
0010
0001
1000
0100
0010
0100
,
1000
0001
0100
0001
1000
0100
1000
0001
,
0100
0001
0010
0001
1000
0100
0010
0100
,
1000
0010
0100
0010
1000
0100
0010
0001
,
0100
0010
0100
0001
1000
0100
0010
0001
,
0100
0001
1000
0100
0010
0100
1000
0010
,
0000
2000
3200
0320
,
0032
0000
0000
2003
0000
0000
3020
0030
,
0000
2000
3200
0320
,
0230
0000
0000
2300
0000
0000
3020
0030
,
0000
0200
0302
0023
,
0230
0000
0000
2300
0000
0000
3020
0030
,
0000
0200
0302
0023
,
0230
0000
1300
0020
0030
1000
0002
0003
,
0000
0000
1000
1000
0010
0010
0100
0100
,
0001
0000
0010
0000
0001
0000
0100
0000
0010
0000
1000
0000
0001
1000
0100
0010
,
0001
1000
0000
0010
0000
0100
0000
0002
,
0000
0000
0000
0000
0000
0000
0000
0000
1003
0100
1000
0001
0100
0010
0100
0001
,
2000
3200
0320
0032
,
1003
0000
0100
0000
0100
0000
0001
0000
0100
0000
0100
0000
1000
0001
1000
0010
,
0100
0001
1000
0100
0010
0000
0001
0000
0000
0000
0001
0000
0000
0000
1000
0010
,
1000
0001
0010
0100
1000
0001
0100
0010
0100
0001
1000
0100
0010
0001
1000
0001
,
0100
0000
0000
0010
0000
0000
1000
0000
0000
0001
0000
0000
1000
0000
0000
0000
0100
0000
0000
0000
0010
0000
0000
0000
0100
0000
0000
0000
1000
0000
0000
0000
0010
0000
0000
0000
0100
0000
0000
0000
0001
0000
0000
0000
1000
0000
0000
0000
,
0001
1000
0001
0010
0100
1000
0001
1000
0010
0100
0001
1000
0001
0010
0001
1000
,
0100
0010
0001
1000
0001
0100
0010
1000
0001
1000
0100
1000
0001
0100
0010
0100
,
0001
0000
1000
0000
0100
0000
0010
0001
1000
0001
0100
0010
1000
0010
0100
0001
,
1000
0100
0010
0001
0100
0001
1000
0010
0100
0010
1000
0001
0010
0100
0010
0001
,
1000
0001
0100
0010
1000
0010
0100
0001
1000
0001
0010
0100
1000
0001
1000
0010
,
0100
0001
0010
0100
1000
0001
0100
0000
,
0001
1000
0001
0010
0100
1000
0001
1000
0010
0100
0001
0010
0001
1000
0010
0100
,
0001
1000
0001
0010
0100
0010
0001
1000
0001
0100
0010
1000
0010
0100
0001
1000
,
0001
0000
0100
0001
0000
0001
1000
0000
,
0010
0100
0010
1000
0001
0010
0100
0010
0001
1000
0001
0100
0010
1000
0010
0100
,
0001
0000
1000
0100
0000
0100
1000
0000
,
0010
0100
0010
1000
0001
0010
0100
0010
0001
1000
0010
0100
0001
0100
0010
1000
,
0001
0000
1000
0100
0000
0100
0010
0000
,
0001
1000
0001
0010
0100
0010
0001
1000
0001
0100
0010
1000
0010
0100
0001
1000
,
0100
0000
0010
0001
0000
0001
1000
0000
,
0001
1000
0100
0010
0100
1000
0001
1000
0010
0100
0010
1000
0001
1000
0100
0010
,
0001
0000
0100
0001
0000
0001
1000
0000
,
0010
1000
0001
0010
0100
0010
0001
1000
0001
0100
0010
1000
0010
0100
0001
1000
,
0001
0000
0100
0010
0000
0010
1000
0000
,
0001
1000
0001
0010
0100
0010
0001
1000
0001
0100
0010
0100
0001
1000
0100
0010
,
0001
0000
0100
0001
0000
0001
0010
0000
,
0001
1000
0001
0010
0100
1000
0001
1000
0010
0100
0010
1000
0001
1000
0100
0010
,
0001
0100
0001
1000
0100
0010
0100
1000
0010
0100
0001
1000
0100
0010
0001
0100
,
0002
0000
0000
1003
0100
0100
1000
1000
,
0001
0000
0001
0000
0100
0000
0100
0000
0010
0000
0010
0000
1000
0001
1000
0100
,
0010
0000
0000
0000
0001
0100
0001
1000
0100
0000
0000
0000
0010
0001
1000
0001
,
0100
0000
0000
0000
0001
1000
0001
0010
0100
1000
0001
1000
0010
0100
0010
1000
,
0001
0100
0001
1000
0100
0010
0100
1000
0001
1000
0010
0100
0010
1000
0001
0100
,
0001
1000
0100
0010
0001
1000
0001
0100
0020
0000
0000
0000
0000
0000
0000
0000
,
1030
0000
0000
0000
0001
0000
0000
0000
1000
0000
0000
0000
0100
0000
0000
0000
0010
0000
0000
0000
0100
0000
0000
0000
1000
0000
0000
0000
0001
0000
0000
0000
0100
0000
0000
0000
0010
0000
0000
1000
0000
0000
0001
0000
0000
1000
0000
0000
,
0100
0010
0001
1000
0001
0100
0010
1000
0010
0100
0001
1000
0100
0010
0100
1000
,
0000
0000
0000
0000
0000
0000
0000
0000
0000
0000
0000
0000
0000
0000
0000
0002
0000
0000
0000
0000
0000
0000
0000
0000
0000
0000
0000
0000
0000
0000
0000
0000
2003
0000
0000
0000
0000
0000
0000
0000
0000
0000
0000
0000
0000
0000
0000
0000
3200
0000
0000
0000
0000
0000
0000
0000
0000
0000
0000
0000
0000
0000
0000
0000
,
1300
0000
0001
0000
0001
0000
0100
0000
0010
1000
0010
0100
0002
0000
0000
0000
,
0000
1003
0100
0100
0001
0100
0100
1000
,
0001
0000
0100
0000
0001
0000
1000
0010
1000
0001
0010
0100
0010
0001
1000
0001
,
0100
0010
1000
0010
0100
0001
1000
0001
0010
0100
1000
0001
1000
0010
0100
0010
,
1000
0001
1000
0100
0010
0100
1000
0001
1000
0010
0100
0001
0100
0010
1000
0001
,
1000
0100
0010
0001
0100
0001
1000
0010
1000
0100
0010
0100
1000
0001
1000
0010
,
0100
0001
1000
0100
0010
0001
1000
0001
0100
0010
1000
0100
0010
0001
0100
0001
,
2000
3020
0230
0302
,
0023
0000
0000
0230
0000
0000
2300
0000
,
0000
3002
0203
0320
,
2030
0000
0000
3002
0000
0000
0023
0000
,
0000
0032
2003
3020
,
0230
0000
0000
0302
0000
0000
0023
0000
,
0000
0230
2300
3002
,
0203
0000
0000
0320
0000
0000
2030
0000
,
0000
3200
0320
0032
,
0203
0000
0000
0320
0000
0000
2030
0000
,
0000
3002
0023
0230
,
2300
0000
0000
3002
0000
0000
0203
0000
,
0000
0320
2030
3200
,
0320
0000
0000
0032
0000
0000
0203
0000
,
0000
0000
0320
0000
2030
0000
3002
0003
,
1000
0001
1000
0100
0010
0001
1000
0001
0100
0010
1000
0100
1000
0001
0100
0010
,
1000
0001
1000
0100
0010
0100
1000
0001
1000
0010
0100
0001
0100
0010
1000
0001
,
1000
0000
0001
0010
0000
0010
0100
0000
,
1000
0010
0100
0001
1000
0100
0010
0100
1000
0001
1000
0010
0100
0001
0100
0010
,
1000
0000
0100
0010
0000
0010
0001
0000
,
1000
0010
0100
0001
1000
0100
0010
0100
1000
0001
0100
0010
1000
0010
0100
0001
,
1000
0000
0010
0100
0000
0100
0001
0000
,
1000
0001
1000
0100
0010
0100
1000
0001
1000
0010
0100
0001
0100
0010
1000
0001
,
0010
0000
0100
1000
0000
1000
0001
0000
,
1000
0001
0010
0100
0010
0001
1000
0001
0100
0010
0100
0001
1000
0001
0010
0100
,
1000
0000
0001
0100
0000
0100
0001
0000
,
0100
0001
1000
0100
0010
0100
1000
0001
1000
0010
0100
0001
0100
0010
1000
0001
,
0010
0000
0100
1000
0000
1000
0010
0000
,
1000
0001
1000
0100
0010
0100
1000
0001
1000
0010
0100
0010
1000
0001
0010
0100
,
1000
0000
0010
0100
0000
0100
0001
0000
,
1000
0001
1000
0100
0010
0001
1000
0001
0100
0010
0100
0001
1000
0001
0010
0100
,
2000
0000
0000
0000
0000
0000
0000
3000
,
0001
1000
0001
0010
0100
0010
0001
1000
0001
0100
0010
1000
0010
0100
0001
1000
,
0001
0000
0100
0001
0000
0001
1000
0000
,
0010
0100
0010
1000
0001
0010
0100
0010
0001
1000
0001
0100
0010
1000
0010
0100
,
0001
0000
1000
0100
0000
0100
1000
0000
,
0010
0100
0010
1000
0001
0010
0100
0010
0001
1000
0010
0100
0001
0100
0010
1000
,
0001
0000
1000
0100
0000
0100
0010
0000
,
0001
1000
0001
0010
0100
0010
0001
1000
0001
0100
0010
1000
0010
0100
0001
1000
,
0100
0000
0010
0001
0000
0001
1000
0000
,
0001
1000
0100
0010
0100
1000
0001
1000
0010
0100
0010
1000
0001
1000
0100
0010
,
0001
0000
0100
0001
0000
0001
1000
0000
,
0010
1000
0001
0010
0100
0010
0001
1000
0001
0100
0010
1000
0010
0100
0001
1000
,
0001
0000
0100
0010
0000
0010
1000
0000
,
0001
1000
0001
0010
0100
0010
0001
1000
0001
0100
0010
0100
0001
1000
0100
0010
,
0001
0000
0100
0001
0000
0001
0010
0000
,
0001
1000
0001
0010
0100
1000
0001
1000
0010
0100
0010
1000
0001
1000
0100
0010
,
0001
0100
0001
1000
0100
0010
0100
1000
0010
0100
0001
1000
0100
0010
0001
0100
,
0002
0000
0000
0000
0003
0000
0000
0000
0000
0000
0000
0000
0000
0000
0000
0000
00M0
0000
0000
0000
0000
0000
0000
0000
0000
0000
00M0
0000
0000
0000
0000
00M0
,
0000
0000
0000
0000
00M0
0000
0000
0000
0000
00M0
0000
0000
0000
0000
00M0
0000
0000
0000
0000
00M0
0000
0000
0000
0000
0000
0000
0000
0000
0000
0000
0000
0000
;
