#TITLE:Purple Storm;
#SUBTITLE:;
#ARTIST:Trick Trap;
#TITLETRANSLIT:;
#SUBTITLETRANSLIT:;
#ARTISTTRANSLIT:;
#CREDIT:;
#BANNER:ps.JPG;
#BACKGROUND:;
#LYRICSPATH:;
#CDTITLE:./CDTITLES/GUITAR FREAKS & DRUMMANIA.PNG;
#MUSIC:ps.mp3;
#OFFSET:0.404;
#SAMPLESTART:41.520;
#SAMPLELENGTH:12.000;
#SELECTABLE:YES;
#DISPLAYBPM:120.000;
#BPMS:0.000=120.000;
#STOPS:;
#BGCHANGES:;
// cache tags:
#FIRSTBEAT:4.000;
#LASTBEAT:206.500;
#SONGFILENAME:Songs/toune/Purple Storam/ps.sm;
#HASMUSIC:1;
#HASBANNER:1;
#MUSICLENGTH:105.176;
// end cache tags

//---------------dance-single - ----------------
#NOTES:
     dance-single:
     :
     Hard:
     9:
     0.679,0.638,0.732,0.304,0.323,391.000,77.000,32.000,0.000,0.000:  // measure 1
0000
0000
0000
0000
,  // measure 2
1000
0000
1000
0010
0100
0000
0100
0001
0100
0000
0010
0000
0100
0000
0010
1000
,  // measure 3
0010
0000
1000
0001
1000
0000
0100
0000
1000
0000
0000
1001
0000
0000
0110
0000
,  // measure 4
0000
1001
0000
0000
0101
0000
0000
1001
0000
0000
1010
0000
0000
0101
0000
0000
,  // measure 5
1100
0001
1000
0001
0100
0010
2000
0000
,  // measure 6
3001
0001
1000
0100
2000
0000
0000
0002
,  // measure 7
3003
0000
1000
0001
0101
0001
1000
1100
,  // measure 8
0100
0010
0001
0101
0101
0101
1000
0100
,  // measure 9
0001
0100
0010
0100
1000
0010
0100
0001
,  // measure 10
0010
0100
1000
0001
1001
0001
0010
1100
,  // measure 11
1000
0100
0001
0100
0010
0100
1000
0010
,  // measure 12
0100
0001
1000
0001
0010
0100
1000
0010
,  // measure 13
0000
0000
1100
0100
1000
0110
0010
0001
,  // measure 14
0100
0010
1000
0001
0001
1000
1000
1000
,  // measure 15
0001
0001
0001
0100
0100
0100
0010
1000
,  // measure 16
0100
1000
0001
0100
0001
0100
0010
1000
,  // measure 17
0010
1000
0100
1000
0000
0000
0010
1000
,  // measure 18
0100
1000
0010
0100
0010
0100
0001
0010
,  // measure 19
0100
0000
1000
0000
1000
0000
1000
0001
0100
0000
0100
0010
0100
0000
0010
0000
,  // measure 20
0100
0000
0010
1000
0010
0000
1000
0001
1000
0000
0100
0000
1000
0000
0001
0100
,  // measure 21
0001
0000
1000
0100
1000
0000
0001
0000
0001
0000
1000
0001
0100
0000
0100
0000
,  // measure 22
0001
0000
0100
0000
0110
0000
0000
1001
0000
0000
0011
0000
0000
1100
0000
0000
,  // measure 23
1000
0000
0010
0000
0100
0000
0001
0000
0000
0011
0000
0000
1010
0000
0000
1100
,  // measure 24
0000
0000
0100
0000
1000
0000
0010
0000
0100
0000
0000
1010
0000
0000
1001
0000
,  // measure 25
0000
0011
0000
0000
1100
0000
0000
1001
0000
0000
0110
0000
0000
0110
0000
0000
,  // measure 26
1001
0000
0000
0001
0010
0000
0100
1000
0000
1000
0010
0000
1010
0000
0000
0101
,  // measure 27
0000
0000
1010
0000
0000
0101
0000
0000
0001
0000
0010
0000
0100
0000
1000
0000
,  // measure 28
0000
1010
0000
0000
0101
0000
0000
1001
0000
0000
0001
0000
1000
0000
0010
0000
,  // measure 29
0100
0000
0000
0110
0000
0000
1010
0000
0000
1001
0000
0000
1000
0000
0001
0000
,  // measure 30
0010
0000
0100
0000
1000
0001
0100
0000
0100
0000
0001
1000
0100
0000
0010
0000
,  // measure 31
0010
0001
0100
0000
1001
0000
1001
0000
0001
0000
0100
0010
0100
0000
0001
0000
,  // measure 32
1000
0100
1000
0000
0001
0000
0001
1000
0001
0000
0101
0000
0101
0000
1000
0000
,  // measure 33
1000
0100
1000
0000
0010
0000
0100
0001
0100
0000
0010
0000
1000
0100
1000
0000
,  // measure 34
1100
0000
0101
0000
0001
0000
0001
1000
0100
0000
0100
0000
1000
0001
0100
0000
,  // measure 35
0010
0000
0010
1000
0100
0000
1001
0000
0011
0000
2002
0000
0000
0000
3003
0000
,  // measure 36
0001
1000
0100
0010
0001
0100
0010
1000
,  // measure 37
0001
2000
0000
0000
0000
0000
0000
3001
,  // measure 38
1000
1100
1000
0001
0101
0002
0100
0103
,  // measure 39
2000
0100
3100
2002
0000
3003
0202
0000
,  // measure 40
0303
2200
0000
3300
2002
0000
3003
2000
,  // measure 41
0100
3100
0020
0001
0031
0200
0010
0310
,  // measure 42
2000
0001
3001
1000
0010
0110
0100
0001
,  // measure 43
0011
1000
0001
0110
1000
0001
1001
1100
,  // measure 44
0000
1100
0000
0000
1010
0000
0000
0101
0000
0000
1001
0000
0101
0000
1010
0000
,  // measure 45
1001
0000
0000
0011
0000
0000
1100
0000
0000
1001
0000
0000
0110
0000
1001
0000
,  // measure 46
1000
0000
0020
0000
0000
0230
0000
0000
0302
0000
0000
0023
0000
0000
0230
0000
,  // measure 47
0000
2300
0000
0000
3020
0000
0000
0230
0000
0000
0302
0000
0000
2003
0000
0000
,  // measure 48
3002
0000
0000
0203
0000
0000
0310
0000
1000
0100
1000
0100
1000
0100
1000
0000
,  // measure 49
0001
0000
0100
0000
0010
0000
1000
0000
0100
1000
0100
1000
0100
1000
0100
1000
,  // measure 50
0100
0000
0010
0000
0001
0000
1000
0000
0001
0000
1000
0100
1000
0100
1000
0100
,  // measure 51
1000
0010
1000
0010
0100
0101
1001
1000
,  // measure 52
0001
0010
0100
1000
0010
0100
0001
0010
0000
0000
1001
0000
0000
0000
0000
0000
;

//---------------dance-single - ----------------
#NOTES:
     dance-single:
     :
     Medium:
     7:
     0.576,0.540,0.561,0.314,0.067,332.000,59.000,33.000,0.000,0.000:  // measure 1
0000
0000
0000
0000
,  // measure 2
1000
0100
1000
0100
1000
1000
0001
0010
,  // measure 3
0001
0000
0010
0000
0001
0000
0001
0000
1000
0000
0000
0001
0000
0000
0100
0000
,  // measure 4
0000
0010
0000
0000
1000
0000
0000
0100
0000
0000
0010
0000
0000
0001
0000
0000
,  // measure 5
0200
0010
0000
0000
0000
0000
0020
0000
,  // measure 6
0330
1001
0000
0000
0110
0000
0000
1001
,  // measure 7
0000
0000
1000
0100
1000
0100
0001
0100
,  // measure 8
0001
0100
1000
0100
1000
0100
0001
0100
,  // measure 9
0001
0100
1000
0100
1000
0100
0001
0100
,  // measure 10
0001
0100
1000
0100
1000
0100
0001
0100
,  // measure 11
1000
0100
0001
0100
1000
0100
0010
0100
,  // measure 12
1000
0001
0100
0010
1000
0100
0010
1001
,  // measure 13
0000
0000
1000
0001
0100
0001
1000
0001
,  // measure 14
0100
0010
1000
0010
0100
0010
1000
0001
,  // measure 15
0010
0001
1000
0001
0010
0010
0010
0100
,  // measure 16
0100
0100
1000
0001
1000
0100
1000
0001
,  // measure 17
1000
0100
1000
0001
1000
0010
0001
0010
,  // measure 18
1000
0010
0001
0010
1000
0100
0001
0100
,  // measure 19
1000
0001
1000
1000
2000
0001
0001
3002
,  // measure 20
0100
0100
0203
0010
0010
0320
1000
1000
,  // measure 21
2030
0100
0100
3200
0010
0010
0320
0001
,  // measure 22
0001
0031
1000
0000
1001
0000
0001
0000
,  // measure 23
0101
0110
1001
0110
,  // measure 24
1100
0011
1100
0011
,  // measure 25
1100
0011
1100
0011
,  // measure 26
1100
1000
1001
1000
,  // measure 27
1001
0001
1001
0001
,  // measure 28
1001
0000
0001
0100
1000
0100
0001
0100
,  // measure 29
1000
0100
0001
1000
0100
0001
0100
1000
,  // measure 30
0100
0001
0100
1000
0100
0001
0100
1000
,  // measure 31
0100
1000
1100
1100
0100
0010
0001
1000
,  // measure 32
0100
0010
0001
1000
0100
0110
0110
0100
,  // measure 33
0010
0001
1000
0100
0010
0001
1000
0001
,  // measure 34
1001
1001
0001
0100
0010
1000
0010
1000
,  // measure 35
0010
0100
0001
0010
0001
0010
0100
0010
,  // measure 36
0100
1000
0010
0100
0001
1000
0001
1000
,  // measure 37
0010
0200
0000
0000
0300
0000
0000
2002
,  // measure 38
0000
3003
2020
0000
3030
2200
0000
3300
,  // measure 39
0202
0000
0303
0022
0000
0033
2002
0000
,  // measure 40
3003
0220
0000
0330
2002
0000
3003
1000
,  // measure 41
0001
0200
0010
0310
1000
0100
0010
0002
,  // measure 42
1000
1003
0100
0010
0001
1000
0002
0100
,  // measure 43
0103
2000
0100
3100
0002
0100
0103
1010
,  // measure 44
0000
1001
0000
0000
0011
0000
0000
1100
0000
0000
0100
0000
1000
0000
0010
0000
,  // measure 45
0101
0000
0000
1001
0000
0000
0011
0000
0000
1100
0000
0000
0110
0000
0010
0000
,  // measure 46
0100
0000
1001
0000
0000
0101
0000
0000
1100
0000
0000
0101
0000
0000
1100
0000
,  // measure 47
0000
1001
0000
0000
0101
0000
0000
1100
0000
0000
0011
0000
0000
1100
0000
0000
,  // measure 48
0011
0000
0000
1100
0000
0000
1001
0000
0001
0000
0100
0000
0010
0000
2000
0000
,  // measure 49
0100
0100
3100
0010
0001
0100
0010
1000
,  // measure 50
0001
0100
0100
0100
0001
1000
0001
1000
,  // measure 51
0010
0100
0010
0020
1000
1000
1030
0100
,  // measure 52
0010
0001
1000
0001
0000
1001
0000
0000
;

//---------------dance-single - ----------------
#NOTES:
     dance-single:
     :
     Challenge:
     9:
     0.824,0.785,0.856,0.323,0.718,483.000,90.000,34.000,0.000,0.000:  // measure 1
0000
0000
0000
0000
,  // measure 2
1001
0000
0001
1000
0100
0000
0100
1000
0001
0000
1001
0000
0011
0000
0010
0001
,  // measure 3
0100
0000
0010
1000
0100
0000
1100
0000
1100
0000
0000
1001
0000
0000
0101
0000
,  // measure 4
0000
1010
0000
0000
1001
0000
0000
1001
0000
0000
0011
0000
0000
1001
0000
0000
,  // measure 5
1010
0000
1000
0010
1000
0100
1000
0010
1000
0100
1000
0010
0220
0000
0000
0000
,  // measure 6
0330
2002
0000
3003
2200
0000
3300
0022
,  // measure 7
0000
0000
0033
0000
1001
0000
0101
0000
0101
0000
0001
1000
0100
1000
0001
0100
,  // measure 8
0002
0100
0103
0020
1000
1030
2001
0001
,  // measure 9
3001
0210
0010
0310
2100
0001
3001
0101
,  // measure 10
1000
1100
0010
0011
0011
1000
1100
1100
,  // measure 11
0001
1000
0010
0100
0001
1000
0100
0000
1000
0000
0010
0000
0100
0001
0010
0100
,  // measure 12
1000
0001
0010
0100
1000
0010
0100
0001
1000
0010
0100
0001
1000
0100
0010
0000
,  // measure 13
0000
0000
0001
1000
1100
1000
0001
0101
,  // measure 14
1000
0001
0100
0010
1000
0100
1000
0000
1000
0000
1100
0000
0012
0000
0010
0000
,  // measure 15
0013
2100
0100
3100
1001
0101
1010
1001
,  // measure 16
0011
0000
1001
0000
1000
0000
1000
0001
0100
0010
1000
0001
0100
0010
1000
0100
,  // measure 17
0010
0001
1000
0100
0010
0001
1000
0000
0000
0000
1000
0000
0001
0010
0100
1000
,  // measure 18
0001
0010
0100
1000
0010
0100
0010
1000
0001
0010
0100
1000
0001
0010
0100
1000
,  // measure 19
0001
0000
0100
0000
0010
0000
1000
0001
0100
0000
0100
0010
0100
0000
1001
0000
,  // measure 20
0011
0000
0010
0100
0010
0000
0001
1000
0001
0000
1001
0000
1001
0000
0001
0010
,  // measure 21
0001
0000
1000
0100
1000
0000
1001
0000
1001
0000
1000
0001
0100
0000
0100
0000
,  // measure 22
0001
0000
0100
0000
2001
0000
0000
0010
0000
0000
0001
0000
0000
3100
0000
0000
,  // measure 23
1100
0000
0110
0000
0011
0000
1002
0000
0000
0010
0000
0000
1000
0000
0000
1003
,  // measure 24
0000
0000
0100
0000
1000
0000
0010
0000
0100
0000
0000
1020
0000
0000
1000
0000
,  // measure 25
0000
0001
0000
0000
0100
0000
0000
1030
0000
0000
0110
0000
0000
0110
0000
0000
,  // measure 26
1001
0000
0000
0001
0010
0000
0100
1000
0000
1000
0010
0000
1020
0000
0000
0001
,  // measure 27
0000
0000
1000
0000
0000
0031
0000
0000
0010
0000
1000
0000
0100
0000
1200
0000
,  // measure 28
0000
0001
0000
0000
1000
0000
0000
0301
0000
0000
0100
0000
1000
0000
0010
0000
,  // measure 29
0100
0000
0000
0110
0000
0000
1010
0000
0000
1001
0000
0000
1000
0000
0001
0000
,  // measure 30
0010
0000
0100
0000
1000
0001
0100
0000
0010
0000
1000
0010
0100
0000
0010
0000
,  // measure 31
1000
0001
0100
0000
1001
0000
0011
0000
0001
0000
0100
0010
1000
0000
0001
0000
,  // measure 32
1000
0010
0100
0000
0001
0000
0010
1000
0100
0000
0101
0000
1001
0000
1000
0000
,  // measure 33
0001
0100
0010
0000
1000
0000
0100
0010
0001
0000
0010
0000
0010
0100
1000
0000
,  // measure 34
1100
0000
0101
0000
0001
0000
0001
1000
0100
0000
0100
0000
1000
0001
0100
0000
,  // measure 35
0010
0000
0010
1000
0100
0000
1001
0000
0011
0000
0110
0000
0000
0000
1000
0001
,  // measure 36
0100
0010
1000
0100
0010
0001
1000
0100
0010
0001
0100
0010
1000
0010
0100
0001
,  // measure 37
0010
0200
2000
0000
0000
0000
3300
0000
0000
0000
0000
0000
0000
0000
1000
0000
,  // measure 38
0100
0010
0001
0100
0010
0000
1000
0000
0100
0000
0010
0001
0010
0001
0100
0010
,  // measure 39
1000
0000
1010
0000
1001
0000
0001
0100
0010
1000
0100
0010
0100
0000
0110
0000
,  // measure 40
0110
0000
1001
0000
0001
1000
0001
0100
0010
1000
0100
0010
0001
1000
0100
0010
,  // measure 41
0001
1000
0010
0100
0001
0000
0011
0000
0011
0000
1000
0001
0100
0010
1000
0100
,  // measure 42
1000
0001
0100
0010
1000
0100
0010
0000
1001
0000
1001
0000
0010
0000
1001
0000
,  // measure 43
1001
1000
0001
0110
1000
0001
0001
2000
,  // measure 44
0000
0100
0000
0000
0010
0000
0000
3001
0000
0000
0101
0000
1010
0000
0101
0000
,  // measure 45
2100
0000
0000
0010
0000
0000
0100
0000
0000
3010
0000
0000
0010
0000
1001
0000
,  // measure 46
1000
0000
0020
0000
0000
0032
0000
0000
0023
0000
0000
2030
0000
0000
3002
0000
,  // measure 47
0000
2003
0000
0000
3200
0000
0000
0302
0000
0000
0203
0000
0000
2300
0000
0000
,  // measure 48
3001
0010
0001
0000
0100
0000
0010
0100
0010
0100
0010
1000
0100
0010
0001
0100
,  // measure 49
0010
0100
0010
1000
0100
0001
0100
1000
0100
0001
0100
1000
0010
0100
0001
0010
,  // measure 50
0001
0100
0010
1000
0100
1000
0001
1000
0001
0100
0010
1000
0100
0000
0010
0000
,  // measure 51
1010
0000
0010
0000
1000
0100
0010
0000
0100
0000
0110
0000
1001
0000
1000
0000
,  // measure 52
0001
0010
0100
1000
0010
0001
0010
1000
0000
0000
1001
0000
0000
0000
0000
0000
;

//---------------dance-single - ----------------
#NOTES:
     dance-single:
     :
     Easy:
     6:
     0.470,0.417,0.010,0.124,0.067,332.000,1.000,13.000,0.000,0.000:  // measure 1
0000
0000
0000
0000
,  // measure 2
1000
1000
1000
0100
1000
1000
0001
0001
,  // measure 3
0001
0000
0010
0000
0001
0000
0001
0000
1000
0000
0000
1000
0000
0000
1000
0000
,  // measure 4
0000
0010
0000
0000
0010
0000
0000
0010
0000
0000
0100
0000
0000
0100
0000
0000
,  // measure 5
0200
0010
0000
0000
0000
0000
0020
0000
,  // measure 6
0330
1000
0000
0000
0010
0000
0000
0100
,  // measure 7
0000
0000
1000
0100
1000
0100
1000
0100
,  // measure 8
1000
0100
0001
0100
0001
0100
0001
0100
,  // measure 9
0001
0100
1000
0100
1000
0100
1000
0100
,  // measure 10
1000
0100
0001
0100
0001
0100
0001
0100
,  // measure 11
0001
0100
1000
0100
1000
0100
0010
0100
,  // measure 12
1000
0100
1000
0100
0010
0100
0010
0100
,  // measure 13
0000
0000
1000
0001
1000
0001
1000
0001
,  // measure 14
1000
0010
0100
0010
0100
0010
0100
0001
,  // measure 15
0100
0001
0100
0001
0010
0100
0010
0100
,  // measure 16
0010
0100
1000
0010
1000
0010
1000
0010
,  // measure 17
1000
0100
1000
0100
1000
0010
1000
0010
,  // measure 18
1000
0010
1000
0010
1000
0100
1000
0100
,  // measure 19
1000
0100
0010
0001
0010
0001
0010
0010
,  // measure 20
0001
0100
0001
0100
0001
0001
1000
0100
,  // measure 21
1000
0100
1000
1000
0010
1000
0010
1000
,  // measure 22
0010
0010
1000
0000
0001
0000
1000
0000
,  // measure 23
0001
0010
0100
0001
,  // measure 24
1000
0010
1000
0010
,  // measure 25
0100
1000
0100
1000
,  // measure 26
0001
1000
0001
1000
,  // measure 27
0100
0001
1000
0001
,  // measure 28
0001
0000
0001
0100
0001
0100
0001
0100
,  // measure 29
1000
0100
1000
1000
0100
1000
0100
1000
,  // measure 30
0100
0001
0100
0001
0100
0001
0100
1000
,  // measure 31
0100
1000
0100
0100
0100
0010
0001
1000
,  // measure 32
0100
0010
0001
1000
0100
0010
0010
0100
,  // measure 33
0010
0001
1000
0100
0010
0001
1000
0001
,  // measure 34
1000
1000
0001
0100
0010
1000
0010
1000
,  // measure 35
0010
0100
0001
0010
0001
0010
0100
0010
,  // measure 36
0100
1000
0010
0100
0001
1000
0001
1000
,  // measure 37
0010
0200
0000
0000
0300
0000
0000
0002
,  // measure 38
0000
0000
0023
0000
0000
0230
0000
0000
,  // measure 39
2300
0000
0000
3002
0000
0000
0203
0000
,  // measure 40
0000
0320
0000
0000
2030
0000
0000
3001
,  // measure 41
0001
0100
0010
0010
1000
0100
0010
0001
,  // measure 42
1000
1000
0100
0010
0001
1000
0001
0100
,  // measure 43
0100
1000
0100
0100
0001
0100
0100
0010
,  // measure 44
0000
1000
0000
0000
0010
0000
0000
0100
0000
0000
1000
0000
0001
0000
0010
0000
,  // measure 45
0100
0000
0000
1000
0000
0000
0001
0000
0000
1000
0000
0000
0100
0000
0010
0000
,  // measure 46
0100
0000
1000
0000
0000
0001
0000
0000
0010
0000
0000
0010
0000
0000
1000
0000
,  // measure 47
0000
1000
0000
0000
0001
0000
0000
1000
0000
0000
0010
0000
0000
0100
0000
0000
,  // measure 48
0010
0000
0000
1000
0000
0000
1000
0000
0001
0000
0100
0000
0010
0000
2000
0000
,  // measure 49
0100
0100
3100
0010
0001
0100
0010
1000
,  // measure 50
0001
0100
0100
0100
0001
1000
0001
1000
,  // measure 51
0010
0100
0010
0020
1000
1000
1030
0100
,  // measure 52
0010
0001
1000
0001
0000
1001
0000
0000
;
