#TITLE:Boss Machine;
#SUBTITLE:;
#ARTIST:DM Ashura;
#TITLETRANSLIT:;
#SUBTITLETRANSLIT:;
#ARTISTTRANSLIT:;
#CREDIT:;
#BANNER:banner.png;
#BACKGROUND:background.png;
#LYRICSPATH:;
#CDTITLE:jingles-cd.png;
#MUSIC:Boss Machine.mp3;
#OFFSET:-1.535;
#SAMPLESTART:39.016;
#SAMPLELENGTH:12.000;
#SELECTABLE:YES;
#BPMS:0.000=159.995;
#STOPS:;
#BGCHANGES:;
// cache tags:
#FIRSTBEAT:0.000;
#LASTBEAT:331.000;
#SONGFILENAME:Songs/IzzySM Keyboard Mega Pack/boss machine/Boss Machine.sm;
#HASMUSIC:1;
#HASBANNER:1;
#MUSICLENGTH:129.705;
// end cache tags

//---------------dance-single - ----------------
#NOTES:
     dance-single:
     :
     Challenge:
     15:
     1.000,1.000,1.000,1.000,1.000,787.000,138.000,233.000,0.000,47.000:  // measure 1
1100
0110
0011
0110
1100
1001
0110
0011
,  // measure 2
1010
0101
0011
1100
0110
1001
1010
0011
,  // measure 3
0101
0110
0011
1001
1100
0101
0011
0000
,  // measure 4
2002
3223
0330
2020
3232
0303
2020
3032
,  // measure 5
0203
0000
2000
3000
0002
0003
0020
0330
,  // measure 6
2002
3223
0330
2002
3223
0330
2000
3002
,  // measure 7
0203
0000
0020
0030
0002
0003
2000
3300
,  // measure 8
2002
3223
0330
0200
2300
3000
0020
0032
,  // measure 9
2003
0000
0200
0300
0002
0003
0020
3030
,  // measure 10
2200
3302
0003
0020
2230
3300
2200
3320
,  // measure 11
0032
0000
2000
3000
0020
0030
0200
0303
,  // measure 12
0020
2230
3300
2002
3223
0330
0002
2203
,  // measure 13
3320
0000
2000
3000
0200
0300
0002
0033
,  // measure 14
0020
0032
0003
2002
3223
0330
0020
0032
,  // measure 15
2003
0000
0020
0030
0200
0300
0002
3003
,  // measure 16
0220
2332
3003
0002
2203
3300
2020
3032
,  // measure 17
0203
0000
2000
3000
0002
0003
0020
0330
,  // measure 18
2002
3203
0300
0020
2032
3003
2200
3302
,  // measure 19
0023
0000
2000
3000
0002
0003
0200
0330
,  // measure 20
1000
0100
0010
0001
0100
0001
0010
0100
1000
0010
1000
0100
0010
0001
1000
0100
,  // measure 21
0010
0001
1000
0100
0010
0001
0010
0100
1000
0001
0010
0100
1000
0001
0010
0100
,  // measure 22
1000
0001
1000
0001
1000
0010
1000
0010
1000
0100
1000
0100
1000
0100
0010
0001
,  // measure 23
0100
0010
1000
0100
0010
0001
0010
0100
1000
0010
0100
0001
0010
0100
1000
0100
,  // measure 24
1000
0100
0010
0001
0010
0001
1000
0001
1000
0100
0010
0001
1000
0001
0010
0100
,  // measure 25
1000
0001
1000
0100
0010
0001
0010
0100
1000
0100
0010
0001
0010
0100
1000
0100
,  // measure 26
0010
0001
0010
0100
1000
0100
0010
0001
0010
0100
1000
0100
0010
0001
1000
0001
,  // measure 27
1000
0001
0100
0001
0100
0001
0010
0001
0010
0100
1000
0001
0010
0100
1000
0001
,  // measure 28
0010
0100
1000
0100
0010
0001
1000
0100
0010
0001
1000
0100
0010
0001
1000
0010
,  // measure 29
0100
0001
1000
0010
0100
0001
1000
0010
0100
1000
0010
0100
0001
0010
0100
1000
,  // measure 30
0100
0010
0001
0100
0010
1000
0100
0010
0001
1000
0100
0001
0010
1000
0100
0001
,  // measure 31
0010
1000
0100
0001
0010
0100
1000
0010
0100
0001
0010
0100
1000
0100
0010
0001
,  // measure 32
0100
0010
1000
0100
0010
0001
0100
0001
0010
0100
1000
0010
1000
0100
0010
0001
,  // measure 33
1000
0001
0010
0100
1000
0001
1000
0100
0010
0001
1000
0100
0010
0001
1000
0100
,  // measure 34
0010
0001
0010
0100
1000
0001
0010
0100
1000
0001
0010
0100
1000
0010
0100
0001
,  // measure 35
0010
0100
1000
0100
0010
0001
0100
0010
1000
0100
0010
0001
1000
0001
1000
0001
,  // measure 36
0100
0001
0100
0001
0010
0001
0010
0100
1000
0100
0010
0001
0010
0100
1000
0001
,  // measure 37
1000
0001
1000
0010
1000
0010
1000
0100
1000
0100
0010
0001
1000
0100
0010
0001
,  // measure 38
1000
0100
0010
0001
0010
0100
1000
0001
0010
0100
1000
0001
0010
0100
1000
0001
,  // measure 39
1000
0100
0010
0001
1000
0001
0010
0100
1000
0010
1000
0100
0010
0001
0100
0001
,  // measure 40
0010
0100
1000
0100
1000
0100
0010
0001
0010
0001
0010
0100
1000
0010
0100
0001
,  // measure 41
0010
0100
1000
0100
0010
0001
0100
0010
1000
0100
0010
0001
1000
0100
0010
0001
,  // measure 42
1000
0100
0010
0001
0010
0001
0010
0001
0100
0001
0100
0001
1000
0001
1000
0001
,  // measure 43
0010
0100
1000
0100
1000
0100
1000
0010
1000
0010
1000
0001
1000
0001
0010
0100
,  // measure 44
1000
0100
0010
0001
0010
0100
1000
0100
0010
0001
0010
0100
1000
0100
0010
0001
,  // measure 45
0100
0010
1000
0100
0010
0001
0010
0100
1000
0010
0100
0001
0010
0100
1000
0010
,  // measure 46
1000
0100
0010
0001
0100
0001
0010
0100
1000
0001
1000
0100
0010
0001
1000
0001
,  // measure 47
0010
0100
1000
0001
0010
0100
1000
0001
0010
0100
1000
0100
0010
0001
1000
0100
,  // measure 48
0010
0001
1000
0100
0010
0001
1000
0100
0001
0010
1000
0100
0001
0010
1000
0100
,  // measure 49
0001
0010
0100
1000
0100
0010
0001
0010
0100
1000
0010
0100
0001
0010
0100
1000
,  // measure 50
0100
0010
0001
0100
0010
1000
0100
0010
0001
0100
0001
0010
0100
1000
0010
1000
,  // measure 51
0100
0010
0001
1000
0001
0010
0100
1000
0001
1000
0100
0010
0001
0010
0001
0010
,  // measure 52
0202
2323
3232
0303
0002
0003
2002
3003
,  // measure 53
0202
2323
3032
2003
3000
0202
2323
3030
,  // measure 54
2000
3022
0233
0300
2002
3003
0220
0330
,  // measure 55
2002
3203
2302
3023
2030
0000
0000
3000
,  // measure 56
0020
2032
3223
0330
2002
3003
0202
0303
,  // measure 57
0020
2030
3002
2203
3300
0220
0332
0003
,  // measure 58
0200
0320
2230
3300
2002
3003
0202
0303
,  // measure 59
2020
3230
0302
0023
2032
0000
0000
3003
,  // measure 60
0200
2302
3223
0330
2002
3003
2020
3030
,  // measure 61
0200
0302
2003
3020
0030
2002
3223
0330
,  // measure 62
0200
0320
2030
3000
0022
0033
2002
3003
,  // measure 63
0200
0320
0032
2203
3322
0000
0000
0033
,  // measure 64
2000
3002
0223
0330
2000
3000
0022
0033
,  // measure 65
0202
2303
3002
0023
0030
2000
3002
0003
,  // measure 66
2000
3020
2230
3300
0202
0303
0220
0330
,  // measure 67
2000
3002
0203
2302
3223
0330
0000
0000
,  // measure 68
1001
0000
0000
0000
0110
0000
0000
0000
1100
0000
0000
0000
0011
0000
1000
0100
,  // measure 69
1000
0110
0011
1010
,  // measure 70
0101
0000
0000
0000
0110
0000
0000
0000
1100
0000
0000
0000
1001
0000
0100
0010
,  // measure 71
0100
0010
0000
0000
0100
0000
0010
0000
0100
0000
0000
0000
1010
0000
0000
0000
,  // measure 72
0101
0000
0000
0000
0110
0000
0000
0000
0011
0000
0000
0000
1100
0000
0010
0001
,  // measure 73
0010
0101
1010
1001
,  // measure 74
0011
0000
0000
0000
0110
0000
0000
0000
1100
0000
0000
0000
1010
0000
0000
1000
,  // measure 75
0100
0010
0001
0000
1000
0000
0100
0000
0010
0000
0000
0000
0001
0000
0000
0000
,  // measure 76
1100
0000
0000
0000
0011
0000
0000
0000
1010
0000
0000
0000
0101
0000
0000
0001
,  // measure 77
0010
0100
0000
0000
1001
0000
0000
0000
0110
0000
0000
0000
0101
0000
0000
0000
,  // measure 78
1010
0000
0000
0000
0110
0000
0000
0000
0011
0000
0000
0000
0110
0000
0000
1000
,  // measure 79
0010
0100
0001
0000
1000
0000
0010
0000
0100
0000
0000
0000
1001
0000
0000
0000
,  // measure 80
0011
0000
0000
0000
1100
0000
0000
0000
0110
0000
0000
0000
0011
0000
0000
1000
,  // measure 81
0100
0010
0000
0000
1001
0000
0000
0000
0011
0000
0000
0000
0110
0000
0000
0000
,  // measure 82
1100
0000
0000
0000
0011
0000
0000
0000
0110
0000
0000
0000
1100
0000
0000
1000
,  // measure 83
0100
0001
0010
0000
0100
0000
1000
0000
0001
0000
0000
0000
0100
0000
0000
0000
;
