#TITLE:Shooting Star-2Star Mix-;
#SUBTITLE:(Short ver.);
#ARTIST:KOTOKO;
#TITLETRANSLIT:;
#SUBTITLETRANSLIT:;
#ARTISTTRANSLIT:;
#CREDIT:;
#BANNER:sssbn.jpg;
#BACKGROUND:sssbg.jpg;
#LYRICSPATH:;
#CDTITLE:;
#MUSIC:sss.mp3;
#OFFSET:-3.820;
#SAMPLESTART:65.340;
#SAMPLELENGTH:12.800;
#SELECTABLE:YES;
#BPMS:0.000=143.750;
#STOPS:;
#BGCHANGES:;
// cache tags:
#FIRSTBEAT:16.000;
#LASTBEAT:240.000;
#SONGFILENAME:Songs/toune/sssre/sssre.sm;
#HASMUSIC:1;
#HASBANNER:1;
#MUSICLENGTH:131.528;
// end cache tags

//---------------dance-single - ----------------
#NOTES:
     dance-single:
     :
     Hard:
     7:
     0.400,0.411,0.213,0.129,0.042,323.000,28.000,17.000,0.000,0.000:
0000
0000
0000
0000
,
0000
0000
0000
0000
,
0000
0000
0000
0000
,
0000
0000
0000
0000
,
2002
0000
0000
0000
,
0000
0000
3003
0000
,
0000
0000
0000
0000
,
0000
0000
0000
0000
,
0001
0100
0010
1000
0000
0001
0000
1000
,
0001
0100
0010
1000
0000
0100
0000
0010
,
0001
0100
0010
1000
0000
0001
0000
0100
,
2002
0000
0000
3003
,
1000
0000
0110
0000
0001
1000
0100
0000
,
1000
0100
0010
0100
1000
0010
0100
0000
,
0001
0100
0010
0000
1100
0000
0101
0000
,
1001
0000
0001
0100
0110
0000
1000
0001
,
1001
0000
1100
0000
0100
0010
0001
1000
,
0001
0001
1000
0000
1200
0000
0001
0000
,
1300
0010
0100
0000
0001
1000
0001
0000
,
1001
0000
0001
0100
1000
0000
0000
0000
,
1002
0000
0103
0000
0010
1000
0100
0000
,
0100
1000
0010
0000
0010
0100
0001
0000
,
0001
1000
0100
0000
1100
0000
0101
0001
,
1000
0100
1000
0001
0100
0001
1000
0100
,
2002
0000
3003
0000
1200
0000
0310
0001
,
0100
0000
0001
0100
1000
0000
1000
0100
,
0001
0010
0100
1000
0100
0001
0100
1000
,
0010
0100
0001
0010
2002
0000
3003
0000
,
1000
0100
0010
0100
1000
0010
0100
0010
,
1000
0100
0010
1000
0010
0100
1000
0010
,
0100
1000
0100
0010
0100
0010
1000
0010
,
0100
0010
0100
0010
1000
0100
1000
0000
,
0001
0100
0010
0100
0001
0010
0100
0010
,
0001
0100
0010
0001
0010
0100
0001
0010
,
0100
0001
0100
0010
0100
0010
0001
0010
,
0100
0010
0001
0010
0001
0100
0001
1000
,
1100
0000
0000
0101
0000
0000
2002
0000
0000
0000
0000
0000
3003
0000
0000
0000
,
1000
0000
0000
1000
0100
0000
0010
0000
0001
0000
0100
0000
1000
0000
0000
0000
,
0100
0000
0000
0100
0010
0000
1000
0000
0100
0000
0001
0000
0100
0000
0000
0000
,
1000
0000
0000
1000
0001
0000
0100
0000
0010
0000
1000
0000
0100
0000
0010
0000
,
1001
1100
0202
0303
,
0001
0000
0000
1000
0001
0000
0010
0000
0100
0000
1000
0000
0010
0000
0100
0000
,
0001
0000
0000
0100
0010
0000
1000
0000
0100
0000
0010
0000
0001
0000
1000
0000
,
0001
0000
0000
0010
0100
0000
1000
0000
0010
0000
0100
0000
0010
0000
1000
0000
,
1100
0000
0101
0000
0010
1000
0100
0000
,
1100
0000
0101
0000
0001
1000
0100
0000
,
0010
0001
1000
0010
0100
0001
0010
0100
,
0010
0001
0100
0010
1000
0001
0010
0100
,
1000
0001
0000
1000
0100
0000
0010
0100
0000
1000
0010
0000
0100
0000
0001
0000
,
0100
0010
1000
0100
0000
0010
0001
0100
,
0010
1000
0100
0010
0000
0010
0001
0100
,
0010
1000
0100
1000
0000
1000
0001
0100
,
0010
1000
0100
0010
1000
0010
0100
1000
,
0010
0100
0001
1000
0000
1000
0001
0100
,
0010
1000
0100
0010
0000
0100
1000
0010
,
0100
0001
1000
0001
0001
1000
0100
0010
,
0001
1000
0010
0100
0001
0010
0100
0001
,
2002
0000
0000
0000
,
0000
0000
0000
0000
,
0000
0000
0000
0000
,
3003
0000
0000
0000
;

//---------------dance-single - ----------------
#NOTES:
     dance-single:
     :
     Medium:
     6:
     0.323,0.388,0.251,0.281,0.004,227.000,33.000,37.000,0.000,0.000:
0000
0000
0000
0000
,
0000
0000
0000
0000
,
0000
0000
0000
0000
,
0000
0000
0000
0000
,
2002
0000
0000
0000
,
0000
0000
0000
0000
,
3003
0000
0000
0000
,
0000
0000
0000
0000
,
0002
1000
1000
2003
,
3002
0010
0010
0013
,
0200
1000
1000
1300
,
2002
0000
0000
3003
,
1000
0000
1100
0000
0001
0100
0010
0000
,
0001
0000
0101
0000
0001
1000
0100
0000
,
0001
0001
1000
0110
,
0001
1000
0100
0000
0100
1000
0001
0000
,
2002
0000
3003
0000
0001
0200
1000
0000
,
0010
0000
1300
0100
0010
1000
0001
0000
,
0002
1003
1100
0101
,
0001
0100
0220
0330
,
1000
0001
1000
1100
,
0001
0010
0110
1100
,
0010
0200
1000
1300
,
0102
0013
2100
3010
,
0202
0000
0303
0000
1000
0000
0100
1000
,
0010
0000
0010
0000
0100
0001
1000
0000
,
0021
0230
2300
3010
,
2200
3300
0202
0303
,
0001
0100
1000
1000
,
0010
0001
0100
0100
,
1000
0010
0001
0001
,
1000
0100
0010
1001
,
1000
0100
0001
0001
,
0010
1000
0100
0100
,
1000
0110
0001
0110
,
2200
3300
0202
0303
,
0001
0000
0000
0100
0000
0000
2000
0000
0000
0000
0000
0000
3000
0000
0000
0000
,
0100
0000
0100
0001
0010
0000
0100
1000
,
0001
0000
0001
1000
0100
0000
0100
1000
,
0010
0000
0010
1000
0100
0000
0100
1000
,
1001
0101
0220
0330
,
0010
0000
0010
1000
0100
0000
0100
1000
,
0010
0000
0010
0100
0001
0000
0001
1000
,
0100
1000
0100
0000
0010
0001
0010
0000
,
0001
0100
0001
0000
0010
1000
0010
0000
,
1000
1100
0001
0101
,
0010
0000
0010
1000
0100
0010
0001
0000
,
2000
3100
0002
0103
,
1001
0110
1001
0110
,
1000
0000
1000
0000
1000
0100
1000
0000
,
0001
0000
0001
0000
0001
0100
0001
0000
,
1000
0000
1000
0000
1000
0100
1000
0000
,
0001
0100
0010
1000
0001
0100
0010
1000
,
0001
0000
0010
0000
0100
1000
0010
0000
,
0100
0000
0001
0000
1000
0100
0010
0000
,
0001
1000
0100
0010
0000
0010
0001
0100
,
0010
1000
0010
0100
0010
1000
0001
0010
,
0220
0000
0000
0000
,
0000
0000
0000
0000
,
0000
0000
0000
0000
,
0330
0000
0000
0000
;

//---------------dance-single - ----------------
#NOTES:
     dance-single:
     :
     Easy:
     3:
     0.206,0.297,0.137,0.076,0.000,162.000,18.000,10.000,0.000,0.000:
0000
0000
0000
0000
,
0000
0000
0000
0000
,
0000
0000
0000
0000
,
0000
0000
0000
0000
,
2000
0000
0000
0000
,
3000
0000
0000
0000
,
0000
0000
0000
0000
,
0000
0000
0000
0000
,
0000
1000
1000
1000
,
0001
0010
0010
0010
,
0100
1000
1000
1000
,
2002
0000
0000
3003
,
0001
1000
0100
0000
,
1000
0000
1000
0000
,
0001
1000
0100
0000
,
0001
0000
0001
0000
,
2002
0000
3003
0000
,
1000
0001
0100
0000
,
0010
0000
0010
0000
,
1000
0001
0100
0000
,
0010
1000
0100
0010
,
0001
0100
0010
0000
,
1000
0100
0010
0001
,
0100
0010
1000
0000
,
1001
0000
0101
0000
,
0001
1000
0100
0000
,
0100
1000
0010
0100
,
0001
0100
0100
0000
,
0001
0100
0001
0100
,
1000
0100
1000
0100
,
0001
1000
0001
0010
,
0001
1000
0001
0100
,
0010
1000
0010
1000
,
0010
0100
0010
0100
,
0010
1000
0100
0001
,
0010
0100
1000
0010
,
0100
0001
2002
3003
,
1000
0000
1001
0000
,
0001
1000
1001
0000
,
1100
0000
0101
0000
,
0010
0010
1001
0000
,
0001
0000
1000
0000
,
0001
0100
1010
0000
,
1000
0100
0010
0001
,
0001
1000
0001
1000
,
0020
0000
0030
0000
,
1000
0001
0010
0010
,
0100
1000
0010
0100
,
1001
0101
1100
0101
,
1000
0100
0010
0001
,
1000
0100
0010
0001
,
0100
0001
0100
0010
,
1000
0100
0001
0010
,
1000
0001
0100
0010
,
1000
1000
0001
0001
,
1000
0010
0100
0001
,
1000
1100
0001
0101
,
2002
0000
0000
0000
,
0000
0000
0000
0000
,
0000
0000
0000
0000
,
3003
0000
0000
0000
;

//---------------dance-single - ----------------
#NOTES:
     dance-single:
     :
     Challenge:
     9:
     0.436,0.479,0.144,0.137,0.099,364.000,19.000,18.000,0.000,0.000:
0000
0000
0000
0000
,
0000
0000
0000
0000
,
0000
0000
0000
0000
,
0000
0000
0000
0000
,
2002
0000
0000
0000
,
0000
0000
3003
0000
,
0000
0000
0000
0000
,
0000
0000
0000
0000
,
1000
0100
0020
0001
0000
1000
0000
0031
,
0100
0001
0010
0200
0000
0001
0000
1300
,
0010
0100
0001
0020
0000
1000
0000
0031
,
2002
0000
0000
3003
,
1000
0100
0010
0010
0001
0100
0010
0010
,
1000
0100
0010
0001
1000
0001
0101
0000
,
0001
0100
1000
0000
1000
0100
0001
0000
,
1000
0100
0010
0001
1000
0010
1010
0000
,
2200
0000
3300
0000
1001
0000
0001
0100
,
0010
1000
0100
0010
0010
0001
0100
0010
,
0010
1000
0100
0010
0001
0010
0001
0100
,
0010
1000
0100
1000
2200
0000
3300
0000
,
0001
1000
0001
0000
1000
0100
0010
0010
,
0001
0100
0010
1000
0100
0100
0010
0010
,
0001
0100
0001
0100
0010
1000
0010
1000
,
0001
0100
1000
0100
0001
0100
1000
0100
,
0220
0000
0330
0000
1200
0000
0310
0001
,
0100
0010
1000
1000
0100
0010
0001
0001
,
1000
0001
0100
0010
1000
1000
0001
0001
,
1000
0100
0010
0001
2200
0000
3300
0000
,
1000
0000
0100
0000
0010
0000
0100
0000
1000
0000
0010
0000
0100
0000
0001
0100
,
0001
0000
0010
0000
0100
0000
1000
0000
0100
0000
0010
0000
0001
0000
1000
0001
,
1000
0000
0010
0000
0100
0000
0001
0000
0010
0000
0100
0000
1000
0000
0001
0100
,
0010
0000
1000
0000
0100
0000
0010
0000
0001
0000
0000
0000
0000
0000
0001
0100
,
0001
0000
0100
0000
0010
0000
0100
0000
0001
0000
0010
0000
0100
0000
1000
0100
,
1000
0000
0010
0000
0100
0000
0001
0000
0100
0000
0010
0000
1000
0000
0001
1000
,
0001
0000
0010
0000
0100
0000
1000
0000
0010
0000
0100
0000
0001
0000
1000
0100
,
0010
0001
0100
0010
1000
0100
0001
1000
,
1100
0000
0000
0101
0000
0000
1001
0000
1000
0001
1000
0001
1000
0000
0000
0000
,
1000
0000
0000
0010
0100
0000
0010
0000
1000
0000
0100
0000
1000
0000
0001
0000
,
0100
0000
0000
0001
0010
0000
0001
0000
1000
0000
0100
0000
1000
0000
0001
0000
,
1000
0000
0000
1000
0001
0000
0100
0000
0010
0000
1000
0000
0100
0000
0010
0000
,
0001
0010
0001
0000
1000
0010
1000
0000
0001
0100
0001
0000
1000
0100
1000
0000
,
0001
0000
0000
1000
0001
0000
0010
0000
0100
0000
1000
0000
0010
0000
0100
0000
,
0001
0000
0000
0100
0010
0000
1000
0000
0100
0000
0010
0000
0001
0000
1000
0000
,
1001
0000
0000
0010
0100
0000
1000
0000
0010
0000
0100
0000
0010
0000
1000
0000
,
1100
0000
0101
0000
0010
1000
0100
0000
,
1100
0000
0101
0000
0001
1000
0100
0000
,
0010
0001
1000
0010
0100
0001
0010
0100
,
0010
0001
0100
0010
1000
0001
0010
0100
,
1000
0001
0000
0001
0100
0000
0100
0010
0000
0010
1000
0000
0100
0000
1000
0000
,
0100
0010
0001
0100
0000
0010
0001
0100
,
0010
1000
0100
0010
0000
0010
0001
0100
,
0010
1000
0100
1000
0000
1000
0001
0100
,
0010
1000
0100
0010
1000
0010
0100
1000
,
0010
0100
0001
1000
0000
1000
0001
0100
,
0010
1000
0100
0010
0000
0100
1000
0010
,
0100
0001
1000
0001
0001
1000
0100
0010
,
0001
0100
0001
0000
1000
0000
1000
0000
0010
0100
0010
0000
1000
0000
0100
0000
,
2002
0000
0000
0000
,
0000
0000
0000
0000
,
0000
0000
0000
0000
,
3003
0000
0000
0000
;
