#TITLE:Mask of Sanity;
#SUBTITLE:;
#ARTIST:Children of Bodom;
#TITLETRANSLIT:;
#SUBTITLETRANSLIT:;
#ARTISTTRANSLIT:;
#CREDIT:;
#BANNER:mask sanity-banner.png;
#BACKGROUND:mask sanity-bg.png;
#LYRICSPATH:;
#CDTITLE:CDtitletiger.png;
#MUSIC:- 05 - Mask of Sanity.mp3;
#OFFSET:1.100;
#SAMPLESTART:15.200;
#SAMPLELENGTH:12.000;
#SELECTABLE:YES;
#BPMS:0.000=191.920;
#STOPS:;
#BGCHANGES:;
// cache tags:
#FIRSTBEAT:4.000;
#LASTBEAT:766.000;
#SONGFILENAME:Songs/toune 5/Mask of Sanity/Mask Sanity.sm;
#HASMUSIC:1;
#HASBANNER:1;
#MUSICLENGTH:238.607;
// end cache tags

//---------------dance-single - ----------------
#NOTES:
     dance-single:
     :
     Challenge:
     12:
     1.000,1.000,1.000,0.830,0.668,1618.000,342.000,198.000,0.000,50.000:
0000
0000
0000
0000
,
1000
0100
0010
0000
0001
0000
1000
0001
,
0000
0001
0100
0000
0010
0000
1000
0001
,
1000
0001
0010
0000
0100
0000
1000
0001
,
0000
0100
1000
0000
0100
0000
0001
0010
,
0012
1000
0100
0000
1000
0000
0100
1000
,
0000
0010
0100
0000
1013
0010
1010
0011
,
1020
0100
0001
0000
1000
0000
1000
0100
,
0000
0001
0100
0000
1031
0001
1001
0101
,
1002
0000
1000
0000
0010
0100
0010
0000
,
1000
0100
1000
0000
0113
1010
0110
0010
,
2010
0001
0010
0000
0100
0000
0001
0010
,
0000
0010
0001
0000
3101
0100
0110
0101
,
1001
0001
0110
0010
0100
0100
0110
0010
,
0001
0001
1100
1000
0001
0010
0001
1000
,
0110
0010
0011
0001
0100
0100
0101
0001
,
1000
1000
1010
0010
1000
0100
1000
0001
,
1100
1000
0010
0010
0100
0100
0001
0001
,
0010
0010
0001
0001
0010
0001
0010
0100
,
1000
1000
0010
0010
0100
0100
0001
0001
,
0010
0010
0001
0001
2002
0000
0000
3003
,
2000
3010
0100
0002
1003
0010
1000
0200
,
1300
0001
0010
0100
0110
1100
0011
0110
,
1100
1000
0001
0002
0203
0310
0100
2000
,
3020
0000
0031
0000
0010
0000
0100
0000
1000
0100
0001
0000
0001
0100
1000
0000
,
2000
3001
0100
0200
0310
1000
0100
0020
,
0031
0010
0100
1000
1100
0011
1001
0011
,
0202
0000
0000
0000
0000
0000
0000
0303
,
0022
0000
0000
0000
0000
0000
0000
0033
,
1001
1000
0101
0010
1010
1000
0001
0010
,
1100
0010
0101
1000
0011
1000
0110
0100
,
0110
0001
1010
0100
0011
0001
0010
0100
,
1100
0000
0001
0000
1010
0000
0100
0000
1001
0000
0001
0010
0100
1000
0001
0010
,
0100
1000
0010
0100
0010
1000
0100
1000
0001
0010
0001
0100
0010
0100
0001
0010
,
0001
0010
0100
1000
0001
0010
0100
1000
0010
0100
0010
1000
0100
0010
0001
1000
,
0001
0010
0100
1000
0001
0010
0100
1000
0010
0100
0010
1000
0100
1000
0010
0100
,
0010
0000
1000
0001
0010
0000
0100
0000
1000
0000
0100
0000
0010
0000
0001
0000
,
1002
1003
1000
0002
0103
0100
0100
0020
,
0031
0001
0010
0010
2000
3020
0230
0302
,
2003
3010
0010
0002
2003
3100
0100
0002
,
0203
0000
0310
0000
0010
0000
1000
0000
1000
0000
0001
0010
0100
1000
0010
0100
,
0010
0100
0001
0010
0001
1000
0100
1000
0010
0100
0010
1000
0001
1000
0010
0100
,
0010
1000
0100
1000
0001
0010
0100
1000
0001
0010
0100
1000
0001
0100
0001
0100
,
0010
1000
0010
1000
0001
0010
0100
1000
0001
0010
0100
1000
0001
0010
0100
1000
,
0001
0000
0001
0010
0100
0000
1000
0000
0100
0000
0010
0000
0001
0000
0010
0000
,
1200
0000
1000
1302
0000
1000
1203
0000
,
0310
0000
0100
0000
0101
0000
0010
0100
0010
0000
1000
0000
1000
0000
1000
0000
,
0021
0000
1030
0201
0000
1300
1002
0000
,
1003
0000
0010
0000
0101
0000
1000
0100
1000
0000
1000
0000
0110
0000
1000
0000
,
2001
0000
3001
1020
0000
1030
0201
0000
,
0301
1000
1001
0001
0010
0010
0100
0100
,
1002
0000
1000
0000
0013
0010
0010
0010
,
1001
0000
1000
0000
0001
0100
0010
0100
0001
0000
0001
0000
1000
0000
1000
0000
,
1002
0000
0100
0213
0000
0010
1320
0000
,
1030
0001
0100
0010
1000
0001
0100
0010
1000
0001
0100
0010
1000
0001
0100
0010
,
1002
0000
0100
2103
0000
0100
3120
0000
,
1030
0100
0010
0001
1000
0100
0010
0001
1000
0100
0010
0001
1000
0100
0010
0001
,
2100
0000
3100
0210
0000
0310
0021
0000
,
1030
0010
0100
0001
1000
0010
0100
0001
1000
0010
0100
0001
1000
0010
0100
0001
,
2100
0000
0000
0000
3100
0100
0100
0002
,
0000
0013
0010
0010
2002
0000
0000
3003
,
1001
1000
1100
0100
0101
0001
1010
0010
,
0110
0100
0101
0001
0100
0010
0100
1000
,
0101
0001
0011
0010
1010
1000
1100
0100
,
0110
0000
0000
0000
0000
0000
0000
0000
0020
0000
0000
0000
0000
0000
0000
0030
0020
0000
0000
0000
0000
0000
0000
0030
0020
0000
0000
0000
0000
0000
0000
0000
0030
0000
0000
0000
0000
0000
0000
0000
0002
0000
0000
0000
0000
0000
0000
0000
0003
0000
0000
0000
0000
0000
0000
0000
0002
0000
0000
0000
0000
0000
0000
0000
,
0113
0010
0110
0100
1100
1000
1001
0001
,
0101
0100
0110
0010
0001
0010
0001
1000
,
0110
0100
1001
0001
0101
0100
0110
0010
,
0100
0001
0010
0100
1000
0010
0100
0001
0010
0100
1000
0100
0010
0100
1000
0001
,
0010
0100
0110
0101
1010
0010
0101
0001
,
1010
1000
0110
0010
1100
0001
0110
0010
,
2001
0001
0010
0010
0100
0100
0001
0001
,
3101
0100
0010
1000
1000
0010
0100
0001
,
0010
1010
0101
1100
0110
0010
1001
0001
,
1010
1000
0110
0010
1100
0011
0100
0012
,
1000
1000
0100
0100
0010
0010
0100
0100
,
1013
1000
0010
0010
0001
0010
0100
1000
,
1001
0100
0011
0000
0101
0000
0110
1000
,
0000
0101
1010
0000
1100
0000
0011
1100
,
1001
0100
1001
0000
1010
0000
0101
0010
,
0000
0011
1100
0000
1100
0000
1010
0100
,
0101
1000
0011
0000
1100
0000
0011
0100
,
0000
1100
0011
0000
1001
0000
0101
0010
,
2010
0000
3100
0010
0001
0000
1000
0000
0020
0000
0031
0000
0001
0000
0001
0000
,
1100
1100
1100
0210
0000
0301
0020
0000
,
2031
3001
0010
2000
3010
0010
0010
2000
,
3010
0001
1000
0001
2000
3002
0203
0302
,
1003
0010
0010
2000
3200
1300
1000
0002
,
0023
0000
1030
0000
1000
0000
1000
0000
1000
0000
0001
0010
0001
1000
0100
1000
,
0010
0100
0010
1000
0001
1000
0010
0100
0010
1000
0100
1000
0001
0010
0100
1000
,
0001
0010
0100
1000
0001
0010
0001
0010
1000
0100
1000
0100
0001
0010
0001
0100
,
0010
0100
0001
0010
0001
0100
0010
0100
0001
0010
0100
1000
0001
0010
0100
1000
,
0010
0100
0010
0100
0001
0010
0001
0010
1000
0100
0010
0001
1000
0100
0010
0001
,
2000
3100
0100
0002
1003
1000
1000
0020
,
1030
0100
0001
0100
2000
3200
0320
0032
,
2003
3100
0100
0002
0023
0031
0001
2000
,
3200
0000
0301
0000
0001
0000
0001
0000
0001
0000
1000
0100
1000
0001
0010
0001
,
0100
0010
0100
0001
1000
0001
0100
0010
0100
0001
0010
0001
1000
0100
0010
0001
,
1000
0100
0010
0001
0100
0010
0100
0010
1000
0100
1000
0100
0010
0001
0200
0000
,
2302
0000
0000
0003
0002
0000
3023
0000
2230
0000
0000
0300
0020
0000
3230
0000
,
0322
0000
0000
0000
0000
0000
0000
0033
,
2001
0000
3001
1000
0001
0000
1000
0001
,
0012
0003
2100
3010
0100
0000
1000
0001
,
2001
3000
1000
0001
1000
0000
0001
1000
,
0021
0030
1200
0301
1000
0000
0001
1000
,
1002
0003
0010
0100
0010
0000
1000
0001
,
0201
0300
1020
0130
1000
0000
0001
1000
,
2001
3000
0001
0010
0001
0000
1000
0100
,
1020
0030
2100
3000
1001
0000
0000
0000
,
1002
0000
1000
0000
1100
0000
1003
1000
,
2010
3201
2301
0100
,
3102
0000
1000
0000
1000
0000
0103
0100
,
0210
2301
3210
0010
,
2301
0000
0010
0000
0010
0000
3100
0100
,
0120
1032
1203
1000
,
0321
0000
0001
0000
1000
0000
1030
1000
,
2001
3210
0321
1000
,
1031
1001
1001
1001
1001
0000
0011
0011
,
0011
0011
0011
0000
0011
0011
0011
0000
,
0110
0110
0110
0110
0110
0000
1100
1100
,
1100
1100
1100
0000
1100
1100
1100
0000
,
1010
1010
1010
1010
1010
0000
0101
0101
,
0101
0101
0101
0000
0101
0101
0101
0000
,
0110
0110
0110
0110
0110
0000
1010
1010
,
2120
0000
0000
0000
0000
0000
0000
3030
,
1010
0010
1010
0010
1010
0000
0011
0001
,
0011
0001
0011
0000
0110
0100
1100
0000
,
1100
0100
0110
0010
0011
0000
0011
0010
,
0110
0100
1100
0000
2002
0000
0000
3003
,
1001
0001
0011
0010
0110
0000
1100
0100
,
0101
0001
1001
0000
0011
0001
0011
0000
,
0001
0010
0100
1000
0001
0010
0100
1000
0010
0100
0010
0100
0001
0010
0001
0010
,
1001
0000
1000
0000
1000
0000
1000
0000
0001
0010
0100
1000
0001
0010
0100
1000
,
0012
0000
0000
0000
,
0000
0000
2003
3020
0230
0320
0032
0003
,
0001
0010
0001
1000
0100
1000
0010
0100
0010
1000
0100
0010
0001
1000
0100
1000
,
0001
0100
0010
0100
0001
1000
0001
1000
0002
0000
0000
0000
0000
0000
0003
0000
,
1000
0100
0010
0001
1000
0100
0010
0001
0100
0010
0100
0010
1000
0100
1000
0100
,
0001
0010
0100
1000
0001
0010
0100
1000
0001
0100
0001
0100
0010
1000
0010
1000
,
0201
1302
0213
0321
,
1030
0100
0010
0001
1000
0100
0010
0001
1000
0100
0010
0001
1000
0100
0010
0001
,
1200
0320
0230
0302
1023
0230
0302
0203
,
1302
0023
0230
2300
3102
0203
0320
2030
,
3200
0300
0020
0030
0002
0003
2000
3001
,
0001
0001
0010
0010
1000
2000
3002
0023
,
1030
0100
0010
0001
1000
0100
0010
0001
0100
0010
0100
0010
1000
0100
1000
0100
,
0001
0010
0100
1000
0001
0010
0100
1000
0001
0010
0001
0010
0001
0010
0100
1000
,
0012
0000
0000
0000
,
1003
0020
0000
0000
1030
0002
0000
0003
1000
0200
0000
0000
1300
0020
0000
0000
,
0032
0000
0003
0000
1000
0100
1000
0001
0010
0001
0100
0010
0100
0001
0010
0001
,
1000
0100
1000
0100
0001
1000
0001
1000
0002
0000
0003
0000
0001
0000
0000
0000
,
1000
0100
0010
0001
1000
0100
1000
0001
0010
0001
1000
0100
0010
0001
1000
0100
,
0010
0100
0010
0100
0001
0010
0100
1000
0001
0010
0100
1000
0001
0010
0001
0010
,
1000
0100
1000
0100
0001
0010
0100
1000
0001
0010
0100
1000
0001
0010
0100
1000
,
0010
0100
0010
1000
0100
1000
0001
0010
0001
0100
0010
0100
1000
0100
0010
0001
,
1000
0010
0100
0001
1000
0010
0100
0001
1000
0100
0010
0001
1000
0010
0100
0001
,
1000
0100
1000
0100
0001
1000
0001
1000
0010
0100
0010
0100
0001
0010
0100
1000
,
0001
0010
0001
1000
0100
1000
0010
0100
0010
0100
0001
0010
0100
1000
0100
0010
,
1002
0203
2300
3200
0320
0230
2300
3200
,
0301
1000
0001
1000
0001
1000
0001
1000
0010
0100
0010
0100
0010
0100
0010
0100
,
0001
0010
0001
1000
0100
1000
0010
0100
0010
1000
0100
1000
0001
0010
0100
1000
,
0102
0000
1023
0000
0231
0000
0321
0000
1230
0000
0321
0000
,
2032
0000
0000
0000
3003
0000
1000
0100
0012
0000
0000
0000
0003
0000
0000
0000
,
1000
1000
0001
0001
1000
1000
0010
0010
,
1000
1000
0100
0100
1000
0100
0010
0001
,
1000
1000
0001
0001
1000
1000
0010
0010
,
1000
1000
0100
0100
1000
0100
0010
0001
,
1000
1000
0001
0001
1000
1000
0010
0010
,
1000
1000
0100
0100
1000
0100
0010
0001
,
1000
1000
0001
0001
1000
1000
0010
0010
,
1000
1000
0100
0100
1000
0100
0010
0001
,
1100
1000
0011
0001
1100
1100
0110
0010
,
1010
1010
0101
0100
1001
0101
0110
0001
,
1100
1000
0011
0001
1010
1010
0110
0010
,
0001
0010
0100
1000
1000
0010
0100
0001
,
1010
1000
0011
0001
1100
1100
0011
0010
,
1100
1100
0101
0100
1100
0110
0011
0001
,
1100
1000
0101
0001
1010
1001
0110
0010
,
1001
0010
0100
0010
1000
0010
0100
0001
,
1010
1000
0011
0101
1010
1000
0110
0010
,
1001
1000
0110
0100
1001
0100
1010
0001
,
1200
1000
0001
0001
1000
1000
0010
0010
,
1301
0100
0010
0100
0001
0100
0010
1000
,
1001
1010
0011
0101
1010
1000
0110
0010
,
1100
1000
0101
0100
1010
0101
0100
1011
,
1100
1100
0011
0011
1001
1001
1010
1010
,
0001
0010
0100
0000
1000
0000
0001
0000
0010
0000
0100
0000
1000
0000
0001
0000
,
0010
0100
1000
0000
0001
0000
0010
0000
0100
0000
1000
0000
0001
0000
0010
0000
,
0001
1000
0001
1000
0001
1000
0001
1000
0001
1000
0001
1000
0001
1000
0001
1000
,
0001
1000
0001
1000
0001
1000
0001
1000
0001
1000
0001
1000
0001
0000
0102
0000
,
1023
0030
0000
2100
3021
0030
0000
0120
,
0232
0000
0303
0000
;
