#TITLE:Klungkung 2004;
#SUBTITLE:;
#ARTIST:Simon ReMixed by DM Ashura;
#TITLETRANSLIT:;
#SUBTITLETRANSLIT:;
#ARTISTTRANSLIT:;
#CREDIT:;
#BANNER:kk2004-bn.jpg;
#BACKGROUND:kk2004-bg.jpg;
#LYRICSPATH:;
#CDTITLE:!suddenorigami.png;
#MUSIC:Klungkung 2004.mp3;
#OFFSET:0.000;
#SAMPLESTART:2.770;
#SAMPLELENGTH:23.820;
#SELECTABLE:YES;
#BPMS:0.000=175.020;
#STOPS:;
#BGCHANGES:;
// cache tags:
#FIRSTBEAT:0.000;
#LASTBEAT:522.000;
#SONGFILENAME:Songs/Ace Megapack/KlungKung 2004/kk2004.sm;
#HASMUSIC:1;
#HASBANNER:1;
#MUSICLENGTH:179.727;
// end cache tags

//---------------dance-single - ----------------
#NOTES:
     dance-single:
     :
     Hard:
     11:
     1.000,1.000,0.796,1.000,0.734,1157.000,143.000,191.000,0.000,0.000:  // measure 1
1000
0000
0110
0010
0000
0100
1100
0100
,  // measure 2
0100
0000
0110
0100
0000
1000
0011
1000
,  // measure 3
0110
0000
1000
0110
0000
0010
0110
1000
,  // measure 4
0110
0000
0010
0110
0000
1000
0110
1000
,  // measure 5
0020
0000
0000
0000
1030
0000
0000
0000
0100
0000
1000
0000
0100
1000
0100
0000
,  // measure 6
0100
1100
0100
0011
,  // measure 7
1000
0000
0000
0000
0011
0000
0000
0000
1000
0000
0100
0010
0001
0000
0001
0000
,  // measure 8
0010
0110
1000
0110
,  // measure 9
1000
0100
1000
0000
0010
0001
0010
0000
0100
1000
0100
0000
0010
0100
1000
0000
,  // measure 10
0001
0010
0100
0000
1000
0100
0010
0000
0001
0010
0100
0000
1000
0100
0001
0000
,  // measure 11
0001
0100
1000
0000
0010
1000
0001
0000
0100
1000
0010
0000
0100
1000
0010
0000
,  // measure 12
0001
0100
0010
0000
1000
0100
0010
0000
0001
0010
0100
0000
0010
0100
1000
0000
,  // measure 13
0001
0010
0001
0000
0100
1000
0100
0000
0010
0001
0010
0000
1000
0100
1000
0000
,  // measure 14
0010
0001
0010
0000
0100
0001
0100
0000
0010
1000
0010
0000
1000
0001
1000
0000
,  // measure 15
0010
1000
0010
0000
1000
0010
1000
0000
0100
0001
0100
0000
0100
0001
0100
0000
,  // measure 16
1000
0001
1000
0000
0100
0001
0100
0000
0010
1000
0010
0000
1000
0100
0010
0000
,  // measure 17
0001
0010
0100
0000
1000
0100
0010
0000
0010
0100
1000
0000
0100
0010
0100
0000
,  // measure 18
1000
0100
1000
0000
0010
0100
0010
0000
0001
0010
0001
0000
0100
1000
0100
0000
,  // measure 19
0010
0100
0010
0000
1000
0100
1000
0000
0001
0010
0001
0000
0100
0001
0100
0000
,  // measure 20
1000
0010
1000
0000
1000
0100
1000
0000
1000
0100
1000
0000
0010
0100
0010
0000
,  // measure 21
0001
0010
0001
0000
0100
1000
0100
0000
1000
0100
1000
0000
0010
0100
0010
0000
,  // measure 22
0100
1000
0100
0000
0001
0010
1000
0000
0001
0010
1000
0000
0100
1000
0100
0000
,  // measure 23
0010
0100
0010
0000
1000
0010
0100
0000
1000
0100
0001
0000
0010
1000
0100
0000
,  // measure 24
0001
0010
0100
0000
1000
0100
0010
0000
1000
0100
0010
0000
1000
0100
1000
0000
,  // measure 25
1000
0010
1000
0100
0010
0001
1000
0100
,  // measure 26
1000
0001
0010
0100
1000
0100
0010
0100
,  // measure 27
1000
0010
0100
0001
1000
0010
1000
0010
,  // measure 28
0100
1000
0001
0100
0010
1000
0001
0100
,  // measure 29
1000
0010
1000
0010
1000
0010
1000
0010
,  // measure 30
1000
0010
0100
0001
0100
0010
1000
0010
,  // measure 31
1000
0001
0100
0010
1000
0001
0100
0010
,  // measure 32
1000
0001
0100
0010
1000
0001
0100
0010
,  // measure 33
1000
0000
1100
0000
0110
0011
1100
0110
,  // measure 34
1010
0110
1100
0110
,  // measure 35
0011
0000
1100
0000
0011
0110
1100
0110
,  // measure 36
0011
1100
0110
1100
,  // measure 37
1100
0000
0110
1100
0110
0011
0110
1100
,  // measure 38
0110
1100
0110
1100
,  // measure 39
1100
0000
1100
0000
0110
0011
0110
1100
,  // measure 40
0110
1100
0110
1100
,  // measure 41
0000
1000
0100
0100
0020
0000
0230
0000
,  // measure 42
0300
1000
1000
0020
0230
0320
0230
0320
,  // measure 43
0030
1000
1000
1000
0200
0000
0320
0000
,  // measure 44
0230
0000
0302
0003
0200
0000
0300
0000
0202
0303
0010
0000
0202
0000
0303
0000
,  // measure 45
0000
1100
1100
0011
0220
0330
2200
0000
,  // measure 46
3300
0020
0230
2300
3200
0320
0032
0023
,  // measure 47
0030
0000
1100
0000
0110
0000
1100
0000
0022
0000
0030
0003
0220
0000
0300
0030
,  // measure 48
0200
2300
3002
0003
2000
3002
0023
0030
,  // measure 49
0000
0000
0110
0000
0011
0000
1100
0000
0022
0000
0000
0033
2200
0000
0000
0000
,  // measure 50
3300
0000
2200
3300
0220
0330
0022
0033
0220
0330
0202
0003
0020
0030
0002
0003
,  // measure 51
0000
0300
1100
0000
1100
0000
0110
0000
0220
0000
0330
0000
2200
0000
3300
0000
,  // measure 52
0000
1000
0100
0020
0032
0023
0032
0023
,  // measure 53
0030
1000
0100
0010
0020
0000
2030
0000
,  // measure 54
3000
1000
1000
0020
0230
0320
0230
0320
,  // measure 55
0030
1000
1000
0001
0200
0000
0320
0000
,  // measure 56
0030
0002
0023
0030
0000
0000
0000
0000
,  // measure 57
1000
0001
1000
0010
1000
0100
1000
0001
1000
0010
1000
0100
1000
0010
1000
0001
,  // measure 58
1000
0100
0001
0100
0001
0100
0001
0010
0001
1000
0001
0100
0001
0010
0001
0100
,  // measure 59
1000
0010
1000
0100
1000
0010
1000
0100
1000
0001
1000
0010
1000
0010
1000
0001
,  // measure 60
1000
0010
0001
0100
0001
1000
0001
0100
0001
1000
0001
0100
0001
0010
0001
0010
,  // measure 61
0001
0100
1000
0010
1000
0100
1000
0010
1000
0001
1000
0100
1000
0010
1000
0001
,  // measure 62
1000
0010
1000
0100
1000
0001
1000
0010
1000
0100
1000
0010
1000
0010
1000
0100
,  // measure 63
1000
0100
1000
0010
1000
0100
1000
0010
1000
0100
1000
0001
1000
0010
1000
0100
,  // measure 64
1000
0001
1000
0010
1000
0100
1000
0010
1000
0100
1000
0001
1000
0010
1000
0000
,  // measure 65
1100
0000
0000
0010
0001
0000
0010
0000
0010
0000
0100
0000
1000
0000
0100
0000
,  // measure 66
0200
0000
0300
0000
0001
0000
0000
0000
0101
0000
0000
0000
0001
0000
0000
0000
0220
0000
0000
0000
0330
0000
0001
0010
0100
0000
0000
0000
1000
0000
0000
0000
,  // measure 67
0100
0000
0000
0000
0011
0000
0000
0000
0011
0000
0000
0000
0100
0000
0000
0000
0020
0000
0000
0000
0030
0001
0010
0100
1000
0000
0000
0000
0100
0000
0000
0000
,  // measure 68
0010
0000
0001
0000
0010
0000
0100
0000
1000
0100
0010
0000
0000
0000
0000
0000
,  // measure 69
0000
1000
0000
0000
0010
0100
0000
0001
0010
0000
1000
0000
0100
0000
0010
0000
,  // measure 70
0100
0000
0010
0000
0001
0000
0010
0000
0110
0000
0000
1000
0100
0000
0010
0000
,  // measure 71
0100
0000
0000
0000
1000
0000
0000
0000
1000
0000
0000
0000
0010
0000
0000
0000
0100
0000
0000
0000
0000
0000
1000
0100
0010
0000
0000
0000
0001
0000
0000
0000
,  // measure 72
0010
0100
1000
0100
0010
0001
0010
0100
1000
0010
0010
0010
0010
0010
0010
0000
,  // measure 73
1100
0010
0011
0200
2300
0000
3200
0000
,  // measure 74
0300
2000
3002
0203
0320
2030
3002
0023
,  // measure 75
0030
1000
0100
0010
0002
0000
0013
0000
,  // measure 76
0200
0320
0230
0300
0002
0023
0032
0003
,  // measure 77
0000
1100
0110
0011
0200
0000
0320
0000
,  // measure 78
0030
1000
0200
0302
0203
0302
0023
0032
,  // measure 79
0003
0001
1000
0001
0200
0000
0320
0000
,  // measure 80
0130
0001
0100
0000
0001
1000
0001
0000
,  // measure 81
0000
0100
1000
0100
0020
0000
0230
0000
,  // measure 82
0300
0020
2030
3002
0203
0302
0023
0032
,  // measure 83
0003
1000
0001
0100
0002
0000
0023
0000
,  // measure 84
0030
0001
0100
1000
0002
0203
0302
0203
,  // measure 85
0300
0100
1000
0001
0200
0000
0320
0000
,  // measure 86
0030
0100
0001
1000
0001
0100
0001
0010
,  // measure 87
0000
0100
1000
0001
0200
0000
0320
0000
,  // measure 88
0030
0101
0101
0000
0000
0000
0000
0000
,  // measure 89
1000
0100
0010
0001
0010
0100
1000
0100
0010
0001
0010
0100
1000
0100
0010
0100
,  // measure 90
1000
0100
0010
0001
0010
0100
0010
0001
0010
0100
1000
0100
1000
0100
0010
0001
,  // measure 91
0010
0001
0010
0100
1000
0100
0010
0001
0010
1000
0001
0100
0010
1000
0001
0100
,  // measure 92
0010
1000
0001
0100
0010
1000
0100
0001
0100
0010
1000
0001
0100
0010
0001
0010
,  // measure 93
0100
1000
0100
0010
0001
0010
0001
0010
0100
1000
0100
0010
0001
1000
0010
1000
,  // measure 94
0001
0100
0010
1000
0001
0100
0010
1000
0001
0100
0010
0100
0010
0001
0010
0100
,  // measure 95
1000
0100
0010
0001
0010
0100
1000
0100
0010
0001
0010
0100
1000
0100
0010
0100
,  // measure 96
1000
0100
0010
0001
0010
0100
1000
0100
0010
0001
0010
0100
1000
0100
0010
0001
,  // measure 97
0010
0001
1100
0000
2000
0000
3020
0000
0230
0000
2300
0000
3020
0000
0032
0000
,  // measure 98
0023
0230
2300
3200
0320
0032
0023
0032
,  // measure 99
0203
2300
3020
0230
0302
2003
3200
0320
,  // measure 100
2030
3002
0203
0320
2030
3002
0203
0320
,  // measure 101
2030
3002
0203
0320
2030
3200
0320
0032
,  // measure 102
0023
0230
2300
3200
0320
0032
0023
0230
,  // measure 103
2300
3200
0320
0230
2300
3200
0320
0032
,  // measure 104
0023
0000
0230
2300
3020
0000
0032
0000
0023
0000
0230
0000
2300
0000
3002
0023
,  // measure 105
0032
0003
0010
0000
0110
0000
1000
0000
0110
0000
0001
0000
0110
0000
1000
0000
,  // measure 106
0110
1000
0101
1000
0110
1000
0101
1000
,  // measure 107
0110
1000
0101
0010
1100
0010
0101
0010
,  // measure 108
1100
0010
0101
1000
0110
0010
1100
0001
,  // measure 109
0110
1000
0110
0001
0110
0001
0110
1000
,  // measure 110
0110
1000
0110
0001
0110
1000
0110
1000
,  // measure 111
0110
0010
0110
1000
0110
0001
0110
1000
,  // measure 112
0110
0000
1000
0000
0110
0000
0010
0000
1100
0000
0001
0000
1001
0000
0010
0001
,  // measure 113
0010
0100
0000
0000
1001
0000
0100
0000
0100
0000
0100
0000
1001
0000
0100
0000
,  // measure 114
0100
0100
1001
0100
0100
0100
1001
0100
,  // measure 115
0100
0100
1001
0100
0100
0100
1000
0100
,  // measure 116
0100
0100
1001
0100
0100
0100
1000
0100
,  // measure 117
0100
0100
1001
0100
0100
0100
1000
0100
,  // measure 118
0100
0100
1001
0100
0100
0100
1001
0100
,  // measure 119
0100
0100
1001
0100
0100
0100
0011
0100
,  // measure 120
0100
0100
0011
0100
0100
0100
1001
0100
,  // measure 121
1001
0000
0100
0010
1000
0010
1000
0010
1000
0010
1000
0010
0100
0000
0100
0000
,  // measure 122
0100
0000
0010
0100
0010
0100
0010
0100
0010
0100
0010
0100
0010
0000
0010
0000
,  // measure 123
0010
0000
0010
0100
1000
0100
1000
0100
1000
0100
1000
0100
1000
0000
1000
0000
,  // measure 124
1000
0000
0100
1000
0100
0000
0100
0010
0100
0010
0100
0010
0100
0010
0100
0000
,  // measure 125
0100
0000
0100
0010
0100
0000
1000
0100
1000
0100
1000
0100
1000
0100
1000
0000
,  // measure 126
1000
0000
1000
0100
1000
0000
0010
0100
0010
0100
0010
0100
0010
0100
0010
0000
,  // measure 127
0010
0000
0010
0100
0010
0000
0001
0010
0001
0010
0001
0100
0001
0010
0001
0010
,  // measure 128
0001
0000
0010
0000
0001
0000
0010
0000
0001
0000
0010
0000
0001
0000
0010
0000
0001
0000
0010
0000
0001
0000
0010
0000
0001
0000
0000
0010
0000
0000
0001
0000
0000
0100
0000
0000
1001
0000
0000
0000
0000
0000
0220
0000
0000
0000
0000
0000
,  // measure 129
0000
0000
0000
0000
,  // measure 130
0000
0000
0000
0000
,  // measure 131
0000
0000
0330
0000
;

//---------------dance-single - ----------------
#NOTES:
     dance-single:
     :
     Easy:
     8:
     0.692,0.640,0.017,0.000,0.092,867.000,3.000,0.000,0.000,0.000:  // measure 1
0100
0000
0010
0100
0000
0100
0010
0100
,  // measure 2
0100
0000
0010
0100
0000
0100
0001
1000
,  // measure 3
0100
0000
0010
0100
0000
0100
0010
0100
,  // measure 4
0100
0000
0010
0100
0000
0100
1000
0001
,  // measure 5
0010
0000
0000
0000
0100
0000
0000
0000
1000
0000
0000
0001
0010
0000
0001
0000
,  // measure 6
1000
0000
0100
0000
1000
0000
0010
0100
,  // measure 7
0001
0000
0000
0000
1000
0000
0000
0000
0100
0000
0000
1000
0010
0000
1000
0000
,  // measure 8
0001
0000
0010
0000
0100
0000
1000
0100
,  // measure 9
1000
0000
0000
0100
0000
0000
0010
0000
0000
0001
0000
0000
0100
0000
0010
0000
,  // measure 10
1000
0000
0000
0001
0000
0000
0010
0000
0000
0100
0000
0000
1000
0000
0010
0000
,  // measure 11
0100
0000
0000
0001
0000
0000
0010
0000
0000
0100
0000
0000
1000
0000
0010
0000
,  // measure 12
0100
0000
0000
0001
0000
0000
1000
0000
0000
0100
0000
0000
0010
0000
0001
0000
,  // measure 13
1000
0000
0000
0010
0000
0000
0100
0000
0000
0010
0000
0000
1000
0000
0100
0000
,  // measure 14
0010
0000
0000
0001
0000
0000
0100
0000
0000
0001
0000
0000
0010
0000
0001
0000
,  // measure 15
1000
0000
0000
0001
0000
0000
1000
0000
0000
0001
0000
0000
1000
0000
0001
0000
,  // measure 16
0100
0000
0000
0010
0000
0000
0100
0000
0000
0010
0000
0000
1000
0000
0100
0000
,  // measure 17
1000
0001
0010
0001
0000
1000
0010
1000
,  // measure 18
0000
0001
0100
0001
0000
1000
0100
1000
,  // measure 19
0000
0100
0010
0001
0000
0100
0010
1000
,  // measure 20
0000
0010
0100
0001
0000
0010
0100
1000
,  // measure 21
0001
0100
0010
0100
1000
0100
0010
0100
,  // measure 22
0001
0010
0100
0010
1000
0010
0100
0010
,  // measure 23
0001
0100
0010
1000
0100
0010
0001
1000
,  // measure 24
0010
0100
0001
0010
0100
1000
0001
0100
,  // measure 25
0010
1000
0100
1000
0010
1000
0100
1000
,  // measure 26
0001
0100
0010
0100
0001
0100
1000
0100
,  // measure 27
0001
0010
0100
1000
0001
0010
0100
1000
,  // measure 28
0010
0100
0001
1000
0100
0001
0100
0010
,  // measure 29
0001
1000
0010
0100
0001
1000
0010
0100
,  // measure 30
0001
1000
0100
1000
0010
0100
1000
0100
,  // measure 31
0001
0010
0001
1000
0010
1000
0100
0010
,  // measure 32
0001
0000
0010
0000
0001
0000
0100
0000
0010
0000
1000
0000
0100
0000
0000
1000
,  // measure 33
0001
1000
0100
1000
0000
0001
0100
0001
,  // measure 34
0000
1000
0010
1000
0000
0001
0010
0001
,  // measure 35
0000
0010
0100
1000
0000
0010
0100
0001
,  // measure 36
0000
0100
0010
1000
0000
0100
0010
0001
,  // measure 37
1000
0010
0100
0010
0001
0010
0100
0010
,  // measure 38
1000
0100
0010
0100
0001
0100
0010
0100
,  // measure 39
1000
0010
0100
0001
0010
0100
1000
0001
,  // measure 40
0100
0010
1000
0100
0010
0001
1000
0010
,  // measure 41
0000
1000
1000
0010
1000
0000
0001
0000
,  // measure 42
0000
0100
0100
0001
0100
0001
0100
0001
,  // measure 43
0000
1000
1000
0001
0100
0000
0010
0000
,  // measure 44
1000
0010
0100
0000
0001
0010
0100
0000
,  // measure 45
0000
0010
0010
0001
0010
0000
0100
0000
,  // measure 46
0000
1000
1000
0100
1000
0100
1000
0100
,  // measure 47
0000
1000
1000
0001
0100
0000
0001
0000
,  // measure 48
1000
0010
0100
0000
0001
0010
0100
0000
,  // measure 49
0000
0010
0010
0001
0010
0000
0100
0000
,  // measure 50
0000
0100
0100
1000
0100
1000
0100
1000
,  // measure 51
0000
0001
0001
0010
0001
0000
1000
0000
,  // measure 52
0000
0100
0100
0010
0100
0010
0100
0010
,  // measure 53
0000
0001
0001
0010
0001
0000
1000
0000
,  // measure 54
0000
0100
0100
1000
0100
1000
0100
1000
,  // measure 55
0000
0001
0001
0100
0001
0000
0100
0000
,  // measure 56
0000
0001
0100
0000
0000
0000
0000
0000
,  // measure 57
0001
1000
1000
0010
1000
0100
1000
0010
,  // measure 58
1000
0001
0001
0010
0001
0100
0001
0010
,  // measure 59
0001
1000
1000
0100
0001
0100
1000
0100
,  // measure 60
1000
0001
0001
0010
1000
0010
0001
0010
,  // measure 61
0001
0100
1000
0100
0001
0010
1000
0010
,  // measure 62
0001
1000
0100
1000
0001
1000
0010
1000
,  // measure 63
0100
0001
0100
0010
0001
1000
0010
0100
,  // measure 64
0001
0010
0100
1000
0010
0100
0001
0010
,  // measure 65
0001
0000
0000
0001
1000
0000
0010
0000
1000
0000
0001
0000
0100
0000
1000
0000
,  // measure 66
0100
0000
0010
0000
0000
0000
1000
0000
0001
0000
0000
0010
0100
0000
1000
0000
,  // measure 67
0001
0000
1000
0000
0000
0000
0001
0000
0010
0000
0000
0001
1000
0000
0001
0000
,  // measure 68
1000
1000
0001
1000
0001
0001
0000
0000
,  // measure 69
1000
0000
0000
1000
0010
0000
0100
0000
0001
0000
0010
0000
0100
0000
1000
0000
,  // measure 70
0001
0000
0100
0000
0000
0000
0010
0000
1000
0000
0000
0001
1000
0000
0100
0000
,  // measure 71
0010
0000
0001
0000
0000
0000
1000
0000
0010
0000
0000
0100
0001
0000
1000
0000
,  // measure 72
0100
1000
0001
0100
0000
0000
0000
0000
,  // measure 73
0000
0001
0001
0010
0001
0000
1000
0000
,  // measure 74
0000
0100
0100
1000
0100
1000
0100
1000
,  // measure 75
0000
0001
0001
0010
0100
0000
1000
0000
,  // measure 76
0001
0010
1000
0000
1000
0010
0001
0000
,  // measure 77
0000
0100
0100
0010
0100
0000
0001
0000
,  // measure 78
0000
1000
1000
0001
1000
0100
1000
0001
,  // measure 79
0000
1000
1000
0010
0100
0000
0001
0000
,  // measure 80
0010
0001
0100
0000
0001
0010
0100
0000
,  // measure 81
0000
0001
0001
0010
0001
0000
1000
0000
,  // measure 82
0000
0100
0100
1000
0001
1000
0100
1000
,  // measure 83
0000
0001
0001
0010
0001
0000
1000
0000
,  // measure 84
0000
0100
0100
1000
0010
0100
0001
1000
,  // measure 85
0000
1000
1000
0010
1000
0000
0001
0000
,  // measure 86
0000
0100
0100
0001
1000
0001
0100
0001
,  // measure 87
0000
0010
0010
0100
0010
0000
0100
0000
,  // measure 88
0000
0010
0100
0000
0000
0000
0000
0000
,  // measure 89
0010
1000
0100
1000
0000
0001
0100
0001
,  // measure 90
0010
0001
0100
0001
0000
1000
0001
1000
,  // measure 91
0010
1000
0001
1000
0000
0001
1000
0001
,  // measure 92
0010
0001
0100
0001
0000
0001
0100
0010
,  // measure 93
1000
0100
0010
0001
0010
0100
1000
0001
,  // measure 94
0100
1000
0100
0010
1000
0001
0010
0100
,  // measure 95
1000
0100
0010
0001
1000
0010
1000
0100
,  // measure 96
1000
0001
0100
0010
1000
0010
0100
0001
,  // measure 97
0011
0010
0001
1000
0001
0010
0001
1000
,  // measure 98
0100
1000
0001
0100
0001
1000
0100
1000
,  // measure 99
0001
0010
0100
0010
0001
0100
1000
0100
,  // measure 100
0001
0010
0100
1000
0100
0010
0001
0100
,  // measure 101
0010
1000
0100
1000
0010
1000
0100
1000
,  // measure 102
0001
0100
1000
0100
0010
1000
0100
1000
,  // measure 103
0001
0010
0100
1000
0001
0100
0001
1000
,  // measure 104
0001
0001
0100
0010
1000
0100
0010
0000
,  // measure 105
0001
0001
0010
0100
1000
1000
0010
0100
,  // measure 106
0001
1000
0001
0100
0010
1000
0100
1000
,  // measure 107
0100
0100
0010
0001
0100
0100
0001
1000
,  // measure 108
0010
1000
0100
0010
0001
1000
0010
0100
,  // measure 109
0010
0010
1000
0100
1000
1000
0001
0100
,  // measure 110
0001
0010
0100
1000
0100
0010
0001
0100
,  // measure 111
0001
0001
1000
0100
1000
1000
0001
0100
,  // measure 112
0010
0010
1000
0100
0010
0001
0100
0000
,  // measure 113
1001
1000
0100
1000
0001
1000
0100
1000
,  // measure 114
0001
1000
0010
1000
0001
1000
0010
1000
,  // measure 115
1000
0001
0100
0001
1000
0001
0100
0001
,  // measure 116
1000
0001
0010
0001
1000
0001
0010
0001
,  // measure 117
0100
0010
1000
0100
,  // measure 118
0010
0001
1000
0010
,  // measure 119
0100
0001
1000
0100
,  // measure 120
1000
0010
0100
0010
,  // measure 121
1000
0000
0000
1000
0010
0000
0100
0000
0010
0000
0100
0000
0010
0000
0100
0000
,  // measure 122
0001
0000
0000
0001
0010
0000
0100
0000
0010
0000
0100
0000
0010
0000
0100
0000
,  // measure 123
1000
0000
0000
0001
0100
0000
0010
0000
0100
0000
0010
0000
0100
0000
0100
0000
,  // measure 124
0001
0000
0000
1000
0100
0000
0010
0000
0100
0000
0010
0000
0100
0000
0100
0000
,  // measure 125
1000
0000
0000
0001
0100
0000
0001
0000
0010
0000
0001
0000
0100
0000
0001
0000
,  // measure 126
0001
0000
0000
1000
0100
0000
1000
0000
0010
0000
1000
0000
0100
0000
1000
0000
,  // measure 127
0001
0000
0000
0001
0010
0000
0100
0000
1000
0000
0001
0000
0100
0000
0010
0000
,  // measure 128
1000
0001
1000
0000
0010
0000
0100
0000
0001
0000
0010
0000
0100
0000
1001
0000
;

//---------------dance-single - ----------------
#NOTES:
     dance-single:
     :
     Medium:
     11:
     0.981,1.000,0.295,0.000,0.676,1181.000,53.000,0.000,0.000,0.000:  // measure 1
0100
0000
0010
0100
0000
0100
0010
0100
,  // measure 2
0100
0000
0000
0000
0010
0000
0100
0000
0000
0000
0100
0000
0001
0000
1000
0100
,  // measure 3
1000
0000
0010
1000
0000
1000
0010
1000
,  // measure 4
1000
0000
0000
0000
0010
0000
1000
0000
0000
0000
1000
0000
0001
0000
1000
0100
,  // measure 5
0010
0000
0000
0000
0100
0000
0000
0000
1000
0000
0000
1000
0010
0000
1000
0000
,  // measure 6
0001
0000
0100
0000
1000
0000
0100
0001
,  // measure 7
0010
0000
0000
0000
0100
0000
0000
0000
0010
0000
0000
0010
0001
0000
1000
0000
,  // measure 8
0100
0000
1000
0000
0001
0000
0010
0100
,  // measure 9
1000
0000
0000
1000
0100
0000
0010
0000
0000
0010
0001
0000
0100
0000
0010
0000
,  // measure 10
1000
0000
0000
1000
0001
0000
0010
0000
0000
0010
0100
0000
1000
0000
0001
0000
,  // measure 11
1000
0000
0000
1000
0010
0000
0100
0000
0000
0100
0001
0000
0010
0000
0001
0000
,  // measure 12
1000
0000
0000
0010
0100
0000
0001
0000
0000
0010
0100
0000
1000
0000
0001
0000
,  // measure 13
1000
0100
0010
0001
0100
0010
1000
0100
,  // measure 14
0010
0001
1000
0010
0100
0001
0010
0100
,  // measure 15
1000
0100
1000
0000
0010
0000
0100
0000
0001
0010
0001
0000
0100
0000
0010
0000
,  // measure 16
1000
0100
0010
0001
1000
0100
0010
0001
1000
0010
0100
0001
1000
0010
0100
0001
,  // measure 17
0010
0000
0001
0100
0001
0000
1000
0000
0100
0000
0010
0100
0010
0000
0001
0000
,  // measure 18
1000
0000
0010
1000
0010
0000
0100
0000
0001
0000
1000
0001
1000
0000
0100
0000
,  // measure 19
0010
0000
0001
0100
0001
0000
1000
0000
0100
0000
1000
0100
1000
0000
0010
0000
,  // measure 20
0100
0000
0010
0100
0001
0000
1000
0000
0001
0000
0010
0100
1000
0000
0001
0000
,  // measure 21
1000
0000
0001
0100
0001
0100
0010
0000
0100
0000
0001
0010
0001
0010
0001
0000
,  // measure 22
1000
0000
0100
1000
0100
1000
0100
0000
1000
0000
0010
0100
0001
1000
0001
0000
,  // measure 23
1000
0000
0100
0010
0001
1000
0100
0000
1000
0000
0001
1000
0010
0100
0001
0000
,  // measure 24
0010
0000
0001
0010
0100
1000
0100
0000
1000
0000
0010
1000
0001
0010
0100
1000
,  // measure 25
0001
0010
0100
1000
0001
0010
0100
1000
,  // measure 26
0100
0000
0010
0000
0001
0000
0100
0000
0010
0000
1000
0000
0100
0000
0010
0001
,  // measure 27
0010
0001
1000
0010
0100
0001
0010
1000
,  // measure 28
0010
0000
0001
0000
1000
0000
0010
0100
0001
0000
0010
0000
0100
0000
1000
0001
,  // measure 29
1000
0010
0100
0001
1000
0100
0010
0100
,  // measure 30
1000
0000
0010
0000
0100
0000
0001
0000
0010
0000
0001
0000
1000
0000
0001
0100
,  // measure 31
0001
1000
0010
0100
0001
1000
0010
0100
,  // measure 32
0010
0000
1000
0010
0100
0000
0001
0000
0010
0000
0001
0010
0001
1000
0010
1000
,  // measure 33
0100
0000
1000
0100
1000
0000
0010
0000
0100
0000
0001
1000
0001
0000
0010
0000
,  // measure 34
0100
0000
1000
0100
1000
0000
0001
0000
0010
0000
0001
1000
0001
0000
0100
0000
,  // measure 35
0001
0000
1000
0100
1000
0000
0010
0000
0100
0000
0001
0010
0001
0000
1000
0000
,  // measure 36
0010
0000
1000
0100
1000
0000
0001
0000
0100
0000
0010
0001
0010
0000
1000
0000
,  // measure 37
0001
0000
0010
0100
1000
0100
1000
0000
0001
0000
1000
0010
0100
0010
0100
0000
,  // measure 38
0001
0000
1000
0100
1000
0100
1000
0000
0010
0000
1000
0001
0100
0010
0100
0000
,  // measure 39
0001
0001
0100
0100
0010
0010
1000
1000
,  // measure 40
0001
0000
1000
0010
0100
0001
0000
1000
0001
0100
0010
1000
0001
0100
0010
1000
,  // measure 41
0001
1000
1000
0010
1000
0000
0100
0000
,  // measure 42
1000
0001
0001
0010
0001
0010
0100
1000
,  // measure 43
0001
1000
1000
0001
0100
0000
0001
0000
,  // measure 44
1000
0010
0100
0000
0001
0010
0100
0000
,  // measure 45
1000
0001
0001
0010
0001
0000
0100
0000
,  // measure 46
0001
1000
1000
0100
0001
0100
1000
0100
,  // measure 47
1000
0001
0001
0010
0100
0000
1000
0000
,  // measure 48
0001
0010
1000
0000
1000
0010
0001
0000
,  // measure 49
1000
0010
0110
0100
0001
0000
1001
0000
,  // measure 50
0001
0010
0110
0100
1000
0001
1001
1000
,  // measure 51
0001
0100
0110
0010
1000
0000
1001
0000
,  // measure 52
0001
0010
0110
0100
1000
0001
1001
1000
,  // measure 53
0010
0100
0101
0001
0010
0000
1100
0000
,  // measure 54
1000
0001
0101
0100
0010
1000
1100
0100
,  // measure 55
0010
0001
1001
0010
0100
0000
0110
0000
,  // measure 56
0010
0000
0100
0000
1001
0000
0000
0000
0100
0010
1000
0001
0100
0010
1000
0001
,  // measure 57
1000
0000
0001
0100
0001
0000
1000
0000
0001
0000
0100
0000
0001
0000
1000
0000
,  // measure 58
0010
0000
1000
0010
1000
0000
0010
0000
0001
0000
0010
0000
0100
0000
0010
0000
,  // measure 59
1000
0000
1000
0100
1000
0000
0100
0000
0001
0000
0100
0000
1000
0000
0100
0000
,  // measure 60
0010
0000
0010
0001
0010
0000
0001
0000
1000
0000
0100
0000
1000
0000
0010
0000
,  // measure 61
0100
0000
0001
0100
0010
1000
0001
0000
0001
0000
1000
0100
0010
0001
1000
0000
,  // measure 62
0010
0000
1000
0010
0100
0001
0010
0000
0010
0000
0001
0010
0100
1000
0010
0000
,  // measure 63
1000
0010
0100
0010
1000
0010
0100
0010
0001
0010
0100
0010
1000
0001
0010
0100
,  // measure 64
1000
0001
0100
0010
1000
0001
0100
0010
1000
0001
0010
0100
1000
0100
0010
0001
,  // measure 65
1000
0000
0000
1000
1000
0000
0010
0000
1000
0000
0001
0000
0100
0000
0001
0000
,  // measure 66
1000
0000
0001
0000
0000
0000
0010
0000
0001
0000
0000
1000
0100
0000
1000
0000
,  // measure 67
0001
0000
0010
0000
0000
0000
0100
0000
0010
0000
0000
0001
1000
0000
0001
0000
,  // measure 68
0100
0000
0001
1000
0010
0000
0100
0000
0001
1000
0010
0000
0000
0000
0000
0000
,  // measure 69
1000
0000
0000
1000
1010
0000
0010
0000
0100
0000
0001
0000
0011
0000
0010
0000
,  // measure 70
0001
0000
1000
0000
1010
0000
0010
0000
0100
0000
0000
0001
0101
0000
0001
0000
,  // measure 71
1000
0000
0010
0000
1010
0000
1000
0000
0001
0000
0000
0010
0011
0000
0001
0000
,  // measure 72
1000
0100
0010
0001
0010
0100
1000
0001
0100
0010
1000
0001
0010
0100
1000
0001
,  // measure 73
1000
0000
0010
1000
0010
0000
0100
0000
0001
0100
0001
0000
0010
0000
0100
0000
,  // measure 74
1000
0000
0001
0100
0001
0000
0010
0000
0100
1000
0100
0000
1000
0000
0010
0000
,  // measure 75
0100
0000
0001
0010
0001
0000
0010
0000
0100
1000
0100
0000
1000
0000
0001
0000
,  // measure 76
1000
0000
0010
1000
0100
0000
0010
0000
0001
0010
0100
0000
1000
0000
0001
0000
,  // measure 77
1000
0000
0010
0100
0001
0000
0010
0000
0001
0010
0100
0000
1000
0000
0001
0000
,  // measure 78
1000
0000
0010
1000
0100
0000
0010
0000
0001
0010
0100
0000
1000
0000
0001
0000
,  // measure 79
0100
0000
0010
1000
0001
0000
0010
0000
0001
1000
0100
0000
0010
0000
0001
0000
,  // measure 80
0100
0000
0010
1000
0001
0000
0010
0000
0001
0010
0100
0000
1000
0000
0001
0000
,  // measure 81
0100
0010
1010
1000
0001
0000
0011
0000
,  // measure 82
0010
0100
1100
0100
1000
0001
0101
0100
,  // measure 83
0010
1000
1010
0100
0010
0000
0011
0000
,  // measure 84
0001
1000
1100
0100
1000
0001
0101
0100
,  // measure 85
0010
1000
1001
0100
0010
0000
1001
0000
,  // measure 86
0010
0001
0011
0010
0100
1000
1100
1000
,  // measure 87
0010
0100
1001
0100
0010
0000
1001
0000
,  // measure 88
0010
0000
0010
0000
1001
0000
0001
1000
0001
0100
0010
1000
0001
0100
0010
1000
,  // measure 89
0001
0000
1000
0100
1000
0100
0010
0000
0001
0000
1000
0010
1000
0010
0100
0000
,  // measure 90
0001
0000
0100
0010
1000
0010
1000
0000
0001
0000
0010
0100
0010
0100
1000
0000
,  // measure 91
0100
0000
0010
0001
1000
0010
0100
0000
0010
0000
0100
0001
1000
0100
0010
0000
,  // measure 92
0001
0000
0010
0001
1000
0010
1000
0000
0100
0000
1000
0010
1000
0001
0010
0000
,  // measure 93
0001
0000
0010
0100
1000
0100
0010
0000
0001
0000
1000
0010
0100
0001
0100
0000
,  // measure 94
0001
0000
0010
0100
1000
0100
1000
0000
0001
0000
1000
0001
0100
0010
0100
0000
,  // measure 95
0010
0000
0100
0010
1000
0001
1000
0000
0001
0000
0010
0100
1000
0100
1000
0000
,  // measure 96
0001
0010
0100
1000
0001
0010
0100
1000
0001
0100
0010
1000
0001
0100
0010
1000
,  // measure 97
0001
0010
0001
1000
0001
0010
0001
1000
,  // measure 98
0100
0010
0001
0100
0010
1000
0100
1000
,  // measure 99
0001
0010
0001
1000
0001
0100
0001
1000
,  // measure 100
0010
1000
0100
1000
0001
0010
0100
1000
,  // measure 101
0001
0010
0100
0010
0001
0010
0100
1000
,  // measure 102
0100
0010
0001
0100
0010
1000
0100
1000
,  // measure 103
0001
0010
0001
0100
1000
0100
0001
1000
,  // measure 104
0001
0000
0010
0001
1000
0000
0001
0000
1000
0001
0100
0010
1000
0001
0100
0010
,  // measure 105
1000
0010
0110
0010
0100
0001
0101
0001
,  // measure 106
0010
0000
0100
0000
0110
0000
0010
0000
0100
0000
1000
0000
1100
0000
1000
0001
,  // measure 107
0100
0010
0110
0010
1000
0001
1001
0001
,  // measure 108
0010
0000
0001
0000
0011
0000
0001
1000
0100
0000
1000
0000
1100
0000
1000
0001
,  // measure 109
1000
0010
1010
1000
0010
0100
0101
1000
,  // measure 110
0001
0000
1000
0000
1001
0000
0010
0000
0100
0000
0010
0000
1100
0000
1000
0100
,  // measure 111
0010
0001
0011
0001
1000
0010
0101
0100
,  // measure 112
0001
0000
0010
0100
0110
0000
1000
0000
0001
0000
0100
0000
0101
0000
0010
1000
,  // measure 113
0100
0000
1000
0100
0010
0001
1000
0010
0100
0000
0001
0100
0010
1000
0001
0010
,  // measure 114
0100
0000
1000
0001
0100
0001
0010
0100
1000
0000
0001
1000
0100
1000
0010
0100
,  // measure 115
0001
0000
0010
0100
1000
0010
0100
0001
0100
0000
0010
0100
0001
0010
0100
1000
,  // measure 116
0100
0000
1000
0001
0010
0100
1000
0001
0100
0000
0010
0100
0001
0010
0100
1000
,  // measure 117
0001
0100
0010
1000
,  // measure 118
0001
0000
0010
0000
0100
0000
1000
0100
,  // measure 119
1000
0100
0010
0001
,  // measure 120
1000
0000
0010
0000
0100
0000
0001
0100
,  // measure 121
0001
0000
0000
1000
0010
0000
1000
0010
0100
0001
0010
0000
0001
0000
1000
0000
,  // measure 122
0001
0000
0000
0001
0010
0000
0001
0010
0100
1000
0010
0000
1000
0000
0001
0000
,  // measure 123
0100
0000
0000
0010
0100
0000
0001
0010
0100
1000
0100
0000
1000
0000
0001
0000
,  // measure 124
1000
0000
0000
0100
0010
0000
0001
0010
0001
1000
0100
0000
1000
0000
0010
0000
,  // measure 125
0100
0000
0001
0010
0001
0000
1000
0010
0100
0001
0010
0000
0001
0000
1000
0000
,  // measure 126
0100
0000
1000
0001
0010
0000
0001
0010
0100
1000
0010
0000
1000
0000
0001
0000
,  // measure 127
0100
0000
0001
0100
0010
0000
1000
0010
0100
0001
0010
0000
0001
0000
1000
0000
,  // measure 128
0001
0010
0001
0010
0001
0010
0001
0010
0001
0000
0010
0000
0100
0000
1001
0000
;

//---------------dance-single - ----------------
#NOTES:
     dance-single:
     :
     Challenge:
     11:
     1.000,1.000,1.000,0.000,1.000,1412.000,243.000,0.000,0.000,0.000:  // measure 1
0100
0000
1010
0100
0000
0100
1010
0100
,  // measure 2
0100
0000
0000
0000
0011
0000
0100
0000
0000
0000
0100
0000
1001
0000
0100
0100
,  // measure 3
0001
0000
0011
0100
0000
0100
0011
0100
,  // measure 4
0100
0000
0000
0000
1010
0000
0100
0000
0000
0000
0100
0000
1001
0000
0100
0100
,  // measure 5
0010
0000
0000
0000
1001
0000
1000
0001
0100
0010
1000
0000
1001
0000
0010
0100
,  // measure 6
0001
0000
0000
0000
1001
0000
0001
0010
0100
1000
0001
0000
1001
0000
0010
0010
,  // measure 7
0100
0000
0000
0000
1001
0000
1000
0100
0010
0001
0100
0000
1001
0000
0010
1000
,  // measure 8
0001
0000
0000
0000
1001
0000
0001
0100
0010
1000
0100
0000
1001
0000
0010
0010
,  // measure 9
1100
0000
0000
0110
0000
0000
0011
0000
0000
0101
0000
0000
0110
0000
1001
0000
,  // measure 10
0011
0000
0000
0110
0000
0000
1100
0000
0000
0101
0000
0000
1010
0000
1001
0000
,  // measure 11
0101
0000
0000
1010
0000
0000
1100
0000
0000
0011
0000
0000
1001
0000
0101
0000
,  // measure 12
0011
0000
0000
1100
0000
0000
1010
0000
0000
0101
0000
0000
0110
0000
1001
0000
,  // measure 13
1000
0100
0010
0001
0100
0010
1000
0100
0010
0001
1000
0010
0100
0001
0010
0100
,  // measure 14
1000
0001
1000
0100
1000
0001
0010
0100
1000
0001
0100
0010
1000
0001
0010
0100
,  // measure 15
1000
0100
0010
0001
1000
0010
0100
0001
0010
0100
1000
0010
0100
0001
0010
0100
,  // measure 16
1000
0000
0100
0000
0010
0000
0001
0000
1000
0000
0010
0000
0100
0000
0001
0000
1000
0100
1000
0000
0001
0100
0001
0000
1000
0010
1000
0000
0001
0010
0001
0000
,  // measure 17
1000
0000
0001
0100
0010
1000
0001
0100
0010
0000
1000
0100
0010
0001
1000
0100
,  // measure 18
0010
0000
0001
1000
0010
0100
0001
1000
0100
0000
1000
0100
0010
0001
1000
0010
,  // measure 19
0100
0000
0010
0100
0001
0010
0001
1000
0100
0000
0100
0010
0001
1000
0010
0100
,  // measure 20
0001
0000
0100
0001
0010
0100
1000
0001
0100
0000
0001
0100
0001
0010
0100
1000
,  // measure 21
0001
0000
1000
0010
0100
0001
1000
0100
0010
0000
0001
0100
0010
1000
0001
0010
,  // measure 22
0100
0000
1000
0001
0100
0010
1000
0001
0010
0000
0100
1000
0010
0100
0010
1000
,  // measure 23
0001
0000
0010
0001
1000
0010
0100
0001
1000
0000
0100
0010
0001
1000
0010
0100
,  // measure 24
0001
0000
0000
0000
1000
0000
0010
0000
0100
0000
0001
0000
0010
0000
0100
0000
1000
0000
0000
0000
0001
0000
0010
0000
0100
1000
0001
0000
0010
0001
1000
0000
,  // measure 25
1001
0010
1010
1000
0101
0010
1100
0100
,  // measure 26
1001
0000
0010
0000
0101
0000
0100
0000
1010
0000
0001
0000
1100
0000
1000
0010
,  // measure 27
0110
0100
1100
1000
0011
1000
0110
0100
,  // measure 28
0011
0000
0010
0000
0101
0000
1000
0100
0110
0000
0011
0000
0101
0000
0100
0001
,  // measure 29
1001
1000
1100
0100
0110
0010
0011
0001
,  // measure 30
1100
0000
1000
0000
0011
0000
0010
0000
0101
0000
0001
0000
1001
0000
1000
0001
,  // measure 31
0011
0001
1100
1000
1010
0010
0101
0100
,  // measure 32
1001
0000
0010
1000
0101
0000
0100
0000
0011
0000
0010
0100
1100
0000
0010
0100
,  // measure 33
1001
0000
0001
1000
0010
1000
0100
0010
0001
0000
1000
0100
0010
0001
1000
0010
,  // measure 34
0100
0000
0010
1000
0001
1000
0010
0100
0001
0000
0010
0100
1000
0100
0010
0001
,  // measure 35
0100
0000
0010
0100
0001
1000
0010
1000
0100
0000
1000
0100
0010
0001
1000
0100
,  // measure 36
1000
0000
0001
0010
0100
1000
0010
0100
0001
0000
0010
0100
0010
0001
0010
0100
,  // measure 37
1000
0000
0010
0100
0010
1000
0001
0010
0100
0000
1000
0001
0010
0100
1000
0001
,  // measure 38
1000
0000
0010
0100
0001
0010
0100
1000
0001
0000
1000
0010
0100
0001
1000
0010
,  // measure 39
1010
1001
1100
0110
0011
1001
0101
0110
,  // measure 40
1010
0000
0000
0000
0010
0000
1000
0000
0001
0000
0001
0000
0000
0000
1000
0000
0001
0000
0010
0000
0100
0000
1000
0000
0001
0010
0001
0000
1000
0100
1000
0000
,  // measure 41
1001
0001
1001
0010
1001
0000
0101
0000
,  // measure 42
1100
0100
1100
0010
0101
0010
1100
0010
,  // measure 43
0110
0010
1010
1000
1001
0000
0101
0000
,  // measure 44
0011
0010
1100
0000
0011
0010
1100
0000
,  // measure 45
1001
0010
0110
0010
1100
0000
0101
0000
,  // measure 46
1100
0100
1100
0010
0101
0010
1100
0010
,  // measure 47
1001
0010
1010
0010
0101
0000
1100
0000
,  // measure 48
1001
0010
1100
0000
1001
0010
1100
0000
,  // measure 49
1100
0100
0110
0010
0101
0000
0110
0000
,  // measure 50
1010
0010
0110
0010
0101
0010
0110
0010
,  // measure 51
1001
1000
0110
0001
0101
0000
0110
0000
,  // measure 52
0011
0001
0110
0100
1100
1000
0110
0010
,  // measure 53
0101
0001
0110
0010
1010
0000
0110
0000
,  // measure 54
1100
0100
0110
0010
1001
0001
0110
0010
,  // measure 55
1010
0001
0110
0010
1001
0000
0110
0000
,  // measure 56
1001
0000
0000
0000
0100
0000
0000
0000
0110
0000
0000
0000
0000
0000
0000
0000
0001
0000
0010
0000
0100
0000
1000
0000
0010
1000
0010
0000
0100
0001
0100
0000
,  // measure 57
0001
0000
1000
0100
0001
0100
1000
0100
0010
0100
1000
0100
0001
0100
1000
0100
,  // measure 58
0010
0000
0001
0010
0001
0010
1000
0010
0001
0010
0100
0010
0001
0010
1000
0010
,  // measure 59
0100
0000
1000
0100
0001
0100
0001
0100
0010
0100
0001
0100
1000
0100
0001
0100
,  // measure 60
0010
0000
0001
0010
0001
0010
1000
0010
0100
0010
1000
0010
0100
0010
0001
0010
,  // measure 61
0100
0000
1000
0001
0110
0001
1000
0010
0100
0000
0010
1000
0011
1000
0010
0100
,  // measure 62
0001
0000
0010
0001
1100
0001
0010
0100
1000
0000
0010
0100
1001
0100
0010
1000
,  // measure 63
0001
0100
1000
0100
0001
0010
1000
0010
0001
1000
0010
0100
0001
0010
0100
1000
,  // measure 64
0001
1000
0010
0100
0001
1000
0100
0010
1000
0010
0001
1000
0010
0100
0001
1000
,  // measure 65
0010
0000
0000
0010
0010
0000
0001
0000
0010
0000
1000
0000
0100
0000
0001
0000
,  // measure 66
0100
0000
1000
0000
0000
0000
0010
0000
0100
0000
0000
0001
1000
0000
0100
0000
,  // measure 67
1000
0000
0001
0000
0000
0000
0100
0000
0010
0000
0000
1000
0001
0000
0010
0000
,  // measure 68
0100
0000
1000
0001
0010
0000
0100
0000
1000
0001
0010
0000
0001
0000
0100
0000
,  // measure 69
0100
0000
0001
1000
1010
0000
0010
0000
0100
0000
0001
0000
0011
0000
0010
0000
,  // measure 70
0001
0000
1000
0000
1010
0000
0010
0000
0100
0000
0001
1000
1100
0000
0100
0000
,  // measure 71
1000
0000
0001
0000
0011
0000
0100
0000
0010
0000
0001
1000
1100
0000
0100
0000
,  // measure 72
1000
0100
0010
0001
1100
0001
1000
1000
0001
0100
0010
0100
1000
0100
0010
0100
,  // measure 73
1001
0000
0000
0100
0010
0000
1000
0010
1000
0100
0010
0000
0001
0000
1000
0000
,  // measure 74
1001
0000
0000
0100
0010
0000
1000
0010
1000
0100
0010
0000
0001
0000
1000
0000
,  // measure 75
1001
0000
0000
0100
0001
0000
1000
0100
0010
0001
1000
0000
0010
0000
0100
0000
,  // measure 76
1001
0000
0000
0100
0010
0000
1000
0001
0010
0100
1000
0000
0001
0000
1000
0000
,  // measure 77
1001
0000
0000
0010
0100
0000
0001
0010
0100
1000
0010
0000
0100
0000
0001
0000
,  // measure 78
1001
0000
0000
0100
0010
0000
1000
0001
0010
0100
1000
0000
0001
0000
0100
0000
,  // measure 79
1001
0000
0000
1000
0010
0000
0100
0001
1000
0001
0010
0000
0100
0000
0010
0000
,  // measure 80
1001
0000
0000
0010
0100
0000
1000
0100
0001
0100
1000
0000
0001
0000
0100
0000
,  // measure 81
0001
0000
0010
0000
0110
0000
0001
1000
0010
0100
0001
0000
0011
0000
0010
0000
,  // measure 82
0100
0000
1000
0000
1010
0000
0010
0100
0001
1000
0100
0000
0110
0000
0010
0000
,  // measure 83
0001
0000
1000
0000
1010
0000
0010
0100
0001
1000
0100
0000
0110
0000
0010
0000
,  // measure 84
0001
0000
1000
0000
1100
0000
0100
1000
0010
0100
0001
0000
0011
0000
0001
0000
,  // measure 85
0100
0000
0010
0000
0110
0000
0010
1000
0100
0010
0001
0000
0011
0000
0001
0000
,  // measure 86
1000
0000
0010
0000
0110
0000
0100
0001
1000
0100
1000
0000
1100
0000
0100
0000
,  // measure 87
0010
0000
0001
0000
0011
0000
0001
0010
0100
1000
0001
0000
1001
0000
0010
0000
,  // measure 88
0100
0000
0110
0000
1001
0000
1000
0001
0100
0010
1000
0100
0010
0001
1000
0100
,  // measure 89
0010
0000
0100
1000
0010
0100
0010
1000
0001
0000
1000
0100
0010
0100
1000
0001
,  // measure 90
0100
0000
0001
1000
0010
1000
0100
0010
0001
0000
0010
0001
0100
0001
0010
0100
,  // measure 91
1000
0000
0100
0010
0100
1000
0010
0100
0001
0000
0001
1000
0010
1000
0001
0010
,  // measure 92
0001
0000
0010
0100
1000
0001
0100
0010
1000
0000
0010
0100
0001
1000
0100
0010
,  // measure 93
0001
0000
0010
0001
0010
0100
1000
0001
0100
0000
0010
0100
0001
0010
0100
1000
,  // measure 94
0100
0000
1000
0001
0010
0100
1000
0001
0100
0000
0010
0100
0001
1000
0010
0100
,  // measure 95
0001
0000
1000
0001
0100
0010
0100
0001
1000
0000
0100
1000
0010
0100
0010
1000
,  // measure 96
0001
0000
0000
0000
0010
0000
0001
0000
1000
0000
0100
0000
0010
0000
0001
0000
1000
0000
0000
0000
0010
0000
1000
0000
0001
0100
0001
0000
1000
0100
1000
0000
,  // measure 97
1001
0010
0100
0010
1000
0010
0001
0010
1000
0010
0100
0010
1000
0010
0001
0010
,  // measure 98
0100
0001
0010
0100
0001
0100
1000
0100
0010
0100
1000
0100
1000
0001
0100
0001
,  // measure 99
1000
0010
0001
0010
0100
0001
0100
0010
1000
0100
1000
0001
0010
0100
1000
0010
,  // measure 100
1000
0001
0010
0100
1000
0010
0100
0001
1000
0100
0010
0100
1000
0010
0100
0001
,  // measure 101
1000
0100
0010
0100
0001
0100
0010
0100
1000
0100
0010
0100
0001
0100
0010
0001
,  // measure 102
1000
0010
0100
0010
0001
0010
1000
0001
0010
0001
0100
0001
1000
0100
1000
0001
,  // measure 103
0100
0001
0100
0010
1000
0001
1000
0100
0010
0100
1000
0100
1000
0001
0100
0001
,  // measure 104
0010
0000
0100
0000
1000
0000
0010
0000
1000
0000
0001
0000
0010
0000
0100
0000
1000
0000
0100
0000
0010
0000
0001
0000
1000
0010
1000
0000
0001
0100
0001
0000
,  // measure 105
1001
0011
1001
0101
1001
0011
1001
0101
,  // measure 106
1100
0011
1001
1100
0011
1001
1100
1010
,  // measure 107
1001
0011
1001
0101
1010
1100
0101
0011
,  // measure 108
1001
1010
1001
0101
0011
0110
1100
1001
,  // measure 109
0001
0010
0100
1000
0010
0100
0001
1000
0100
0010
0001
1000
0010
0100
0001
1000
,  // measure 110
0001
0100
0010
1000
0001
1000
0100
1000
0010
0100
0001
1000
0100
0010
0001
0100
,  // measure 111
1001
0011
0110
1100
1001
1010
0101
0011
,  // measure 112
1001
0000
0010
0100
0001
1000
0001
0001
0001
0000
0101
0000
1001
0000
0010
0100
,  // measure 113
1001
0000
0001
1000
0010
0100
0001
1000
0100
0000
1000
0100
0010
0001
1000
0001
,  // measure 114
0100
0000
0010
1000
0100
0010
0100
1000
0001
0000
0100
0010
1000
0100
0010
0001
,  // measure 115
1000
0000
0010
0100
0010
1000
0001
0010
0100
0000
1000
0100
0010
0100
1000
0001
,  // measure 116
0100
0000
0010
0100
0010
1000
0001
0010
0100
0000
1000
0001
0010
0001
0100
0001
,  // measure 117
1100
0110
0101
0011
,  // measure 118
1010
0000
1100
0000
0011
0000
0110
0100
,  // measure 119
1100
1010
0110
0101
,  // measure 120
0011
0000
1100
0000
1010
0000
1001
0100
,  // measure 121
1100
0000
0100
1000
0010
0000
1000
0010
1000
0010
1000
0000
0001
0000
0001
0000
,  // measure 122
0100
0000
0001
0010
0001
0000
1000
0010
1000
0010
1000
0000
1000
0000
1000
0000
,  // measure 123
0100
0000
1000
0100
0010
0000
0001
0010
0001
1000
0001
0000
0001
0000
0001
0000
,  // measure 124
0100
0000
0001
1000
0010
0000
1000
0010
1000
0100
1000
0000
1000
0000
1000
0000
,  // measure 125
0001
0000
0100
0001
0010
0000
0001
0010
0100
1000
0010
0000
0010
0000
0010
0000
,  // measure 126
1000
0000
0010
0100
0001
0000
1000
0001
0100
0001
0010
0000
0010
0000
0010
0000
,  // measure 127
0100
0000
1000
0001
0010
0000
0100
0000
0100
1000
0010
0000
1000
0000
0001
0000
,  // measure 128
0001
0010
0001
0010
0001
0010
0001
0010
0001
0000
0010
0000
0100
0000
1001
0000
;
