#TITLE:The Scorpion King;
#SUBTITLE:;
#ARTIST:Weapon X;
#TITLETRANSLIT:;
#SUBTITLETRANSLIT:;
#ARTISTTRANSLIT:;
#CREDIT:Rynker;
#BANNER:Bn-Scorpion.png;
#BACKGROUND:Bg-Scorpion.png;
#LYRICSPATH:;
#CDTITLE:;
#MUSIC:The Scorpion King (Weapon X remix) -  Angels of Darkness.ogg;
#OFFSET:-0.329;
#SAMPLESTART:55.695;
#SAMPLELENGTH:12.000;
#SELECTABLE:YES;
#BPMS:0.000=168.000;
#STOPS:;
#BGCHANGES:;
// cache tags:
#FIRSTBEAT:6.500;
#LASTBEAT:417.500;
#SONGFILENAME:Songs/SPEEEDCOOOORE/The Scorpion King - [Rynker]/The Scorpion King.sm;
#HASMUSIC:1;
#HASBANNER:1;
#MUSICLENGTH:155.333;
// end cache tags

//---------------dance-single - Rynker----------------
#NOTES:
     dance-single:
     Rynker:
     Challenge:
     11:
     0.908,1.000,0.431,0.406,0.583,857.000,67.000,63.000,162.000,0.000:

0000
0000
0000
0000
,
0000
0000
0000
0000
0000
0001
0000
0010
,
1002
0000
0000
0000
1003
0000
0000
0000
0001
0000
0000
0000
0001
0000
1000
0010
,
1000
0000
0001
0000
0001
0000
1000
0100
,
0110
0000
0010
0000
0001
0000
0000
0000
1000
0000
0000
0000
1000
0000
0001
0100
,
0001
0000
1000
0000
1000
0010
0000
0100
,
0002
0000
0000
0000
,
0000
0000
0000
0000
,
1003
0000
0100
0000
0020
0000
0000
0031
0100
0000
0000
0000
0010
0000
1000
0000
,
0010
0000
0100
0000
0002
0000
0000
1003
0100
0000
0000
0000
0010
0000
0100
0000
,
1000
0000
0001
0000
0200
0000
0000
0301
0010
0000
0000
0000
0001
0000
1000
0000
,
0100
0000
0010
0000
0200
0000
0000
1300
0001
0000
0001
0000
0100
0000
0100
0000
,
0010
0000
1000
0000
0200
0000
0000
0310
0001
0000
0000
0000
0010
0000
0100
0000
,
1000
0000
0001
0000
0200
0000
0000
0310
1000
0000
0000
0000
0100
0000
0010
0000
,
0001
0000
1000
0000
0002
0000
0000
0103
0010
0000
0000
0000
1000
0000
0001
0000
,
0010
0000
0100
0000
2000
0000
0000
3001
0100
0000
0100
0000
0010
0000
0010
0000
,
1010
0000
100M
0000
002M
0000
000M
1030
010M
0000
000M
0000
100M
0000
010M
0000
,
001M
0000
010M
0000
200M
0000
000M
3010
010M
0000
000M
0000
001M
0000
100M
0000
,
0100
0000
0010
0000
0M02
0000
0M00
1003
0M10
0000
0M00
0000
1M00
0000
0M01
0000
,
0M10
0000
0M01
0000
2M00
0000
0M00
3001
0M10
0000
0M10
0000
0M01
0000
0M01
0000
,
1000
0000
0010
0000
M200
0000
M000
0301
M010
0000
M000
0000
M001
0000
M010
0000
,
M100
0000
M010
0000
M002
0000
M000
0103
M010
0100
M001
0010
M100
0010
M001
0100
,
0010
1000
001M
1000
010M
0010
010M
1000
001M
1000
010M
1000
001M
0100
001M
0000
,
101M
0110
M110
M101
M101
M011
M011
M101
,
M101
0000
0000
0000
0002
0000
0000
1003
0100
0000
0000
0000
0010
0000
0001
0000
,
0100
0000
0010
0000
2000
0000
0000
3001
0100
0000
0000
0000
0001
0000
0010
0000
,
0100
0000
1000
0000
0020
0000
0000
0130
0001
0000
0000
0000
1000
0000
0100
0000
,
0010
0000
0001
0000
0200
0000
0000
0310
1000
0000
0000
0000
0100
0000
0010
0000
,
0001
0000
0100
0000
0020
0000
0000
1030
0001
0000
0000
0000
0010
0000
0100
0000
,
1000
0000
0001
0000
0020
0000
0000
0130
1000
0000
0000
0000
0001
0000
0100
0000
,
0010
0000
1000
0000
0002
0000
0000
0103
0010
0000
0000
0000
0100
0000
0001
0000
,
0010
0000
0100
0000
2000
0000
0000
3010
0100
0000
0000
0000
0001
0000
1000
0010
,
1000
0000
0001
0000
0010
0000
0100
1000
0100
0000
0010
0000
0001
0000
1000
0010
,
1000
0000
0001
0000
0100
0000
0010
1000
0010
0000
0100
0000
0001
0000
1000
0100
,
1000
0000
0100
0000
0010
0000
0001
0100
0001
0000
1000
0000
0010
0000
0100
0010
,
0100
0000
0001
0000
0010
0000
0100
0010
0100
0000
1000
0000
0001
0000
0100
0010
,
0100
0001
1000
0100
0010
0100
1000
0001
0100
0010
1000
0100
0010
0100
1000
0001
,
1000
0001
0100
0001
1000
0100
1000
0100
0010
0001
0010
0001
1000
0010
1000
0010
,
0200
0000
0000
0000
,
0000
0000
0000
0000
0300
MMMM
0000
0000
,
1001
0000
1000
0000
0200
0000
0310
0001
1000
0000
0001
0000
0100
0000
0001
0000
,
1001
0000
0001
0000
0200
0000
0310
1000
0001
0000
0010
0000
0100
0000
1000
0000
,
1100
0000
1000
0000
0002
0000
0103
0010
1000
0000
0001
0000
0010
0000
0100
0000
,
1100
0000
0000
0000
0000
0000
0100
0000
0000
0000
0000
0000
0020
0000
0000
0000
0000
0000
0031
0000
0000
1000
0000
0000
0010
0000
0000
0000
0000
0000
0001
0000
00M0
0000
0000
0000
0100
0000
0000
0000
0000
0000
1000
0000
0M00
0000
0000
0000
,
1001
0000
1000
0000
0002
0000
0013
0100
1000
0000
0100
0000
0010
0000
0001
0000
,
1001
0000
0001
0000
0200
0000
0310
1000
0001
0000
1000
0000
0100
0000
0010
0000
,
0110
0000
0010
0000
0200
0000
1300
0010
0100
0000
0001
0000
0010
0000
0100
0000
,
1100
0000
0000
0000
0000
0000
0000
0000
0000
0000
0000
0000
0000
0000
0000
0000
0000
0000
0000
0000
0000
0000
0000
0000
0100
0000
0000
0000
0000
0000
0000
0000
0000
0000
0000
0000
0000
0000
0000
0000
0000
0000
0000
0000
0000
0000
0000
0000
0020
0000
0000
0000
0000
0000
0000
0000
0000
0000
0000
0000
0000
0000
0000
0000
0000
0000
0000
0000
0000
0000
0000
0000
0000
0000
0000
0000
0000
0000
0000
0000
0000
0000
0000
0000
0031
0000
0000
0000
0000
0000
0000
0000
0000
0000
0000
0000
0010
0000
0000
0000
0000
0000
0000
0000
0000
0000
0000
0000
0000
0000
0000
0000
0000
0000
0000
0000
0000
0000
0000
0000
1000
0000
0000
0000
0000
0000
0000
0000
00M0
0000
0000
0000
0000
0000
0000
0000
0000
0000
0000
0000
0000
0000
0000
0000
0100
0000
0000
0000
0000
0000
0000
0000
0000
0000
0000
0000
0000
0000
0000
0000
0000
0000
0M00
0000
0000
0000
0000
0000
0001
0000
0000
0000
0000
0000
0000
0000
0000
0000
0000
0000
0000
0000
0000
0000
0000
0000
0000
0000
0000
0000
0000
0000
,
1001
0000
0001
0000
0200
0000
0310
1000
0100
0000
0010
0000
0001
0000
1000
0000
,
1001
0000
1000
0000
0020
0000
0130
0001
1000
0000
0100
0000
0010
0000
0001
0000
,
0011
0000
0001
0000
0200
0000
0310
1000
0100
0000
0010
0000
0100
0000
1000
0000
,
1010
0000
0000
0000
0000
0000
1000
0000
0000
0000
0000
0000
0020
0000
0000
0000
0000
0000
0130
0000
0000
0001
0000
0000
0010
0000
0000
0000
0000
0000
1000
0000
00M0
0000
0000
0000
0100
0000
0000
0000
0000
0000
0001
0000
0M00
0000
0000
0000
,
1001
0000
0001
0000
0200
0000
0310
1000
0001
0000
0010
0000
0100
0000
0010
0000
,
0110
0000
0010
0000
0002
0000
0103
0010
1000
0000
0010
0000
0100
0000
0001
0000
,
0101
0000
0001
0000
0020
0000
0130
1000
0001
0000
0100
0000
0010
0000
1000
0000
,
2020
0000
0000
0000
0000
0000
0000
0000
0000
3030
0000
0000
0200
0000
0000
0000
0000
0000
0000
0000
0000
0301
0000
0000
0100
0000
0000
0000
0000
0000
1000
0000
0M00
0000
0000
0000
0010
0000
0000
0000
0000
0000
0001
0000
00M0
0000
0000
0000
,
1001
0000
0001
0000
0020
0000
0130
1000
0001
0000
2000
3000
0010
0000
1000
0000
,
1001
0000
1000
0000
0020
0000
0130
0001
1000
0000
0200
0300
0010
0000
0001
0000
,
0011
0000
0001
0000
2000
0000
3010
0100
0001
0000
2000
3000
0100
0000
0010
0000
,
0011
0000
0000
0000
0000
0000
0010
0000
0000
0000
0000
0000
0200
0000
0000
0000
0000
0000
1300
0000
0000
0001
0000
0000
0100
0000
0000
0000
0000
0000
2000
0000
0M00
3000
0000
0000
0010
0000
0000
0000
0000
0000
0001
0000
00M0
0000
0000
0000
,
0101
0000
0001
0000
2000
0000
3100
0010
0001
0000
2000
3000
0010
0000
0100
0000
,
0110
0000
0100
0000
0002
0000
1003
0100
0010
0000
0002
0003
0100
0000
0010
0000
,
0110
0000
0010
0000
2000
0000
3100
0010
0001
0000
0200
0300
0010
0000
1000
0000
,
1010
0000
1000
0000
1000
0000
1000
0000
0010
0000
0001
00M0
0100
0000
1000
0M00
,
0010
0000
0M01
0010
0M00
0000
0M01
0000
1M00
0000
0M10
1000
0M00
0000
0M01
0000
,
0M10
0000
0M01
0010
0M00
0000
0M01
0000
1M00
0000
0M10
1000
0M00
0000
0M01
0000
,
0010
0000
M001
0100
M000
0000
M010
0000
M100
0000
M001
0010
M000
0000
M100
0000
,
M010
0000
M001
0100
M000
0000
M010
0000
M100
0000
M001
0010
M000
0000
M100
0000
,
1000
0000
00M1
0100
00M0
0000
00M1
0000
10M0
0000
01M0
1000
00M0
0000
00M1
0000
,
10M0
0000
00M1
0100
00M0
0000
00M1
0000
10M0
0000
01M0
1000
00M0
0000
01M0
0000
,
1000
0000
001M
0100
000M
0000
001M
0000
100M
0000
010M
0010
000M
0000
010M
0000
,
0010
0000
M001
0100
M000
0000
M010
0000
M100
0000
M010
0100
M000
0000
M001
0000
,
0010
0100
1000
0100
0010
0001
1000
0010
,
0100
0001
1000
0100
0010
0100
1000
0001
,
0100
0010
1000
0100
0010
0001
1000
0001
,
0100
0010
1000
0100
0010
0001
1000
0001
,
0100
0001
1000
0100
0010
0100
1000
0001
0100
0010
1000
0001
0010
0100
0010
0001
,
1000
0010
0100
0001
1000
0100
0010
0100
1000
0001
0100
0010
1000
0001
0010
0100
,
0010
0100
1100
1000
1001
0001
0101
0100
,
0110
0000
0000
0000
,
1001
0000
0001
1000
0010
0000
0100
0000
0101
0000
0100
0001
1000
0000
0100
0000
,
1100
0000
0100
0010
0001
0000
0010
0000
0110
0000
0010
0100
1000
0000
0001
0000
,
1001
0000
0001
0100
0010
0000
1000
0000
1100
0000
1000
0100
0010
0000
0001
0000
,
0011
0000
0001
0100
0010
0000
1000
0000
1010
0000
1000
0100
0010
0000
0001
0000
,
0011
0001
0100
0010
1000
0000
0010
1000
,
0001
0000
0100
0001
1000
0000
0010
1000
,
0001
0000
0000
0010
0100
0000
0000
0000
1000
0000
0000
0010
0100
0000
0000
0000
,
0001
0000
0000
0010
0100
0000
1000
0000
0001
0000
0000
0010
0100
0000
1000
0000
,
1001
0000
1000
0010
0100
0000
0001
0000
0101
0000
0001
0010
0100
0000
0010
0000
,
0110
0000
0010
0100
1000
0000
0001
0000
1001
0000
0001
0100
0010
0000
1000
0000
,
1010
0000
1000
0001
0010
0000
0100
0000
0110
0000
0100
0010
0001
0000
1000
0000
,
1001
0000
1000
0001
0010
0000
0001
0000
1001
0000
0001
1000
0010
0000
1000
0000
,
1100
1000
0100
0010
0001
0000
1000
0100
,
0010
0000
0001
1000
0100
0000
1000
0001
,
0010
0000
0000
0100
1000
0000
0000
0000
0010
0000
0000
0100
0001
0000
0000
0000
,
0220
0000
0000
0330
2000
0000
0000
3000
0002
0000
0000
0003
0100
0000
0100
0000
,
0110
0000
0010
1000
0100
0000
001M
0000
011M
0000
001M
0100
100M
0000
001M
0000
,
011M
0000
001M
1000
010M
0000
100M
0000
110M
0000
100M
0010
010M
0000
001M
0000
,
0110
0000
M010
0100
M001
0000
M010
0000
M110
0000
M010
0001
M100
0000
M010
0000
,
M110
0000
M010
0100
M001
0000
M100
0000
M101
0000
M100
0001
M010
0000
M001
0000
,
1000
0001
0100
0001
1000
0100
0010
0100
1000
0001
0010
0001
1000
0100
1000
0001
,
0010
0001
0100
0001
1000
0010
0100
0010
1000
0001
0010
0001
1000
0100
1000
0001
,
0100
0001
1000
0100
0010
0001
0100
0001
0010
0100
1000
0010
0100
0010
1000
0100
,
0020
0000
0100
0100
0030
0000
0100
0000
,
0200
0000
0300
0M00
0000
0000
0000
0000
;
