#TITLE:Duncan Hills Coffee;
#SUBTITLE:I'll make you scream for your cream;
#ARTIST:Dethklok;
#TITLETRANSLIT:;
#SUBTITLETRANSLIT:;
#ARTISTTRANSLIT:;
#CREDIT:;
#BANNER:Duncan Hills - bn.png;
#BACKGROUND:Duncan Hills - bg.png;
#LYRICSPATH:;
#CDTITLE:../aCD.png;
#MUSIC:Duncan Hills Coffee.ogg;
#OFFSET:-0.268;
#SAMPLESTART:33.640;
#SAMPLELENGTH:14.080;
#SELECTABLE:YES;
#DISPLAYBPM:240.000;
#BPMS:0.000=240.000,158.000=256.000,160.000=240.000,264.000=245.000,265.000=250.000,268.000=240.000,270.000=243.000,274.000=240.000,276.000=244.000;
#STOPS:;
#BGCHANGES:;
// cache tags:
#FIRSTBEAT:0.000;
#LASTBEAT:277.000;
#SONGFILENAME:Songs/Aoreo's Index Jawn/Duncan Hills - [Aoreo]/Duncan Hills Coffee.sm;
#HASMUSIC:1;
#HASBANNER:1;
#MUSICLENGTH:71.888;
// end cache tags

//---------------dance-single - If u cnt 99 dis u ga----------------
#NOTES:
     dance-single:
     If u cnt 99 dis u ga:
     Challenge:
     18:
     1.000,1.000,0.042,0.292,1.000,832.000,3.000,21.000,0.000,0.000:
1000
0000
0100
0000
,
1000
0000
0001
0000
,
0010
0000
0100
0000
,
1000
0000
0001
0000
,
0100
0000
0010
0000
,
0100
0000
0001
0000
,
0010
0000
0100
0000
,
1000
0000
0001
0000
,
1000
0100
1000
0001
0100
0001
0010
0001
1000
0100
1000
0001
0100
0010
0100
0001
,
1000
0100
0010
0100
1000
0010
0100
0010
1000
0001
0010
0100
1000
0001
0010
0001
,
1000
0100
1000
0010
1000
0001
0100
0010
0100
0001
1000
0100
1000
0001
0010
0100
,
1000
0010
1000
0001
0100
0001
1000
0100
0010
0001
1000
0100
1000
0001
0100
0001
,
0010
0001
1000
0100
1000
0001
0100
0001
0010
0100
1000
0010
0100
0001
0010
0100
,
1000
0001
0100
0001
1000
0100
0010
0100
1000
0001
0100
0001
1000
0100
0010
0100
,
1000
0010
0100
0001
0010
0001
1000
0100
1000
0010
0100
0010
1000
0100
0010
0001
,
1000
0002
0000
0003
0000
0000
0000
1000
,
0001
0100
0001
0010
0001
1000
0100
1000
0010
1000
0001
0100
0010
1000
0100
0010
,
0001
1000
0100
1000
0001
0100
0010
0100
0001
0010
0100
1000
0001
0010
0001
0100
,
0001
1000
0100
0010
0100
1000
0010
0100
0001
0100
0010
1000
0100
0010
0001
1000
,
0100
1000
0010
1000
0001
0100
0001
0010
0100
1000
0010
1000
0001
0100
0001
1000
,
0100
1000
0010
0100
0010
1000
0001
0100
0001
0010
0100
1000
0001
0100
0001
0010
,
0100
1000
0001
0100
0010
0100
0001
1000
0001
0100
0010
1000
0100
1000
0001
0010
,
0001
1000
0001
0100
0010
0100
0001
1000
0100
1000
0010
1000
0001
0100
0001
0010
,
0100
1000
0001
1000
0010
1000
0100
0010
0001
1000
0100
1000
0001
0100
0001
1000
,
0001
0010
0100
1000
0010
0100
0001
1000
0100
1000
0010
1000
0001
0100
0001
1000
,
0100
0010
0001
0100
0001
1000
0100
1000
0001
0010
0100
1000
0010
0100
0001
1000
,
0001
0100
0001
0010
0100
1000
0001
0100
0001
1000
0100
0010
0100
1000
0001
0010
,
0001
0100
0001
1000
0100
1000
0010
0100
0010
1000
0001
0010
0100
1000
0001
0100
,
0001
0010
0001
1000
0100
1000
0010
1000
0001
0010
0100
1000
0001
0100
0001
1000
,
0100
0010
0100
1000
0010
0100
0001
0010
0001
1000
0100
0010
0001
1000
0100
1000
,
0001
0100
0010
0100
0001
1000
0100
1000
0010
0100
0001
0010
0100
1000
0010
0100
,
0001
1000
0100
1000
0010
1000
0001
0010
0001
0100
0001
1000
0100
0010
0001
0100
,
0002
0000
0103
0000
,
0002
0000
0013
0000
,
0200
0000
1300
0000
,
0002
0203
0320
0000
,
0230
0000
0301
0000
,
2000
0000
3100
0000
,
0020
0000
0130
0000
,
2000
3002
2003
3000
,
0001
0100
0001
0010
0100
1000
0001
1000
0100
1000
0010
0100
0010
1000
0100
0010
,
0001
1000
0100
1000
0010
0100
0001
0100
0010
1000
0100
0010
0100
1000
0001
0100
,
0001
0010
0100
1000
0001
1000
0010
1000
0100
0010
0001
1000
0100
1000
0001
0100
,
0001
0010
0100
1000
0001
0100
0010
1000
0100
1000
0001
0100
0001
1000
0100
0010
,
0001
1000
0100
1000
0010
1000
0001
0100
0001
1000
0100
1000
0010
0100
0001
0010
,
0100
1000
0001
0100
0001
0010
0001
1000
0100
1000
0001
0010
0001
1000
0100
1000
,
0010
0100
0010
1000
0001
0010
0100
1000
0001
0010
0001
1000
0100
0010
0100
1000
,
0010
0100
0001
0010
0100
1000
0001
1000
0100
1000
0010
0100
0010
1000
0001
0010
,
0100
1000
0001
0100
0001
1000
0100
0010
0100
1000
0010
0100
0010
1000
0001
0010
,
0001
1000
0100
0010
0001
1000
0100
1000
0001
0100
0001
0010
0100
1000
0001
0100
,
0010
0100
0001
1000
0100
0010
0001
1000
0100
1000
0001
0010
0001
0100
0010
0100
,
0001
1000
0100
0010
0001
1000
0100
1000
0001
0010
0001
0100
0001
1000
0100
1000
,
0010
1000
0001
0100
0001
1000
0100
0010
0100
1000
0001
0100
0010
0100
0001
0010
,
0100
1000
0001
0100
0001
1000
0100
0010
0001
1000
0100
1000
0010
0100
0010
1000
,
0100
0010
0001
0100
0001
0010
0100
1000
0001
0010
0001
1000
0100
1000
0010
1000
,
0001
0100
0001
0010
0001
1000
0100
0010
0001
0100
0010
0100
0001
1000
0001
0010
,
0100
1000
0010
0100
0010
1000
0001
1000
0100
1000
0010
0100
0010
1000
0001
0100
,
0001
0010
0001
0100
0010
0100
0001
1000
0100
0010
0001
1000
0100
1000
0001
0010
,
0100
1000
0001
0100
0001
0010
0001
1000
0100
0010
0001
1000
0100
1000
0010
0100
,
0010
1000
0001
0010
0001
0100
0001
1000
0100
0010
0001
1000
0100
1000
0010
1000
,
0001
0010
0100
1000
0001
0100
0010
0100
0001
1000
0100
0010
0100
1000
0010
0100
,
0010
1000
0001
0010
0100
1000
0001
0100
0001
0010
0001
1000
0100
1000
0010
1000
,
0001
0010
0100
0010
0001
0100
0010
0100
0001
1000
0100
0010
0001
0100
0010
0100
,
0001
1000
0100
1000
0010
0100
0010
1000
0001
0010
0001
0100
0010
0100
0001
0010
,
0100
1000
0010
0100
0010
1000
0100
0010
0001
1000
0100
1000
0010
1000
0001
0100
,
0001
0010
0001
1000
0100
1000
0010
0100
0001
1000
0100
1000
0010
0100
0001
1000
,
0002
2003
3000
0000
1001
0000
0000
0000
,
0002
0203
0300
0000
0110
0000
0000
0000
,
0020
2030
3000
0000
1100
0000
0000
0000
,
0200
2300
3000
0000
0000
0000
0000
0000
;
